找回密码

蓝光电影网

查看: 134|回复: 4

[惊悚] 一定要抓住 The.Chase.2017.KOREAN.DC.1080p.BluRay.x264.DTS-WiKi 12.82GB

[复制链接]
  • TA的每日心情
    开心
    13 小时前
  • 签到天数: 26 天

    [LV.4]偶尔看看III

     成长值: 18160

    发表于 2018-12-6 21:36:14 | 显示全部楼层 |阅读模式

    马上注册,获取最新影视资讯,享用更多功能,让你轻松玩转蓝光电影网。

    您需要 登录 才可以下载或查看,没有帐号?立即加入

    x

    一定要抓住 The.Chase.2017.KOREAN.DC.1080p.BluRay.x264.DTS-WiKi 12.82GB-1.jpg
    一定要抓住 The.Chase.2017.KOREAN.DC.1080p.BluRay.x264.DTS-WiKi 12.82GB-2.jpg

    ◎译  名 一定要抓住 / The Chase
    ◎片  名 ??? ???
    ◎年  代 2017
    ◎产  地 韩国
    ◎类  别 惊悚 / 犯罪
    ◎语  言 韩语
    ◎上映日期 2017-11-29(韩国)
    ◎IMDb评分 6.5/10 from 541 users
    ◎IMDb链接 http://www.imdb.com/title/tt8088944
    ◎豆瓣评分 6.6/10 from 2265 users
    ◎豆瓣链接 https://movie.douban.com/subject/26945132/
    ◎片  长 110分钟
    ◎导  演 金泓善 Hong-sun Kim
    ◎编  剧 李赞荣 Chan-yeong Lee / 柳卡烈 Kab-yeol Yoo
    ◎主  演 白润植 Yun-shik Baek
          成东日 Dong-il Sung
          千虎珍 Ho-jin Jeon
          裴宗玉 Chong-ok Bae
          赵达焕 Dal-hwan Jo
          朴亨洙 Park Hyoung-soo
          孙钟学 Jong-Hak Son
          李坎熙 Lee Kan-hee
          朴智賢 Park Ji-hyun
          金思英 Kim Si-yeong
          吴熙俊 Hee-joon Oh
          高圭弼 Ko Kyu-pil
          金善荷 Kim Seon-ha
          吴炽垣 Chi-woon Oh
          申文成 Mun-sung Shin
          金民尚 Kim Min-sang
          李民雄 Min-woong Lee
          孙成灿 Son Seong-chan
          刘在明 Jae-myung Yoo
          郑侑敏 Yoo-min Jung


    ◎标  签 韩国 | 犯罪 | 悬疑 | 惊悚 | 2017 | 剧情 | 罪案 | 老人

    ◎简  介  

      电影讲述了追踪未结案事件凶手的故事。杀人案再次发生,犯罪手法竟然与30年前一起未结案事件一模一样。非常了解小区的老人和非常了解事件的前职刑 警用直觉与感觉开始追踪凶手....

    • Video
    • ID                                       : 1
    • Format                                   : AVC
    • Format/Info                              : Advanced Video Codec
    • Format profile                           : [email protected]
    • Format settings                          : CABAC / 5 Ref Frames
    • Format settings, CABAC                   : Yes
    • Format settings, ReFrames                : 5 frames
    • Codec ID                                 : V_MPEG4/ISO/AVC
    • Duration                                 : 2 h 2 min
    • Bit rate                                 : 13.5 Mb/s
    • Width                                    : 1 920 pixels
    • Height                                   : 804 pixels
    • Display aspect ratio                     : 2.40:1
    • Frame rate mode                          : Constant
    • Frame rate                               : 23.976 (24000/1001) FPS
    • Color space                              : YUV
    • Chroma subsampling                       : 4:2:0
    • Bit depth                                : 8 bits
    • Scan type                                : Progressive
    • Bits/(Pixel*Frame)                       : 0.365
    • Stream size                              : 11.5 GiB (90%)
    • Writing library                          : x264 core 155 r2867+82 a249126 t_mod_Custom_2 [[email protected] X86_64]
    • Encoding settings                        : cabac=1 / ref=5 / deblock=1:-3:-3 / analyse=0x3:0x133 / me=umh / subme=10 / psy=1 / fade_compensate=0.00 / psy_rd=1.00:0.00 / mixed_ref=1 / me_range=32 / chroma_me=1 / trellis=2 / 8x8dct=1 / cqm=0 / deadzone=21,11 / fast_pskip=0 / chroma_qp_offset=-2 / threads=12 / lookahead_threads=2 / sliced_threads=0 / nr=0 / decimate=0 / interlaced=0 / bluray_compat=0 / constrained_intra=0 / fgo=0 / bframes=9 / b_pyramid=2 / b_adapt=2 / b_bias=0 / direct=3 / weightb=1 / open_gop=0 / weightp=2 / keyint=250 / keyint_min=23 / scenecut=40 / intra_refresh=0 / rc_lookahead=60 / rc=crf / mbtree=0 / crf=17.1000 / qcomp=0.60 / qpmin=0:0:0 / qpmax=69:69:69 / qpstep=4 / vbv_maxrate=62500 / vbv_bufsize=78125 / crf_max=0.0 / nal_hrd=none / filler=0 / ip_ratio=1.40 / pb_ratio=1.30 / aq=3:0.80 / aq-sensitivity=10.00 / aq-factor=1.00:1.00:1.00 / aq2=0 / aq3=0 / zones=324,848,crf=14.5
    • Default                                  : Yes
    • Forced                                   : No
    • Audio
    • ID                                       : 2
    • Format                                   : DTS
    • Format/Info                              : Digital Theater Systems
    • Codec ID                                 : A_DTS
    • Duration                                 : 2 h 2 min
    • Bit rate mode                            : Constant
    • Bit rate                                 : 1 509 kb/s
    • Channel(s)                               : 6 channels
    • Channel layout                           : C L R Ls Rs LFE
    • Sampling rate                            : 48.0 kHz
    • Frame rate                               : 93.750 FPS (512 SPF)
    • Bit depth                                : 24 bits
    • Compression mode                         : Lossy
    • Stream size                              : 1.29 GiB (10%)
    • Language                                 : Korean
    • Default                                  : Yes
    • Forced                                   : No
    • Text
    • ID                                       : 3
    • Format                                   : UTF-8
    • Codec ID                                 : S_TEXT/UTF8
    • Codec ID/Info                            : UTF-8 Plain Text
    • Duration                                 : 1 h 57 min
    • Bit rate                                 : 35 b/s
    • Count of elements                        : 1293
    • Stream size                              : 31.0 KiB (0%)
    • Language                                 : English
    • Default                                  : Yes
    • Forced                                   : Yes
    • Menu
    • 00:00:00.000                             : en:00:00:00.000
    • 00:09:38.828                             : en:00:09:38.828
    • 00:20:06.789                             : en:00:20:06.789
    • 00:29:39.736                             : en:00:29:39.736
    • 00:37:26.661                             : en:00:37:26.661
    • 00:47:06.198                             : en:00:47:06.198
    • 00:53:12.898                             : en:00:53:12.898
    • 01:01:10.292                             : en:01:01:10.292
    • 01:09:07.643                             : en:01:09:07.643
    • 01:16:44.642                             : en:01:16:44.642
    • 01:23:15.908                             : en:01:23:15.908
    • 01:32:59.282                             : en:01:32:59.282
    • 01:40:26.187                             : en:01:40:26.187
    • 01:45:56.809                             : en:01:45:56.809
    • 01:50:39.424                             : en:01:50:39.424
    • 01:56:27.189                             : en:01:56:27.189

    复制代码

    一定要抓住 The.Chase.2017.KOREAN.DC.1080p.BluRay.x264.DTS-WiKi 12.82GB-3.png 一定要抓住 The.Chase.2017.KOREAN.DC.1080p.BluRay.x264.DTS-WiKi 12.82GB-4.png 一定要抓住 The.Chase.2017.KOREAN.DC.1080p.BluRay.x264.DTS-WiKi 12.82GB-5.png





    The.Chase.2017.KOREAN.DC.1080p.BluRay.x264.DTS-WiKi.torrent (64.61 KB, 下载次数: 7)
    开通VIP免费下载本站所有资源---点这里
    新手必看:资源下载、资源播放、字幕使用、等常见问题---点这里
    回复

    使用道具 举报

  • TA的每日心情
    开心
    半小时前
  • 签到天数: 14 天

    [LV.3]偶尔看看II

    发表于 2018-12-7 08:01:45 | 显示全部楼层
    免费下载本站所有资源
    开通VIP免费下载本站所有资源---点这里
    新手必看:资源下载、资源播放、字幕使用、等常见问题---点这里
    回复 支持 反对

    使用道具 举报

  • TA的每日心情
    难过
    前天 08:56
  • 签到天数: 14 天

    [LV.3]偶尔看看II

    发表于 2018-12-7 08:54:52 | 显示全部楼层
    看到这帖子真是高兴!真是难得给力的帖子啊。非常感谢楼主分享精彩好看的高清电影。激动人心,无法言表!真是被感动的痛哭流涕……感恩无私的分享与奉献 强烈支持楼主ing……楼主加油,我们都看好你哦。
    [发帖际遇]: ieye22 发帖时在路边捡到 1 蓝光币,偷偷放进了口袋. 幸运榜 / 衰神榜
    开通VIP免费下载本站所有资源---点这里
    新手必看:资源下载、资源播放、字幕使用、等常见问题---点这里
    回复 支持 反对

    使用道具 举报

  • TA的每日心情
    郁闷
    4 小时前
  • 签到天数: 3 天

    [LV.2]偶尔看看I

    发表于 3 天前 | 显示全部楼层
    The.Predator.2018.1080p.BluRay
    [发帖际遇]: 一个袋子砸在了 jiangyan 头上,jiangyan 赚了 1 蓝光币. 幸运榜 / 衰神榜
    开通VIP免费下载本站所有资源---点这里
    新手必看:资源下载、资源播放、字幕使用、等常见问题---点这里
    回复 支持 反对

    使用道具 举报

  • TA的每日心情
    郁闷
    4 小时前
  • 签到天数: 3 天

    [LV.2]偶尔看看I

    发表于 昨天 15:14 | 显示全部楼层
    看到这帖子真是高兴!真是难得给力的帖子啊
    开通VIP免费下载本站所有资源---点这里
    新手必看:资源下载、资源播放、字幕使用、等常见问题---点这里
    回复 支持 反对

    使用道具 举报

    懒得打字嘛,点击右侧快捷回复 【右侧内容,后台自定义】
    您需要登录后才可以回帖 登录 | 立即加入

    本版积分规则

    现在加入蓝光电影网,注册一个账号

    QQ| 手机版|小黑屋| 蓝光电影网 |网站地图

    Copyright © 20013-2018 Comsenz Inc.  Template by 蓝光电影论坛 All Rights Reserved.

    Powered by 高清电影网 X3.4
    特别声明:本站所有资源均由网上收集而来,版权归原影音公司所有,如果侵犯了你的权益,请通知我们,我们会及时删除侵权内容.

    快速回复 返回顶部 返回列表