找回密码

蓝光电影网

查看: 30956|回复: 952

[科幻] 毒液:致命守护者/毒液 Venom.2018.1080p.BluRay.x264.DTS-HD.MA.5.1-HDChina 12.43GB

  [复制链接]
  • TA的每日心情
    开心
    昨天 00:08
  • 签到天数: 181 天

    [LV.7]常住居民III

     成长值: 20575

    发表于 2018-12-6 20:49:59 | 显示全部楼层 |阅读模式

    马上注册,获取最新影视资讯,享用更多功能,让你轻松玩转蓝光电影网。

    您需要 登录 才可以下载或查看,没有帐号?立即加入

    x

    毒液:致命守护者/毒液 Venom.2018.1080p.BluRay.x264.DTS-HD.MA.5.1-HDChina 12.43GB-1.jpg
    毒液:致命守护者/毒液 Venom.2018.1080p.BluRay.x264.DTS-HD.MA.5.1-HDChina 12.43GB-2.jpg

    ◎译  名 毒液:致命守护者 / 毒液 / 毒魔(港) / 猛毒(台)
    ◎片  名 Venom
    ◎年  代 2018
    ◎产  地 美国 / 中国大陆
    ◎类  别 动作 / 科幻 / 惊悚
    ◎语  言 英语 / 汉语普通话
    ◎上映日期 2018-10-05(美国) / 2018-11-09(中国大陆)
    ◎IMDb评分 6.9/10 from 149248 users
    ◎IMDb链接 http://www.imdb.com/title/tt1270797
    ◎豆瓣评分 7.3/10 from 291683 users
    ◎豆瓣链接 https://movie.douban.com/subject/3168101/
    ◎片  长 112分钟
    ◎导  演 鲁本·弗雷斯彻 Ruben Fleischer
    ◎编  剧 杰夫·皮克纳 Jeff Pinkner / 斯科特·罗森伯格 Scott Rosenberg / 凯莉·马塞尔 Kelly Marcel / 托德·麦克法兰 Todd McFarlane / 戴维·麦克法兰 David Michelinie
    ◎主  演 汤姆·哈迪 Tom Hardy
          米歇尔·威廉姆斯 Michelle Williams
          里兹·阿迈德 Riz Ahmed
          斯科特·黑兹 Scott Haze
          瑞德·斯科特 Reid Scott
          珍妮·斯蕾特 Jenny Slate
          梅罗拉·沃特斯 Melora Walters
          伍迪·哈里森 Woody Harrelson
          Peggy Lu
          Malcolm C. Murray
          索佩·阿卢科 Sope Aluko
          韦恩·佩雷 Wayne Pére
          米歇尔·李 Michelle Lee
          库尔特·岳 Kurt Yue
          克里斯·奥哈拉 Chris O'Hara
          埃米里奥·瑞弗拉 Emilio Rivera
          阿里亚当娜·约瑟夫 Ariadne Joseph
          袁之正 Roger Yuan
          朴云龙 Woon Young Park
          麦克·勃兰特 Mac Brandt
          尼克·图恩 Nick Thune
          山姆·麦地那 Sam Medina
          迪塞尔·马德金斯 Diesel Madkins
          简·麦克尼尔 Jane McNeill
          维克托·麦凯 Victor McCay
          马丁·巴特斯·布拉德福德 Martin Bats Bradford
          布兰顿·莫拉莱斯 Brandon Morales
          马修·康威尔 Matthew Cornwell
          斯坦·李 Stan Lee
          韦德·威廉姆斯 Wade Williams
          约瑟夫·阿梅 Joseph Amey
          威廉·W·巴伯 William W. Barbour
          玛塞拉·布拉吉奥 Marcella Bragio
          卡特·伯奇 Carter Burch
          克里斯蒂安·康佛瑞 Christian Convery
          詹姆斯·富尔特斯 James Fuertes
          丹妮拉·加斯基 Daniela Gaskie
          约翰·盖蒂尔 John Gettier
          艾米丽塔·T·冈萨雷斯 Emelita T. Gonzalez
          杰克·汉森 Jake Hanson
          安东尼·B·哈里斯 Anthony B. Harris
          卡茜·亨德利 Cassie Hendry
          罗恩·彼得·琼斯 Ron Cephas Jones
          霍梅洛·洛佩兹 Homero Lopez
          万恩·姆约维奇 Vaughn Myovich


    ◎标  签 漫威 | 科幻 | 超级英雄 | 美国 | 2018 | 动作 | 搞笑 | 漫画改编

    ◎简  介  

      艾迪(汤姆·哈迪 Tom Hardy 饰)是一位深受观众喜爱的新闻记者,和女友安妮(米歇尔·威廉姆斯 Michelle Williams 饰)相恋多年,彼此之间感情十分要好。安妮是一名律师,接手了生命基金会的案件,在女友的邮箱里,艾迪发现了基金会老板德雷克(里兹·阿迈德 Riz Ahmed 饰)不为人知的秘密。为此,艾迪不仅丢了工作,女友也离他而去。
    之后,生命基金会的朵拉博士(珍妮·斯蕾特 Jenny Slate 饰)找到了艾迪,希望艾迪能够帮助她阻止德雷克疯狂的罪行。在生命基金会的实验室里,艾迪发现了德雷克进行人体实验的证据,并且在误打误撞之中被外星生命体毒液附身。回到家后,艾迪和毒液之间形成了共生关系,他们要应对的是德雷克派出的一波又一波杀手。

    • Video
    • ID                                       : 1
    • Format                                   : AVC
    • Format/Info                              : Advanced Video Codec
    • Format profile                           : [email protected]
    • Format settings                          : CABAC / 5 Ref Frames
    • Format settings, CABAC                   : Yes
    • Format settings, ReFrames                : 5 frames
    • Codec ID                                 : V_MPEG4/ISO/AVC
    • Duration                                 : 1 h 52 min
    • Bit rate                                 : 13.5 Mb/s
    • Width                                    : 1 920 pixels
    • Height                                   : 800 pixels
    • Display aspect ratio                     : 2.40:1
    • Frame rate mode                          : Constant
    • Frame rate                               : 23.976 (24000/1001) FPS
    • Color space                              : YUV
    • Chroma subsampling                       : 4:2:0
    • Bit depth                                : 8 bits
    • Scan type                                : Progressive
    • Bits/(Pixel*Frame)                       : 0.367
    • Stream size                              : 10.6 GiB (85%)
    • Writing library                          : x264 core 148 r2665kMod a01e339
    • Encoding settings                        : cabac=1 / ref=5 / deblock=1:-3:-3 / analyse=0x3:0x133 / me=umh / subme=11 / psy=1 / fade_compensate=0.00 / psy_rd=0.85:0.00 / mixed_ref=1 / me_range=48 / chroma_me=1 / trellis=2 / 8x8dct=1 / cqm=0 / deadzone=21,11 / fast_pskip=0 / chroma_qp_offset=-2 / threads=24 / lookahead_threads=4 / sliced_threads=0 / nr=0 / decimate=0 / interlaced=0 / bluray_compat=0 / constrained_intra=0 / fgo=0 / bframes=8 / b_pyramid=2 / b_adapt=2 / b_bias=0 / direct=3 / weightb=1 / open_gop=0 / weightp=2 / keyint=240 / keyint_min=24 / scenecut=40 / intra_refresh=0 / rc=2pass / mbtree=0 / bitrate=13500 / ratetol=1.0 / qcomp=0.70 / qpmin=0 / qpmax=69 / qpstep=4 / cplxblur=20.0 / qblur=0.5 / ip_ratio=1.20 / pb_ratio=1.20 / aq=3:0.80
    • Default                                  : Yes
    • Forced                                   : No
    • Audio
    • ID                                       : 2
    • Format                                   : DTS XLL
    • Format/Info                              : Digital Theater Systems
    • Commercial name                          : DTS-HD Master Audio
    • Codec ID                                 : A_DTS
    • Duration                                 : 1 h 52 min
    • Bit rate mode                            : Variable
    • Bit rate                                 : 2 322 kb/s
    • Channel(s)                               : 6 channels
    • Channel layout                           : C L R Ls Rs LFE
    • Sampling rate                            : 48.0 kHz
    • Frame rate                               : 93.750 FPS (512 SPF)
    • Bit depth                                : 16 bits
    • Compression mode                         : Lossless
    • Stream size                              : 1.82 GiB (15%)
    • Language                                 : English
    • Default                                  : Yes
    • Forced                                   : No
    • Text #1
    • ID                                       : 3
    • Format                                   : UTF-8
    • Codec ID                                 : S_TEXT/UTF8
    • Codec ID/Info                            : UTF-8 Plain Text
    • Duration                                 : 1 h 49 min
    • Bit rate                                 : 57 b/s
    • Count of elements                        : 1474
    • Stream size                              : 45.7 KiB (0%)
    • Title                                    : English-SRT
    • Language                                 : English
    • Default                                  : Yes
    • Forced                                   : No
    • Text #2
    • ID                                       : 4
    • Format                                   : UTF-8
    • Codec ID                                 : S_TEXT/UTF8
    • Codec ID/Info                            : UTF-8 Plain Text
    • Duration                                 : 1 h 49 min
    • Bit rate                                 : 68 b/s
    • Count of elements                        : 1828
    • Stream size                              : 55.2 KiB (0%)
    • Title                                    : English-SDH-SRT
    • Language                                 : English
    • Default                                  : No
    • Forced                                   : No
    • Text #3
    • ID                                       : 5
    • Format                                   : PGS
    • Muxing mode                              : zlib
    • Codec ID                                 : S_HDMV/PGS
    • Codec ID/Info                            : Picture based subtitle format used on BDs/HD-DVDs
    • Duration                                 : 1 h 49 min
    • Bit rate                                 : 32.7 kb/s
    • Count of elements                        : 2707
    • Stream size                              : 25.5 MiB (0%)
    • Title                                    : English-PGS
    • Language                                 : English
    • Default                                  : No
    • Forced                                   : No
    • Text #4
    • ID                                       : 6
    • Format                                   : PGS
    • Muxing mode                              : zlib
    • Codec ID                                 : S_HDMV/PGS
    • Codec ID/Info                            : Picture based subtitle format used on BDs/HD-DVDs
    • Duration                                 : 1 h 49 min
    • Bit rate                                 : 44.9 kb/s
    • Count of elements                        : 3663
    • Stream size                              : 35.1 MiB (0%)
    • Title                                    : English-SDH-PGS
    • Language                                 : English
    • Default                                  : No
    • Forced                                   : No
    • Menu
    • 00:00:00.000                             : en:00:00:00.000
    • 00:04:43.200                             : en:00:04:43.200
    • 00:10:58.074                             : en:00:10:58.074
    • 00:17:34.929                             : en:00:17:34.929
    • 00:24:05.486                             : en:00:24:05.486
    • 00:32:18.812                             : en:00:32:18.812
    • 00:40:07.447                             : en:00:40:07.447
    • 00:46:51.976                             : en:00:46:51.976
    • 00:53:26.203                             : en:00:53:26.203
    • 01:00:57.070                             : en:01:00:57.070
    • 01:04:01.796                             : en:01:04:01.796
    • 01:08:36.446                             : en:01:08:36.446
    • 01:11:12.852                             : en:01:11:12.852
    • 01:14:15.743                             : en:01:14:15.743
    • 01:21:18.749                             : en:01:21:18.749
    • 01:27:15.021                             : en:01:27:15.021

    复制代码

    毒液:致命守护者/毒液 Venom.2018.1080p.BluRay.x264.DTS-HD.MA.5.1-HDChina 12.43GB-3.png 毒液:致命守护者/毒液 Venom.2018.1080p.BluRay.x264.DTS-HD.MA.5.1-HDChina 12.43GB-4.png 毒液:致命守护者/毒液 Venom.2018.1080p.BluRay.x264.DTS-HD.MA.5.1-HDChina 12.43GB-5.png





    Venom.2018.1080p.BluRay.x264.DTS-HD.MA.5.1-HDC.torrent (62.68 KB, 下载次数: 2897)
    开通VIP免费下载本站所有资源---点这里
    新手必看:资源下载、资源播放、字幕使用、等常见问题---点这里
    回复

    使用道具 举报

  • TA的每日心情
    开心
    2019-4-12 10:38
  • 签到天数: 35 天

    [LV.5]常住居民I

    发表于 2018-12-7 08:10:06 | 显示全部楼层
    免费下载本站所有资源
    [发帖际遇]: dbcyzj 发帖时在路边捡到 2 蓝光币,偷偷放进了口袋. 幸运榜 / 衰神榜
    开通VIP免费下载本站所有资源---点这里
    新手必看:资源下载、资源播放、字幕使用、等常见问题---点这里
    回复 支持 1 反对 0

    使用道具 举报

  • TA的每日心情

    前天 10:55
  • 签到天数: 102 天

    [LV.6]常住居民II

    发表于 2018-12-7 08:48:47 | 显示全部楼层

    楼主发贴辛苦了,谢谢楼主分享!
    开通VIP免费下载本站所有资源---点这里
    新手必看:资源下载、资源播放、字幕使用、等常见问题---点这里
    回复 支持 1 反对 0

    使用道具 举报

    该用户从未签到

     成长值: 4450

    发表于 2018-12-6 22:01:32 | 显示全部楼层
    楼主发贴辛苦了,谢谢楼主分享!我觉得蓝光电影网是注册对了!
    开通VIP免费下载本站所有资源---点这里
    新手必看:资源下载、资源播放、字幕使用、等常见问题---点这里
    回复 支持 反对

    使用道具 举报

  • TA的每日心情
    开心
    2019-5-12 12:10
  • 签到天数: 11 天

    [LV.3]偶尔看看II

    发表于 2018-12-6 22:51:20 | 显示全部楼层
    谢谢楼主分享好电影
    开通VIP免费下载本站所有资源---点这里
    新手必看:资源下载、资源播放、字幕使用、等常见问题---点这里
    回复 支持 反对

    使用道具 举报

    该用户从未签到

    发表于 2018-12-6 22:55:18 | 显示全部楼层
    dddddddddddddddddddddddddddddddddddd
    开通VIP免费下载本站所有资源---点这里
    新手必看:资源下载、资源播放、字幕使用、等常见问题---点这里
    回复 支持 反对

    使用道具 举报

  • TA的每日心情
    慵懒
    昨天 22:58
  • 签到天数: 33 天

    [LV.5]常住居民I

    发表于 2018-12-7 02:05:24 | 显示全部楼层
    sdfsdaf asf a
    开通VIP免费下载本站所有资源---点这里
    新手必看:资源下载、资源播放、字幕使用、等常见问题---点这里
    回复 支持 反对

    使用道具 举报

  • TA的每日心情
    慵懒
    昨天 22:58
  • 签到天数: 33 天

    [LV.5]常住居民I

    发表于 2018-12-7 02:10:32 | 显示全部楼层
    多谢分享,好电影。安妮海瑟薇漂亮。
    开通VIP免费下载本站所有资源---点这里
    新手必看:资源下载、资源播放、字幕使用、等常见问题---点这里
    回复 支持 反对

    使用道具 举报

  • TA的每日心情
    开心
    12 小时前
  • 签到天数: 176 天

    [LV.7]常住居民III

    发表于 2018-12-7 06:44:22 | 显示全部楼层

    谢谢楼主分享
    开通VIP免费下载本站所有资源---点这里
    新手必看:资源下载、资源播放、字幕使用、等常见问题---点这里
    回复 支持 反对

    使用道具 举报

  • TA的每日心情
    开心
    3 天前
  • 签到天数: 43 天

    [LV.5]常住居民I

    发表于 2018-12-7 07:58:45 | 显示全部楼层
    楼主发贴辛苦了,谢谢楼主分享!我觉得蓝光电影网是注册对了!
    开通VIP免费下载本站所有资源---点这里
    新手必看:资源下载、资源播放、字幕使用、等常见问题---点这里
    回复 支持 反对

    使用道具 举报

    *滑动验证:
    懒得打字嘛,点击右侧快捷回复 【右侧内容,后台自定义】
    您需要登录后才可以回帖 登录 | 立即加入

    本版积分规则

    现在加入蓝光电影网,注册一个账号

    QQ| 手机版|小黑屋| 蓝光电影网 |网站地图

    Copyright © 20013-2018 Comsenz Inc.  Template by 蓝光电影论坛 All Rights Reserved.

    Powered by 高清电影网 X3.4
    特别声明:本站所有资源均由网上收集而来,版权归原影音公司所有,如果侵犯了你的权益,请通知我们,我们会及时删除侵权内容.

    快速回复 返回顶部 返回列表