找回密码

蓝光电影网

查看: 1390|回复: 82

阿尔忒弥斯酒店/绝命酒店 Hotel.Artemis.2018.INTERNAL.2160p.UHD.BluRay.X265.10bit.HDR.DTS-HD.MA.5.1-IAMABLE 14.54GB

  [复制链接]
  • TA的每日心情
    开心
    13 小时前
  • 签到天数: 26 天

    [LV.4]偶尔看看III

     成长值: 18160

    发表于 2018-12-5 11:42:43 | 显示全部楼层 |阅读模式

    马上注册,获取最新影视资讯,享用更多功能,让你轻松玩转蓝光电影网。

    您需要 登录 才可以下载或查看,没有帐号?立即加入

    x

    阿尔忒弥斯酒店/绝命酒店 Hotel.Artemis.2018.INTERNAL.2160p.UHD.BluRay.X265.10bit.HDR.DTS-HD.MA.5.1-IAMABLE 14.54GB-1.jpg
    阿尔忒弥斯酒店/绝命酒店 Hotel.Artemis.2018.INTERNAL.2160p.UHD.BluRay.X265.10bit.HDR.DTS-HD.MA.5.1-IAMABLE 14.54GB-2.jpg

    ◎译  名 阿尔忒弥斯酒店 / 绝命酒店(港)
    ◎片  名 Hotel Artemis
    ◎年  代 2018
    ◎产  地 美国 / 英国
    ◎类  别 动作 / 惊悚 / 犯罪
    ◎语  言 英语
    ◎上映日期 2018-06-08(美国)
    ◎IMDb评分 6.1/10 from 20006 users
    ◎IMDb链接 http://www.imdb.com/title/tt5834262
    ◎豆瓣评分 5.6/10 from 1776 users
    ◎豆瓣链接 https://movie.douban.com/subject/26925532/
    ◎片  长 94分钟
    ◎导  演 德鲁·皮尔斯 Drew Pearce
    ◎编  剧 德鲁·皮尔斯 Drew Pearce
    ◎主  演 朱迪·福斯特 Jodie Foster
          斯特林·K·布朗 Sterling K. Brown
          索菲亚·波多拉 Sofia Boutella
          杰夫·高布伦 Jeff Goldblum
          布莱恩·泰里·亨利 Brian Tyree Henry
          珍妮·斯蕾特 Jenny Slate
          扎克瑞·昆图 Zachary Quinto
          查理·戴 Charlie Day
          戴夫·巴蒂斯塔 Dave Bautista
          肯尼斯·崔 Kenneth Choi
          Josh Tillman
          伊万·琼斯 Evan Jones
          内森·戴维斯 Nathan Davis Jr.
          拉美西斯·希梅内斯 Ramses Jimenez
          安杰拉·斯普林克尔 Angela Sprinkle
          巴尔迪普·辛格 Baldeep Singh
          布兰顿·莫拉莱斯 Brandon Morales
          坦纳·吉尔 Tanner Gill


    ◎标  签 犯罪 | 动作 | 科幻 | 美国 | 2018 | 朱迪·福斯特 | 惊悚 | 美国电影

    ◎简  介  

      影片由德鲁·皮尔斯执导,朱迪·福斯特主演,戴夫·巴蒂斯塔、索菲亚·波多拉出演。在近未来洛杉矶一家专门为罪犯疗伤的医院,福斯特饰演的护士在工作中偶然发现一名举止怪异的病人,与此同时其他病患却接连死于非命 ...

    • Video
    • ID                                       : 1
    • Format                                   : HEVC
    • Format/Info                              : High Efficiency Video Coding
    • Commercial name                          : HDR10
    • Format profile                           : Main [email protected]@High
    • Codec ID                                 : V_MPEGH/ISO/HEVC
    • Duration                                 : 1 h 34 min
    • Bit rate                                 : 19.8 Mb/s
    • Width                                    : 3 840 pixels
    • Height                                   : 1 600 pixels
    • Display aspect ratio                     : 2.40:1
    • Frame rate mode                          : Constant
    • Frame rate                               : 23.976 (24000/1001) FPS
    • Color space                              : YUV
    • Chroma subsampling                       : 4:2:0 (Type 2)
    • Bit depth                                : 10 bits
    • Bits/(Pixel*Frame)                       : 0.134
    • Stream size                              : 13.0 GiB (90%)
    • Writing library                          : x265 2.9+8-27d8424c799d:[Windows][MSVC 1900][64 bit] 10bit
    • Encoding settings                        : cpuid=1176575 / frame-threads=5 / numa-pools=32 / wpp / no-pmode / no-pme / no-psnr / no-ssim / log-level=2 / input-csp=1 / input-res=3840x1600 / interlace=0 / total-frames=135261 / level-idc=51 / high-tier=1 / uhd-bd=0 / ref=4 / no-allow-non-conformance / repeat-headers / annexb / aud / hrd / info / hash=0 / no-temporal-layers / no-open-gop / min-keyint=24 / keyint=240 / gop-lookahead=0 / bframes=4 / b-adapt=2 / b-pyramid / bframe-bias=0 / rc-lookahead=25 / lookahead-slices=4 / scenecut=40 / radl=0 / no-intra-refresh / ctu=64 / min-cu-size=8 / rect / no-amp / max-tu-size=32 / tu-inter-depth=1 / tu-intra-depth=1 / limit-tu=0 / rdoq-level=2 / dynamic-rd=0.00 / no-ssim-rd / signhide / no-tskip / nr-intra=0 / nr-inter=0 / no-constrained-intra / no-strong-intra-smoothing / max-merge=3 / limit-refs=3 / limit-modes / me=3 / subme=3 / merange=57 / temporal-mvp / weightp / no-weightb / no-analyze-src-pics / deblock=-3:-3 / no-sao / no-sao-non-deblock / rd=4 / no-early-skip / rskip / no-fast-intra / no-tskip-fast / no-cu-lossless / no-b-intra / no-splitrd-skip / rdpenalty=0 / psy-rd=2.00 / psy-rdoq=1.00 / no-rd-refine / no-lossless / cbqpoffs=0 / crqpoffs=0 / rc=crf / crf=17.0 / qcomp=0.60 / qpstep=4 / stats-write=0 / stats-read=0 / vbv-maxrate=160000 / vbv-bufsize=160000 / vbv-init=0.9 / crf-max=0.0 / crf-min=0.0 / ipratio=1.40 / pbratio=1.30 / aq-mode=1 / aq-strength=1.00 / cutree / zone-count=0 / no-strict-cbr / qg-size=32 / no-rc-grain / qpmax=69 / qpmin=0 / no-const-vbv / sar=1 / overscan=0 / videoformat=5 / range=0 / colorprim=9 / transfer=16 / colormatrix=9 / chromaloc=1 / chromaloc-top=2 / chromaloc-bottom=2 / display-window=0 / master-display=G(8500,39850)B(6550,2300)R(35400,14600)WP(15635,16450)L(10000000,50) / max-cll=624,595 / min-luma=0 / max-luma=1023 / log2-max-poc-lsb=8 / vui-timing-info / vui-hrd-info / slices=1 / no-opt-qp-pps / no-opt-ref-list-length-pps / no-multi-pass-opt-rps / scenecut-bias=0.05 / no-opt-cu-delta-qp / no-aq-motion / hdr / hdr-opt / no-dhdr10-opt / no-idr-recovery-sei / analysis-reuse-level=5 / scale-factor=0 / refine-intra=0 / refine-inter=0 / refine-mv=0 / no-limit-sao / ctu-info=0 / no-lowpass-dct / refine-mv-type=0 / copy-pic=1 / max-ausize-factor=1.0 / no-dynamic-refine / no-single-sei
    • Default                                  : Yes
    • Forced                                   : No
    • Color range                              : Limited
    • Color primaries                          : BT.2020
    • Transfer characteristics                 : PQ
    • Matrix coefficients                      : BT.2020 non-constant
    • Mastering display color primaries        : BT.2020
    • Mastering display luminance              : min: 0.0050 cd/m2, max: 1000 cd/m2
    • Maximum Content Light Level              : 624 cd/m2
    • Maximum Frame-Average Light Level        : 595 cd/m2
    • Audio #1
    • ID                                       : 2
    • Format                                   : DTS XLL
    • Format/Info                              : Digital Theater Systems
    • Commercial name                          : DTS-HD Master Audio
    • Codec ID                                 : A_DTS
    • Duration                                 : 1 h 34 min
    • Bit rate mode                            : Variable
    • Bit rate                                 : 1 831 kb/s
    • Channel(s)                               : 6 channels
    • Channel layout                           : C L R Ls Rs LFE
    • Sampling rate                            : 48.0 kHz
    • Frame rate                               : 93.750 FPS (512 SPF)
    • Bit depth                                : 16 bits
    • Compression mode                         : Lossless
    • Stream size                              : 1.20 GiB (8%)
    • Title                                    : DTS-MA HD 5.1 (DE)
    • Language                                 : English
    • Default                                  : Yes
    • Forced                                   : No
    • Audio #2
    • ID                                       : 3
    • Format                                   : AC-3
    • Format/Info                              : Audio Coding 3
    • Commercial name                          : Dolby Digital
    • Codec ID                                 : A_AC3
    • Duration                                 : 1 h 34 min
    • Bit rate mode                            : Constant
    • Bit rate                                 : 224 kb/s
    • Channel(s)                               : 2 channels
    • Channel layout                           : L R
    • Sampling rate                            : 48.0 kHz
    • Frame rate                               : 31.250 FPS (1536 SPF)
    • Bit depth                                : 16 bits
    • Compression mode                         : Lossy
    • Stream size                              : 151 MiB (1%)
    • Title                                    : Commentary with director/writer Drew Pearce and producer Adam Siegel
    • Language                                 : English
    • Service kind                             : Complete Main
    • Default                                  : No
    • Forced                                   : No
    • Text #1
    • ID                                       : 4
    • Format                                   : UTF-8
    • Codec ID                                 : S_TEXT/UTF8
    • Codec ID/Info                            : UTF-8 Plain Text
    • Duration                                 : 1 h 32 min
    • Bit rate                                 : 0 b/s
    • Count of elements                        : 6
    • Stream size                              : 135 Bytes (0%)
    • Title                                    : Forced SRT
    • Language                                 : English
    • Default                                  : Yes
    • Forced                                   : Yes
    • Text #2
    • ID                                       : 5
    • Format                                   : PGS
    • Muxing mode                              : zlib
    • Codec ID                                 : S_HDMV/PGS
    • Codec ID/Info                            : Picture based subtitle format used on BDs/HD-DVDs
    • Duration                                 : 1 h 32 min
    • Bit rate                                 : 166 b/s
    • Count of elements                        : 12
    • Stream size                              : 113 KiB (0%)
    • Title                                    : Forced
    • Language                                 : English
    • Default                                  : No
    • Forced                                   : No
    • Text #3
    • ID                                       : 6
    • Format                                   : UTF-8
    • Codec ID                                 : S_TEXT/UTF8
    • Codec ID/Info                            : UTF-8 Plain Text
    • Duration                                 : 1 h 33 min
    • Bit rate                                 : 67 b/s
    • Count of elements                        : 1459
    • Stream size                              : 45.9 KiB (0%)
    • Title                                    : Stripped SRT
    • Language                                 : Fulah
    • Default                                  : No
    • Forced                                   : No
    • Text #4
    • ID                                       : 7
    • Format                                   : UTF-8
    • Codec ID                                 : S_TEXT/UTF8
    • Codec ID/Info                            : UTF-8 Plain Text
    • Duration                                 : 1 h 33 min
    • Bit rate                                 : 76 b/s
    • Count of elements                        : 1682
    • Stream size                              : 52.6 KiB (0%)
    • Title                                    : SDH SRT
    • Language                                 : English
    • Default                                  : No
    • Forced                                   : No
    • Text #5
    • ID                                       : 8
    • Format                                   : PGS
    • Muxing mode                              : zlib
    • Codec ID                                 : S_HDMV/PGS
    • Codec ID/Info                            : Picture based subtitle format used on BDs/HD-DVDs
    • Duration                                 : 1 h 33 min
    • Bit rate                                 : 52.5 kb/s
    • Count of elements                        : 3356
    • Stream size                              : 35.2 MiB (0%)
    • Title                                    : SDH
    • Language                                 : English
    • Default                                  : No
    • Forced                                   : No
    • Text #6
    • ID                                       : 9
    • Format                                   : PGS
    • Muxing mode                              : zlib
    • Codec ID                                 : S_HDMV/PGS
    • Codec ID/Info                            : Picture based subtitle format used on BDs/HD-DVDs
    • Duration                                 : 1 h 33 min
    • Bit rate                                 : 39.1 kb/s
    • Count of elements                        : 2286
    • Stream size                              : 26.2 MiB (0%)
    • Language                                 : German
    • Default                                  : No
    • Forced                                   : No
    • Text #7
    • ID                                       : 10
    • Format                                   : PGS
    • Muxing mode                              : zlib
    • Codec ID                                 : S_HDMV/PGS
    • Codec ID/Info                            : Picture based subtitle format used on BDs/HD-DVDs
    • Duration                                 : 1 h 25 min
    • Bit rate                                 : 43.5 kb/s
    • Count of elements                        : 2378
    • Stream size                              : 26.5 MiB (0%)
    • Language                                 : Spanish
    • Default                                  : No
    • Forced                                   : No
    • Menu
    • 00:00:00.000                             : :00:00:00.000
    • 00:07:30.200                             : :00:07:30.200
    • 00:16:39.498                             : :00:16:39.498
    • 00:24:50.197                             : :00:24:50.197
    • 00:33:24.669                             : :00:33:24.669
    • 00:40:32.013                             : :00:40:32.013
    • 00:47:16.083                             : :00:47:16.083
    • 00:54:59.838                             : :00:54:59.838
    • 01:02:53.436                             : :01:02:53.436
    • 01:13:02.545                             : :01:13:02.545
    • 01:18:18.944                             : :01:18:18.944
    • 01:25:53.982                             : :01:25:53.982

    复制代码

    阿尔忒弥斯酒店/绝命酒店 Hotel.Artemis.2018.INTERNAL.2160p.UHD.BluRay.X265.10bit.HDR.DTS-HD.MA.5.1-IAMABLE 14.54GB-3.png 阿尔忒弥斯酒店/绝命酒店 Hotel.Artemis.2018.INTERNAL.2160p.UHD.BluRay.X265.10bit.HDR.DTS-HD.MA.5.1-IAMABLE 14.54GB-4.png 阿尔忒弥斯酒店/绝命酒店 Hotel.Artemis.2018.INTERNAL.2160p.UHD.BluRay.X265.10bit.HDR.DTS-HD.MA.5.1-IAMABLE 14.54GB-5.png





    Hotel.Artemis.2018.INTERNAL.2160p.UHD.BluRay.X265.10bit.HDR.DTS-HD.MA.5.1-IAMABLE.torrent (73.42 KB, 下载次数: 132)
    开通VIP免费下载本站所有资源---点这里
    新手必看:资源下载、资源播放、字幕使用、等常见问题---点这里
    回复

    使用道具 举报

  • TA的每日心情
    开心
    3 小时前
  • 签到天数: 21 天

    [LV.4]偶尔看看III

    发表于 2018-12-5 13:34:11 | 显示全部楼层

    楼主太厉害了!楼主,电影应该很好看我觉得蓝光电影网真是个好地方!
    [发帖际遇]: linlida 发帖时在路边捡到 2 蓝光币,偷偷放进了口袋. 幸运榜 / 衰神榜
    开通VIP免费下载本站所有资源---点这里
    新手必看:资源下载、资源播放、字幕使用、等常见问题---点这里
    回复 支持 反对

    使用道具 举报

  • TA的每日心情
    开心
    3 天前
  • 签到天数: 13 天

    [LV.3]偶尔看看II

    发表于 2018-12-5 13:42:21 | 显示全部楼层
    厉害了!楼主,电影应该很好看
    [发帖际遇]: vfvfvf_2006 发帖时在路边捡到 2 蓝光币,偷偷放进了口袋. 幸运榜 / 衰神榜
    开通VIP免费下载本站所有资源---点这里
    新手必看:资源下载、资源播放、字幕使用、等常见问题---点这里
    回复 支持 反对

    使用道具 举报

  • TA的每日心情
    开心
    1 小时前
  • 签到天数: 29 天

    [LV.4]偶尔看看III

    发表于 2018-12-5 13:43:37 | 显示全部楼层
    楼主太厉害了
    开通VIP免费下载本站所有资源---点这里
    新手必看:资源下载、资源播放、字幕使用、等常见问题---点这里
    回复 支持 反对

    使用道具 举报

  • TA的每日心情
    开心
    1 小时前
  • 签到天数: 29 天

    [LV.4]偶尔看看III

    发表于 2018-12-5 13:45:13 | 显示全部楼层
    楼主太厉害了
    开通VIP免费下载本站所有资源---点这里
    新手必看:资源下载、资源播放、字幕使用、等常见问题---点这里
    回复 支持 反对

    使用道具 举报

  • TA的每日心情
    开心
    1 小时前
  • 签到天数: 29 天

    [LV.4]偶尔看看III

    发表于 2018-12-5 13:46:51 | 显示全部楼层
    楼主太厉害了
    开通VIP免费下载本站所有资源---点这里
    新手必看:资源下载、资源播放、字幕使用、等常见问题---点这里
    回复 支持 反对

    使用道具 举报

  • TA的每日心情
    开心
    1 小时前
  • 签到天数: 29 天

    [LV.4]偶尔看看III

    发表于 2018-12-5 13:47:58 | 显示全部楼层
    楼主太厉害了
    [发帖际遇]: 一个袋子砸在了 chuchan 头上,chuchan 赚了 1 蓝光币. 幸运榜 / 衰神榜
    开通VIP免费下载本站所有资源---点这里
    新手必看:资源下载、资源播放、字幕使用、等常见问题---点这里
    回复 支持 反对

    使用道具 举报

  • TA的每日心情
    开心
    1 小时前
  • 签到天数: 29 天

    [LV.4]偶尔看看III

    发表于 2018-12-5 13:50:51 | 显示全部楼层
    楼主太厉害了
    开通VIP免费下载本站所有资源---点这里
    新手必看:资源下载、资源播放、字幕使用、等常见问题---点这里
    回复 支持 反对

    使用道具 举报

  • TA的每日心情
    开心
    1 小时前
  • 签到天数: 29 天

    [LV.4]偶尔看看III

    发表于 2018-12-5 13:53:29 | 显示全部楼层
    楼主太厉害了
    [发帖际遇]: chuchan 乐于助人,奖励 1 蓝光币. 幸运榜 / 衰神榜
    开通VIP免费下载本站所有资源---点这里
    新手必看:资源下载、资源播放、字幕使用、等常见问题---点这里
    回复 支持 反对

    使用道具 举报

  • TA的每日心情
    开心
    1 小时前
  • 签到天数: 29 天

    [LV.4]偶尔看看III

    发表于 2018-12-5 13:56:07 | 显示全部楼层
    楼主太厉害了
    开通VIP免费下载本站所有资源---点这里
    新手必看:资源下载、资源播放、字幕使用、等常见问题---点这里
    回复 支持 反对

    使用道具 举报

    懒得打字嘛,点击右侧快捷回复 【右侧内容,后台自定义】
    您需要登录后才可以回帖 登录 | 立即加入

    本版积分规则

    现在加入蓝光电影网,注册一个账号

    QQ| 手机版|小黑屋| 蓝光电影网 |网站地图

    Copyright © 20013-2018 Comsenz Inc.  Template by 蓝光电影论坛 All Rights Reserved.

    Powered by 高清电影网 X3.4
    特别声明:本站所有资源均由网上收集而来,版权归原影音公司所有,如果侵犯了你的权益,请通知我们,我们会及时删除侵权内容.

    快速回复 返回顶部 返回列表