找回密码

蓝光电影网

查看: 672|回复: 25

阿尔忒弥斯酒店/绝命酒店 Hotel.Artemis.2018.2160p.BluRay.REMUX.HEVC.HDR.DTS-HD.MA.5.1-FGT 40.02GB

[复制链接]
  • TA的每日心情
    开心
    9 小时前
  • 签到天数: 123 天

    [LV.7]常住居民III

     成长值: 19660

    发表于 2018-12-5 11:42:16 | 显示全部楼层 |阅读模式

    马上注册,获取最新影视资讯,享用更多功能,让你轻松玩转蓝光电影网。

    您需要 登录 才可以下载或查看,没有帐号?立即加入

    x

    阿尔忒弥斯酒店/绝命酒店 Hotel.Artemis.2018.2160p.BluRay.REMUX.HEVC.HDR.DTS-HD.MA.5.1-FGT 40.02GB-1.jpg
    阿尔忒弥斯酒店/绝命酒店 Hotel.Artemis.2018.2160p.BluRay.REMUX.HEVC.HDR.DTS-HD.MA.5.1-FGT 40.02GB-2.jpg

    ◎译  名 阿尔忒弥斯酒店 / 绝命酒店(港)
    ◎片  名 Hotel Artemis
    ◎年  代 2018
    ◎产  地 美国 / 英国
    ◎类  别 动作 / 惊悚 / 犯罪
    ◎语  言 英语
    ◎上映日期 2018-06-08(美国)
    ◎IMDb评分 6.1/10 from 20006 users
    ◎IMDb链接 http://www.imdb.com/title/tt5834262
    ◎豆瓣评分 5.6/10 from 1776 users
    ◎豆瓣链接 https://movie.douban.com/subject/26925532/
    ◎片  长 94分钟
    ◎导  演 德鲁·皮尔斯 Drew Pearce
    ◎编  剧 德鲁·皮尔斯 Drew Pearce
    ◎主  演 朱迪·福斯特 Jodie Foster
          斯特林·K·布朗 Sterling K. Brown
          索菲亚·波多拉 Sofia Boutella
          杰夫·高布伦 Jeff Goldblum
          布莱恩·泰里·亨利 Brian Tyree Henry
          珍妮·斯蕾特 Jenny Slate
          扎克瑞·昆图 Zachary Quinto
          查理·戴 Charlie Day
          戴夫·巴蒂斯塔 Dave Bautista
          肯尼斯·崔 Kenneth Choi
          Josh Tillman
          伊万·琼斯 Evan Jones
          内森·戴维斯 Nathan Davis Jr.
          拉美西斯·希梅内斯 Ramses Jimenez
          安杰拉·斯普林克尔 Angela Sprinkle
          巴尔迪普·辛格 Baldeep Singh
          布兰顿·莫拉莱斯 Brandon Morales
          坦纳·吉尔 Tanner Gill


    ◎标  签 犯罪 | 动作 | 科幻 | 美国 | 2018 | 朱迪·福斯特 | 惊悚 | 美国电影

    ◎简  介  

      影片由德鲁·皮尔斯执导,朱迪·福斯特主演,戴夫·巴蒂斯塔、索菲亚·波多拉出演。在近未来洛杉矶一家专门为罪犯疗伤的医院,福斯特饰演的护士在工作中偶然发现一名举止怪异的病人,与此同时其他病患却接连死于非命 ...

    • Video
    • ID                                       : 1
    • Format                                   : HEVC
    • Format/Info                              : High Efficiency Video Coding
    • Commercial name                          : HDR10
    • Format profile                           : Main [email protected]@High
    • Codec ID                                 : V_MPEGH/ISO/HEVC
    • Duration                                 : 1 h 34 min
    • Bit rate                                 : 56.5 Mb/s
    • Width                                    : 3 840 pixels
    • Height                                   : 2 160 pixels
    • Display aspect ratio                     : 16:9
    • Frame rate mode                          : Constant
    • Frame rate                               : 23.976 (24000/1001) FPS
    • Color space                              : YUV
    • Chroma subsampling                       : 4:2:0 (Type 2)
    • Bit depth                                : 10 bits
    • Bits/(Pixel*Frame)                       : 0.284
    • Stream size                              : 37.3 GiB (93%)
    • Title                                    : Hotel.Artemis.2018.2160p.BluRay.REMUX.HEVC.HDR.DTS-HD.MA.5.1-FGT
    • Default                                  : Yes
    • Forced                                   : No
    • Color range                              : Limited
    • Color primaries                          : BT.2020
    • Transfer characteristics                 : PQ
    • Matrix coefficients                      : BT.2020 non-constant
    • Mastering display color primaries        : BT.2020
    • Mastering display luminance              : min: 0.0050 cd/m2, max: 1000 cd/m2
    • Maximum Content Light Level              : 624 cd/m2
    • Maximum Frame-Average Light Level        : 595 cd/m2
    • Audio #1
    • ID                                       : 2
    • Format                                   : DTS XLL
    • Format/Info                              : Digital Theater Systems
    • Commercial name                          : DTS-HD Master Audio
    • Codec ID                                 : A_DTS
    • Duration                                 : 1 h 34 min
    • Bit rate mode                            : Variable
    • Bit rate                                 : 1 830 kb/s
    • Channel(s)                               : 6 channels
    • Channel layout                           : C L R Ls Rs LFE
    • Sampling rate                            : 48.0 kHz
    • Frame rate                               : 93.750 FPS (512 SPF)
    • Bit depth                                : 16 bits
    • Compression mode                         : Lossless
    • Stream size                              : 1.21 GiB (3%)
    • Title                                    : Hotel.Artemis.2018.2160p.BluRay.REMUX.HEVC.HDR.DTS-HD.MA.5.1-FGT
    • Language                                 : English
    • Default                                  : Yes
    • Forced                                   : No
    • Audio #2
    • ID                                       : 3
    • Format                                   : AC-3
    • Format/Info                              : Audio Coding 3
    • Commercial name                          : Dolby Digital
    • Codec ID                                 : A_AC3
    • Duration                                 : 1 h 34 min
    • Bit rate mode                            : Constant
    • Bit rate                                 : 224 kb/s
    • Channel(s)                               : 2 channels
    • Channel layout                           : L R
    • Sampling rate                            : 48.0 kHz
    • Frame rate                               : 31.250 FPS (1536 SPF)
    • Bit depth                                : 16 bits
    • Compression mode                         : Lossy
    • Stream size                              : 151 MiB (0%)
    • Title                                    : Hotel.Artemis.2018.2160p.BluRay.REMUX.HEVC.HDR.DTS-HD.MA.5.1-FGT
    • Language                                 : English
    • Service kind                             : Complete Main
    • Default                                  : No
    • Forced                                   : No
    • Audio #3
    • ID                                       : 4
    • Format                                   : DTS XLL
    • Format/Info                              : Digital Theater Systems
    • Commercial name                          : DTS-HD Master Audio
    • Codec ID                                 : A_DTS
    • Duration                                 : 1 h 34 min
    • Bit rate mode                            : Variable
    • Bit rate                                 : 1 852 kb/s
    • Channel(s)                               : 6 channels
    • Channel layout                           : C L R Ls Rs LFE
    • Sampling rate                            : 48.0 kHz
    • Frame rate                               : 93.750 FPS (512 SPF)
    • Bit depth                                : 16 bits
    • Compression mode                         : Lossless
    • Stream size                              : 1.22 GiB (3%)
    • Title                                    : Hotel.Artemis.2018.2160p.BluRay.REMUX.HEVC.HDR.DTS-HD.MA.5.1-FGT
    • Language                                 : German
    • Default                                  : No
    • Forced                                   : No
    • Audio #4
    • ID                                       : 5
    • Format                                   : AC-3
    • Format/Info                              : Audio Coding 3
    • Commercial name                          : Dolby Digital
    • Codec ID                                 : A_AC3
    • Duration                                 : 1 h 34 min
    • Bit rate mode                            : Constant
    • Bit rate                                 : 224 kb/s
    • Channel(s)                               : 2 channels
    • Channel layout                           : L R
    • Sampling rate                            : 48.0 kHz
    • Frame rate                               : 31.250 FPS (1536 SPF)
    • Bit depth                                : 16 bits
    • Compression mode                         : Lossy
    • Stream size                              : 151 MiB (0%)
    • Title                                    : Hotel.Artemis.2018.2160p.BluRay.REMUX.HEVC.HDR.DTS-HD.MA.5.1-FGT
    • Language                                 : German
    • Service kind                             : Complete Main
    • Default                                  : No
    • Forced                                   : No
    • Text #1
    • ID                                       : 6
    • Format                                   : PGS
    • Muxing mode                              : zlib
    • Codec ID                                 : S_HDMV/PGS
    • Codec ID/Info                            : Picture based subtitle format used on BDs/HD-DVDs
    • Duration                                 : 1 h 32 min
    • Bit rate                                 : 166 b/s
    • Count of elements                        : 12
    • Stream size                              : 113 KiB (0%)
    • Title                                    : English-PGS
    • Language                                 : English
    • Default                                  : Yes
    • Forced                                   : No
    • Text #2
    • ID                                       : 7
    • Format                                   : PGS
    • Muxing mode                              : zlib
    • Codec ID                                 : S_HDMV/PGS
    • Codec ID/Info                            : Picture based subtitle format used on BDs/HD-DVDs
    • Duration                                 : 1 h 33 min
    • Bit rate                                 : 39.1 kb/s
    • Count of elements                        : 2286
    • Stream size                              : 26.2 MiB (0%)
    • Title                                    : German-PGS
    • Language                                 : German
    • Default                                  : No
    • Forced                                   : No
    • Text #3
    • ID                                       : 8
    • Format                                   : PGS
    • Muxing mode                              : zlib
    • Codec ID                                 : S_HDMV/PGS
    • Codec ID/Info                            : Picture based subtitle format used on BDs/HD-DVDs
    • Duration                                 : 1 h 9 min
    • Bit rate                                 : 1 031 b/s
    • Count of elements                        : 52
    • Stream size                              : 522 KiB (0%)
    • Title                                    : German-PGS
    • Language                                 : German
    • Default                                  : No
    • Forced                                   : No
    • Menu
    • 00:00:00.000                             : :Chapter 1
    • 00:07:30.199                             : :Chapter 2
    • 00:16:39.498                             : :Chapter 3
    • 00:24:50.197                             : :Chapter 4
    • 00:33:24.669                             : :Chapter 5
    • 00:40:32.012                             : :Chapter 6
    • 00:47:16.083                             : :Chapter 7
    • 00:54:59.838                             : :Chapter 8
    • 01:02:53.436                             : :Chapter 9
    • 01:13:02.544                             : :Chapter 10
    • 01:18:18.944                             : :Chapter 11
    • 01:25:53.982                             : :Chapter 12

    复制代码

    阿尔忒弥斯酒店/绝命酒店 Hotel.Artemis.2018.2160p.BluRay.REMUX.HEVC.HDR.DTS-HD.MA.5.1-FGT 40.02GB-3.png 阿尔忒弥斯酒店/绝命酒店 Hotel.Artemis.2018.2160p.BluRay.REMUX.HEVC.HDR.DTS-HD.MA.5.1-FGT 40.02GB-4.png 阿尔忒弥斯酒店/绝命酒店 Hotel.Artemis.2018.2160p.BluRay.REMUX.HEVC.HDR.DTS-HD.MA.5.1-FGT 40.02GB-5.png





    Hotel.Artemis.2018.2160p.BluRay.REMUX.HEVC.HDR.DTS-HD.MA.5.1-FGT.torrent (100.61 KB, 下载次数: 51)
    开通VIP免费下载本站所有资源---点这里
    新手必看:资源下载、资源播放、字幕使用、等常见问题---点这里
    回复

    使用道具 举报

  • TA的每日心情
    开心
    2019-1-11 16:40
  • 签到天数: 8 天

    [LV.3]偶尔看看II

    发表于 2018-12-5 14:52:58 | 显示全部楼层
    期待已久  终于等到
    开通VIP免费下载本站所有资源---点这里
    新手必看:资源下载、资源播放、字幕使用、等常见问题---点这里
    回复 支持 反对

    使用道具 举报

    该用户从未签到

    发表于 2018-12-5 19:27:56 | 显示全部楼层
    楼主发贴辛苦了,谢谢楼主分享!我觉得蓝光电影网是注册对了!
    开通VIP免费下载本站所有资源---点这里
    新手必看:资源下载、资源播放、字幕使用、等常见问题---点这里
    回复 支持 反对

    使用道具 举报

  • TA的每日心情
    开心
    2019-1-29 11:10
  • 签到天数: 4 天

    [LV.2]偶尔看看I

    发表于 2018-12-5 20:08:06 | 显示全部楼层
    感谢分享!!非常感谢
    开通VIP免费下载本站所有资源---点这里
    新手必看:资源下载、资源播放、字幕使用、等常见问题---点这里
    回复 支持 反对

    使用道具 举报

  • TA的每日心情
    开心
    2019-1-12 21:09
  • 签到天数: 16 天

    [LV.4]偶尔看看III

    发表于 2018-12-5 21:04:17 | 显示全部楼层

    这个帖子不回对不起自己!我想我是一天也不能离开蓝光电影网
    开通VIP免费下载本站所有资源---点这里
    新手必看:资源下载、资源播放、字幕使用、等常见问题---点这里
    回复 支持 反对

    使用道具 举报

  • TA的每日心情
    开心
    2019-1-12 21:09
  • 签到天数: 16 天

    [LV.4]偶尔看看III

    发表于 2018-12-5 21:05:58 | 显示全部楼层

    既然你诚信诚意的推荐了,那我就勉为其难的看看吧!蓝光电影网不走平凡路。
    开通VIP免费下载本站所有资源---点这里
    新手必看:资源下载、资源播放、字幕使用、等常见问题---点这里
    回复 支持 反对

    使用道具 举报

  • TA的每日心情
    开心
    2019-1-12 21:09
  • 签到天数: 16 天

    [LV.4]偶尔看看III

    发表于 2018-12-5 21:07:01 | 显示全部楼层

    感谢楼主的无私分享!要想蓝光电影网好 就靠你我他
    [发帖际遇]: 盈影映影 发帖时在路边捡到 1 蓝光币,偷偷放进了口袋. 幸运榜 / 衰神榜
    开通VIP免费下载本站所有资源---点这里
    新手必看:资源下载、资源播放、字幕使用、等常见问题---点这里
    回复 支持 反对

    使用道具 举报

  • TA的每日心情
    无聊
    1 小时前
  • 签到天数: 125 天

    [LV.7]常住居民III

    发表于 2018-12-6 09:12:16 | 显示全部楼层
    谢谢楼主发片。
    [发帖际遇]: 309307932 发帖时在路边捡到 1 蓝光币,偷偷放进了口袋. 幸运榜 / 衰神榜
    开通VIP免费下载本站所有资源---点这里
    新手必看:资源下载、资源播放、字幕使用、等常见问题---点这里
    回复 支持 反对

    使用道具 举报

  • TA的每日心情
    开心
    2 小时前
  • 签到天数: 119 天

    [LV.6]常住居民II

    发表于 2018-12-6 14:04:49 | 显示全部楼层
    楼主太厉害了
    [发帖际遇]: 一个袋子砸在了 chuchan 头上,chuchan 赚了 2 蓝光币. 幸运榜 / 衰神榜
    开通VIP免费下载本站所有资源---点这里
    新手必看:资源下载、资源播放、字幕使用、等常见问题---点这里
    回复 支持 反对

    使用道具 举报

    该用户从未签到

    发表于 2018-12-6 20:48:32 | 显示全部楼层
    期待已久  终于等到
    开通VIP免费下载本站所有资源---点这里
    新手必看:资源下载、资源播放、字幕使用、等常见问题---点这里
    回复 支持 反对

    使用道具 举报

    *滑动验证:
    懒得打字嘛,点击右侧快捷回复 【右侧内容,后台自定义】
    您需要登录后才可以回帖 登录 | 立即加入

    本版积分规则

    现在加入蓝光电影网,注册一个账号

    QQ| 手机版|小黑屋| 蓝光电影网 |网站地图

    Copyright © 20013-2018 Comsenz Inc.  Template by 蓝光电影论坛 All Rights Reserved.

    Powered by 高清电影网 X3.4
    特别声明:本站所有资源均由网上收集而来,版权归原影音公司所有,如果侵犯了你的权益,请通知我们,我们会及时删除侵权内容.

    快速回复 返回顶部 返回列表