找回密码

蓝光电影网

查看: 1010|回复: 25

[REMUX.HEVC] 阿尔忒弥斯酒店/绝命酒店 Hotel.Artemis.2018.2160p.BluRay.REMUX.HEVC.HDR.DTS-HD.MA.5.1-FGT 40.02GB

[复制链接]

 成长值: 21415

发表于 2018-12-5 11:42:16 | 显示全部楼层 |阅读模式
阿尔忒弥斯酒店/绝命酒店 Hotel.Artemis.2018.2160p.BluRay.REMUX.HEVC.HDR.DTS-HD.MA.5.1-FGT 40.02GB-1.jpg
阿尔忒弥斯酒店/绝命酒店 Hotel.Artemis.2018.2160p.BluRay.REMUX.HEVC.HDR.DTS-HD.MA.5.1-FGT 40.02GB-2.jpg

◎译  名 阿尔忒弥斯酒店 / 绝命酒店(港)
◎片  名 Hotel Artemis
◎年  代 2018
◎产  地 美国 / 英国
◎类  别 动作 / 惊悚 / 犯罪
◎语  言 英语
◎上映日期 2018-06-08(美国)
◎IMDb评分 6.1/10 from 20006 users
◎IMDb链接 http://www.imdb.com/title/tt5834262
◎豆瓣评分 5.6/10 from 1776 users
◎豆瓣链接 https://movie.douban.com/subject/26925532/
◎片  长 94分钟
◎导  演 德鲁·皮尔斯 Drew Pearce
◎编  剧 德鲁·皮尔斯 Drew Pearce
◎主  演 朱迪·福斯特 Jodie Foster
      斯特林·K·布朗 Sterling K. Brown
      索菲亚·波多拉 Sofia Boutella
      杰夫·高布伦 Jeff Goldblum
      布莱恩·泰里·亨利 Brian Tyree Henry
      珍妮·斯蕾特 Jenny Slate
      扎克瑞·昆图 Zachary Quinto
      查理·戴 Charlie Day
      戴夫·巴蒂斯塔 Dave Bautista
      肯尼斯·崔 Kenneth Choi
      Josh Tillman
      伊万·琼斯 Evan Jones
      内森·戴维斯 Nathan Davis Jr.
      拉美西斯·希梅内斯 Ramses Jimenez
      安杰拉·斯普林克尔 Angela Sprinkle
      巴尔迪普·辛格 Baldeep Singh
      布兰顿·莫拉莱斯 Brandon Morales
      坦纳·吉尔 Tanner Gill


◎标  签 犯罪 | 动作 | 科幻 | 美国 | 2018 | 朱迪·福斯特 | 惊悚 | 美国电影

◎简  介  

  影片由德鲁·皮尔斯执导,朱迪·福斯特主演,戴夫·巴蒂斯塔、索菲亚·波多拉出演。在近未来洛杉矶一家专门为罪犯疗伤的医院,福斯特饰演的护士在工作中偶然发现一名举止怪异的病人,与此同时其他病患却接连死于非命 ...


  1. Video
  2. ID                                       : 1
  3. Format                                   : HEVC
  4. Format/Info                              : High Efficiency Video Coding
  5. Commercial name                          : HDR10
  6. Format profile                           : Main [url=/cdn-cgi/l/email-protection][email protected][/url]@High
  7. Codec ID                                 : V_MPEGH/ISO/HEVC
  8. Duration                                 : 1 h 34 min
  9. Bit rate                                 : 56.5 Mb/s
  10. Width                                    : 3 840 pixels
  11. Height                                   : 2 160 pixels
  12. Display aspect ratio                     : 16:9
  13. Frame rate mode                          : Constant
  14. Frame rate                               : 23.976 (24000/1001) FPS
  15. Color space                              : YUV
  16. Chroma subsampling                       : 4:2:0 (Type 2)
  17. Bit depth                                : 10 bits
  18. Bits/(Pixel*Frame)                       : 0.284
  19. Stream size                              : 37.3 GiB (93%)
  20. Title                                    : Hotel.Artemis.2018.2160p.BluRay.REMUX.HEVC.HDR.DTS-HD.MA.5.1-FGT
  21. Default                                  : Yes
  22. Forced                                   : No
  23. Color range                              : Limited
  24. Color primaries                          : BT.2020
  25. Transfer characteristics                 : PQ
  26. Matrix coefficients                      : BT.2020 non-constant
  27. Mastering display color primaries        : BT.2020
  28. Mastering display luminance              : min: 0.0050 cd/m2, max: 1000 cd/m2
  29. Maximum Content Light Level              : 624 cd/m2
  30. Maximum Frame-Average Light Level        : 595 cd/m2

  31. Audio #1
  32. ID                                       : 2
  33. Format                                   : DTS XLL
  34. Format/Info                              : Digital Theater Systems
  35. Commercial name                          : DTS-HD Master Audio
  36. Codec ID                                 : A_DTS
  37. Duration                                 : 1 h 34 min
  38. Bit rate mode                            : Variable
  39. Bit rate                                 : 1 830 kb/s
  40. Channel(s)                               : 6 channels
  41. Channel layout                           : C L R Ls Rs LFE
  42. Sampling rate                            : 48.0 kHz
  43. Frame rate                               : 93.750 FPS (512 SPF)
  44. Bit depth                                : 16 bits
  45. Compression mode                         : Lossless
  46. Stream size                              : 1.21 GiB (3%)
  47. Title                                    : Hotel.Artemis.2018.2160p.BluRay.REMUX.HEVC.HDR.DTS-HD.MA.5.1-FGT
  48. Language                                 : English
  49. Default                                  : Yes
  50. Forced                                   : No

  51. Audio #2
  52. ID                                       : 3
  53. Format                                   : AC-3
  54. Format/Info                              : Audio Coding 3
  55. Commercial name                          : Dolby Digital
  56. Codec ID                                 : A_AC3
  57. Duration                                 : 1 h 34 min
  58. Bit rate mode                            : Constant
  59. Bit rate                                 : 224 kb/s
  60. Channel(s)                               : 2 channels
  61. Channel layout                           : L R
  62. Sampling rate                            : 48.0 kHz
  63. Frame rate                               : 31.250 FPS (1536 SPF)
  64. Bit depth                                : 16 bits
  65. Compression mode                         : Lossy
  66. Stream size                              : 151 MiB (0%)
  67. Title                                    : Hotel.Artemis.2018.2160p.BluRay.REMUX.HEVC.HDR.DTS-HD.MA.5.1-FGT
  68. Language                                 : English
  69. Service kind                             : Complete Main
  70. Default                                  : No
  71. Forced                                   : No

  72. Audio #3
  73. ID                                       : 4
  74. Format                                   : DTS XLL
  75. Format/Info                              : Digital Theater Systems
  76. Commercial name                          : DTS-HD Master Audio
  77. Codec ID                                 : A_DTS
  78. Duration                                 : 1 h 34 min
  79. Bit rate mode                            : Variable
  80. Bit rate                                 : 1 852 kb/s
  81. Channel(s)                               : 6 channels
  82. Channel layout                           : C L R Ls Rs LFE
  83. Sampling rate                            : 48.0 kHz
  84. Frame rate                               : 93.750 FPS (512 SPF)
  85. Bit depth                                : 16 bits
  86. Compression mode                         : Lossless
  87. Stream size                              : 1.22 GiB (3%)
  88. Title                                    : Hotel.Artemis.2018.2160p.BluRay.REMUX.HEVC.HDR.DTS-HD.MA.5.1-FGT
  89. Language                                 : German
  90. Default                                  : No
  91. Forced                                   : No

  92. Audio #4
  93. ID                                       : 5
  94. Format                                   : AC-3
  95. Format/Info                              : Audio Coding 3
  96. Commercial name                          : Dolby Digital
  97. Codec ID                                 : A_AC3
  98. Duration                                 : 1 h 34 min
  99. Bit rate mode                            : Constant
  100. Bit rate                                 : 224 kb/s
  101. Channel(s)                               : 2 channels
  102. Channel layout                           : L R
  103. Sampling rate                            : 48.0 kHz
  104. Frame rate                               : 31.250 FPS (1536 SPF)
  105. Bit depth                                : 16 bits
  106. Compression mode                         : Lossy
  107. Stream size                              : 151 MiB (0%)
  108. Title                                    : Hotel.Artemis.2018.2160p.BluRay.REMUX.HEVC.HDR.DTS-HD.MA.5.1-FGT
  109. Language                                 : German
  110. Service kind                             : Complete Main
  111. Default                                  : No
  112. Forced                                   : No

  113. Text #1
  114. ID                                       : 6
  115. Format                                   : PGS
  116. Muxing mode                              : zlib
  117. Codec ID                                 : S_HDMV/PGS
  118. Codec ID/Info                            : Picture based subtitle format used on BDs/HD-DVDs
  119. Duration                                 : 1 h 32 min
  120. Bit rate                                 : 166 b/s
  121. Count of elements                        : 12
  122. Stream size                              : 113 KiB (0%)
  123. Title                                    : English-PGS
  124. Language                                 : English
  125. Default                                  : Yes
  126. Forced                                   : No

  127. Text #2
  128. ID                                       : 7
  129. Format                                   : PGS
  130. Muxing mode                              : zlib
  131. Codec ID                                 : S_HDMV/PGS
  132. Codec ID/Info                            : Picture based subtitle format used on BDs/HD-DVDs
  133. Duration                                 : 1 h 33 min
  134. Bit rate                                 : 39.1 kb/s
  135. Count of elements                        : 2286
  136. Stream size                              : 26.2 MiB (0%)
  137. Title                                    : German-PGS
  138. Language                                 : German
  139. Default                                  : No
  140. Forced                                   : No

  141. Text #3
  142. ID                                       : 8
  143. Format                                   : PGS
  144. Muxing mode                              : zlib
  145. Codec ID                                 : S_HDMV/PGS
  146. Codec ID/Info                            : Picture based subtitle format used on BDs/HD-DVDs
  147. Duration                                 : 1 h 9 min
  148. Bit rate                                 : 1 031 b/s
  149. Count of elements                        : 52
  150. Stream size                              : 522 KiB (0%)
  151. Title                                    : German-PGS
  152. Language                                 : German
  153. Default                                  : No
  154. Forced                                   : No

  155. Menu
  156. 00:00:00.000                             : :Chapter 1
  157. 00:07:30.199                             : :Chapter 2
  158. 00:16:39.498                             : :Chapter 3
  159. 00:24:50.197                             : :Chapter 4
  160. 00:33:24.669                             : :Chapter 5
  161. 00:40:32.012                             : :Chapter 6
  162. 00:47:16.083                             : :Chapter 7
  163. 00:54:59.838                             : :Chapter 8
  164. 01:02:53.436                             : :Chapter 9
  165. 01:13:02.544                             : :Chapter 10
  166. 01:18:18.944                             : :Chapter 11
  167. 01:25:53.982                             : :Chapter 12
复制代码

复制代码

阿尔忒弥斯酒店/绝命酒店 Hotel.Artemis.2018.2160p.BluRay.REMUX.HEVC.HDR.DTS-HD.MA.5.1-FGT 40.02GB-3.png 阿尔忒弥斯酒店/绝命酒店 Hotel.Artemis.2018.2160p.BluRay.REMUX.HEVC.HDR.DTS-HD.MA.5.1-FGT 40.02GB-4.png 阿尔忒弥斯酒店/绝命酒店 Hotel.Artemis.2018.2160p.BluRay.REMUX.HEVC.HDR.DTS-HD.MA.5.1-FGT 40.02GB-5.png





开通VIP免费下载本站所有资源---点这里
新手必看:资源下载、资源播放、字幕使用、等常见问题---点这里
回复

使用道具 举报

发表于 2018-12-5 14:52:58 | 显示全部楼层
期待已久  终于等到
开通VIP免费下载本站所有资源---点这里
新手必看:资源下载、资源播放、字幕使用、等常见问题---点这里
回复 支持 反对

使用道具 举报

发表于 2018-12-5 19:27:56 | 显示全部楼层
楼主发贴辛苦了,谢谢楼主分享!我觉得蓝光电影网是注册对了!
开通VIP免费下载本站所有资源---点这里
新手必看:资源下载、资源播放、字幕使用、等常见问题---点这里
回复 支持 反对

使用道具 举报

发表于 2018-12-5 20:08:06 | 显示全部楼层
感谢分享!!非常感谢
开通VIP免费下载本站所有资源---点这里
新手必看:资源下载、资源播放、字幕使用、等常见问题---点这里
回复 支持 反对

使用道具 举报

发表于 2018-12-5 21:04:17 | 显示全部楼层

这个帖子不回对不起自己!我想我是一天也不能离开蓝光电影网
开通VIP免费下载本站所有资源---点这里
新手必看:资源下载、资源播放、字幕使用、等常见问题---点这里
回复 支持 反对

使用道具 举报

发表于 2018-12-5 21:05:58 | 显示全部楼层

既然你诚信诚意的推荐了,那我就勉为其难的看看吧!蓝光电影网不走平凡路。
开通VIP免费下载本站所有资源---点这里
新手必看:资源下载、资源播放、字幕使用、等常见问题---点这里
回复 支持 反对

使用道具 举报

发表于 2018-12-5 21:07:01 | 显示全部楼层

感谢楼主的无私分享!要想蓝光电影网好 就靠你我他
开通VIP免费下载本站所有资源---点这里
新手必看:资源下载、资源播放、字幕使用、等常见问题---点这里
回复 支持 反对

使用道具 举报

发表于 2018-12-6 09:12:16 | 显示全部楼层
谢谢楼主发片。
开通VIP免费下载本站所有资源---点这里
新手必看:资源下载、资源播放、字幕使用、等常见问题---点这里
回复 支持 反对

使用道具 举报

发表于 2018-12-6 14:04:49 | 显示全部楼层
楼主太厉害了
开通VIP免费下载本站所有资源---点这里
新手必看:资源下载、资源播放、字幕使用、等常见问题---点这里
回复 支持 反对

使用道具 举报

发表于 2018-12-6 20:48:32 | 显示全部楼层
期待已久  终于等到
开通VIP免费下载本站所有资源---点这里
新手必看:资源下载、资源播放、字幕使用、等常见问题---点这里
回复 支持 反对

使用道具 举报

懒得打字嘛,点击右侧快捷回复 【右侧内容,后台自定义】
您需要登录后才可以回帖 登录 | 立即加入

本版积分规则

现在加入蓝光电影网,注册一个账号

QQ| 手机版|小黑屋| 蓝光电影网 |网站地图

Copyright © 2015-2019 Comsenz Inc.  Template by 蓝光电影网 All Rights Reserved.

Powered by 蓝光电影网 X3.4

特别声明:本站所有资源均由网上收集而来,版权归原影音公司所有,如果侵犯了你的权益,请通知我们,我们会及时删除侵权内容.

快速回复 返回顶部 返回列表