找回密码

蓝光电影网

查看: 575|回复: 33

狮子王/狮子王3D The.Lion.King.1994.2160p.UHD.BluRay.X265.10bit.HDR.TrueHD.7.1.Atmos-IAMABLE 9.82GB

[复制链接]
  • TA的每日心情
    开心
    14 小时前
  • 签到天数: 26 天

    [LV.4]偶尔看看III

     成长值: 18160

    发表于 2018-12-2 16:29:39 | 显示全部楼层 |阅读模式

    马上注册,获取最新影视资讯,享用更多功能,让你轻松玩转蓝光电影网。

    您需要 登录 才可以下载或查看,没有帐号?立即加入

    x

    狮子王/狮子王3D The.Lion.King.1994.2160p.UHD.BluRay.X265.10bit.HDR.TrueHD.7.1.Atmos-IAMABLE 9.82GB-1.jpg
    ◎译  名 狮子王 / 狮子王3D
    ◎片  名 狮子王 The Lion King
    ◎年  代 1994
    ◎国  家 美国
    ◎类  别 剧情 / 动画 / 歌舞 / 家庭 / 冒险
    ◎语  言 英语 / 斯瓦希里语 / 科萨语 / 祖鲁语
    ◎上映日期 1995-07-15(中国大陆) / 1994-06-15(美国) / 2011-09-16(美国)
    ◎IMDb评分  8.5/10 from 798,273 users
    ◎IMDb链接  http://www.imdb.com/title/tt0110357/
    ◎豆瓣评分 8.9/10 from 354381 users
    ◎豆瓣链接 https://movie.douban.com/subject/1301753/
    ◎片  长 89 分钟
    ◎导  演 罗杰·阿勒斯 / 罗伯·明可夫
    ◎主  演 乔纳森·泰勒·托马斯
          马修·布罗德里克
          杰瑞米·艾恩斯
          詹姆斯·厄尔·琼斯
          莫伊拉·凯利
          内森·连恩
          尼基塔·卡兰姆
          厄尼·萨贝拉
          乌比·戈德堡
          罗温·艾金森

    ◎简  介 

      辛巴是狮子王国的小王子,他的父亲穆法沙是一个威严的国王。然而叔叔刀疤却对穆法沙的王位觊觎已久。
      要想坐上王位宝座,刀疤必须除去小王子。于是,刀疤利用种种借口让辛巴外出,然后伺机大开杀戒,无奈被穆法沙即时来救。在反复的算计下,穆法沙惨死在刀疤手下,刀疤别有用心的劝辛巴离开,一方面派人将他赶尽杀绝。
      辛巴逃亡中遇到了机智的丁满和善良的彭彭,他们抚养辛巴长成雄壮的大狮子,鼓励他回去森林复国。在接下来一场复国救民的斗争中,辛巴真正长成一个坚强的男子汉,领会了责任的真谛。

    ◎获奖情况 

      第67届奥斯卡金像奖 (1995)
      最佳原创配乐 汉斯·季默
      最佳原创歌曲 埃尔顿·约翰 /  蒂姆·赖斯
      最佳原创歌曲(提名) 埃尔顿·约翰 /  蒂姆·赖斯

      第48届英国电影学院奖 (1995)
      电影奖 最佳原创音乐(提名) 汉斯·季默
      电影奖 最佳音效(提名) David Hudson /  Doc Kane /  Mel Metcalfe /  特里·波特

      第22届动画安妮奖 (1994)
      最佳动画长片
      最佳编剧 布兰达?查普曼
      最佳配音 杰瑞米·艾恩斯
      最佳艺术指导(提名) Andy Gaskill /  马克·亨 /  Scott F. Johnston

    • Video
    • ID                                       : 1
    • Format                                   : HEVC
    • Format/Info                              : High Efficiency Video Coding
    • Commercial name                          : HDR10
    • Format profile                           : Main [email protected]@High
    • Codec ID                                 : V_MPEGH/ISO/HEVC
    • Duration                                 : 1 h 28 min
    • Bit rate                                 : 6 196 kb/s
    • Width                                    : 3 840 pixels
    • Height                                   : 2 160 pixels
    • Display aspect ratio                     : 16:9
    • Frame rate mode                          : Constant
    • Frame rate                               : 23.976 (24000/1001) FPS
    • Color space                              : YUV
    • Chroma subsampling                       : 4:2:0 (Type 2)
    • Bit depth                                : 10 bits
    • Bits/(Pixel*Frame)                       : 0.031
    • Stream size                              : 3.83 GiB (39%)
    • Writing library                          : x265 2.9+8-27d8424c799d:[Windows][MSVC 1900][64 bit] 10bit
    • Encoding settings                        : cpuid=1176575 / frame-threads=6 / numa-pools=36 / wpp / no-pmode / no-pme / no-psnr / no-ssim / log-level=2 / input-csp=1 / input-res=3840x2160 / interlace=0 / total-frames=127158 / level-idc=51 / high-tier=1 / uhd-bd=0 / ref=4 / no-allow-non-conformance / repeat-headers / annexb / aud / hrd / info / hash=0 / no-temporal-layers / no-open-gop / min-keyint=24 / keyint=240 / gop-lookahead=0 / bframes=4 / b-adapt=2 / b-pyramid / bframe-bias=0 / rc-lookahead=25 / lookahead-slices=4 / scenecut=40 / radl=0 / no-intra-refresh / ctu=64 / min-cu-size=8 / rect / no-amp / max-tu-size=32 / tu-inter-depth=1 / tu-intra-depth=1 / limit-tu=0 / rdoq-level=2 / dynamic-rd=0.00 / no-ssim-rd / signhide / no-tskip / nr-intra=0 / nr-inter=0 / no-constrained-intra / no-strong-intra-smoothing / max-merge=3 / limit-refs=3 / limit-modes / me=3 / subme=3 / merange=57 / temporal-mvp / weightp / no-weightb / no-analyze-src-pics / deblock=-3:-3 / no-sao / no-sao-non-deblock / rd=4 / no-early-skip / rskip / no-fast-intra / no-tskip-fast / no-cu-lossless / no-b-intra / no-splitrd-skip / rdpenalty=0 / psy-rd=2.00 / psy-rdoq=1.00 / no-rd-refine / no-lossless / cbqpoffs=0 / crqpoffs=0 / rc=crf / crf=17.0 / qcomp=0.60 / qpstep=4 / stats-write=0 / stats-read=0 / vbv-maxrate=160000 / vbv-bufsize=160000 / vbv-init=0.9 / crf-max=0.0 / crf-min=0.0 / ipratio=1.40 / pbratio=1.30 / aq-mode=1 / aq-strength=1.00 / cutree / zone-count=0 / no-strict-cbr / qg-size=32 / no-rc-grain / qpmax=69 / qpmin=0 / no-const-vbv / sar=1 / overscan=0 / videoformat=5 / range=0 / colorprim=9 / transfer=16 / colormatrix=9 / chromaloc=1 / chromaloc-top=2 / chromaloc-bottom=2 / display-window=0 / master-display=G(13250,34500)B(7500,3000)R(34000,16000)WP(15635,16450)L(10000000,1) / max-cll=0,0 / min-luma=0 / max-luma=1023 / log2-max-poc-lsb=8 / vui-timing-info / vui-hrd-info / slices=1 / no-opt-qp-pps / no-opt-ref-list-length-pps / no-multi-pass-opt-rps / scenecut-bias=0.05 / no-opt-cu-delta-qp / no-aq-motion / hdr / hdr-opt / no-dhdr10-opt / no-idr-recovery-sei / analysis-reuse-level=5 / scale-factor=0 / refine-intra=0 / refine-inter=0 / refine-mv=0 / no-limit-sao / ctu-info=0 / no-lowpass-dct / refine-mv-type=0 / copy-pic=1 / max-ausize-factor=1.0 / no-dynamic-refine / no-single-sei
    • Default                                  : Yes
    • Forced                                   : No
    • Color range                              : Limited
    • Color primaries                          : BT.2020
    • Transfer characteristics                 : PQ
    • Matrix coefficients                      : BT.2020 non-constant
    • Mastering display color primaries        : Display P3
    • Mastering display luminance              : min: 0.0001 cd/m2, max: 1000 cd/m2
    • Audio #1
    • ID                                       : 2
    • Format                                   : MLP FBA 16-ch
    • Format/Info                              : Meridian Lossless Packing FBA with 16-channel presentation
    • Commercial name                          : Dolby TrueHD with Dolby Atmos
    • Codec ID                                 : A_TRUEHD
    • Duration                                 : 1 h 28 min
    • Bit rate mode                            : Variable
    • Bit rate                                 : 8 910 kb/s
    • Maximum bit rate                         : 11.8 Mb/s
    • Channel(s)                               : 8 channels
    • Channel layout                           : L R C LFE Ls Rs Lb Rb
    • Sampling rate                            : 48.0 kHz
    • Frame rate                               : 1 200.000 FPS (40 SPF)
    • Compression mode                         : Lossless
    • Stream size                              : 5.50 GiB (56%)
    • Title                                    : Atmos 7.1
    • Language                                 : English
    • Default                                  : Yes
    • Forced                                   : No
    • Number of dynamic objects                : 13
    • Bed channel count                        : 1 channel
    • Bed channel configuration                : LFE
    • Audio #2
    • ID                                       : 3
    • Format                                   : AC-3
    • Format/Info                              : Audio Coding 3
    • Commercial name                          : Dolby Digital
    • Codec ID                                 : A_AC3
    • Duration                                 : 1 h 28 min
    • Bit rate mode                            : Constant
    • Bit rate                                 : 640 kb/s
    • Channel(s)                               : 6 channels
    • Channel layout                           : L R C LFE Ls Rs
    • Sampling rate                            : 48.0 kHz
    • Frame rate                               : 31.250 FPS (1536 SPF)
    • Bit depth                                : 16 bits
    • Compression mode                         : Lossy
    • Stream size                              : 405 MiB (4%)
    • Title                                    : AC-3 5.1
    • Language                                 : English
    • Service kind                             : Complete Main
    • Default                                  : No
    • Forced                                   : No
    • Text #1
    • ID                                       : 4
    • Format                                   : UTF-8
    • Codec ID                                 : S_TEXT/UTF8
    • Codec ID/Info                            : UTF-8 Plain Text
    • Duration                                 : 1 h 27 min
    • Bit rate                                 : 59 b/s
    • Count of elements                        : 1257
    • Stream size                              : 38.0 KiB (0%)
    • Title                                    : Stripped SRT
    • Language                                 : English
    • Default                                  : No
    • Forced                                   : No
    • Text #2
    • ID                                       : 5
    • Format                                   : UTF-8
    • Codec ID                                 : S_TEXT/UTF8
    • Codec ID/Info                            : UTF-8 Plain Text
    • Duration                                 : 1 h 27 min
    • Bit rate                                 : 61 b/s
    • Count of elements                        : 1329
    • Stream size                              : 39.3 KiB (0%)
    • Title                                    : SDH SRT
    • Language                                 : English
    • Default                                  : No
    • Forced                                   : No
    • Text #3
    • ID                                       : 6
    • Format                                   : PGS
    • Muxing mode                              : zlib
    • Codec ID                                 : S_HDMV/PGS
    • Codec ID/Info                            : Picture based subtitle format used on BDs/HD-DVDs
    • Duration                                 : 1 h 27 min
    • Bit rate                                 : 38.1 kb/s
    • Count of elements                        : 2660
    • Stream size                              : 23.8 MiB (0%)
    • Title                                    : SDH
    • Language                                 : English
    • Default                                  : No
    • Forced                                   : No
    • Text #4
    • ID                                       : 7
    • Format                                   : PGS
    • Muxing mode                              : zlib
    • Codec ID                                 : S_HDMV/PGS
    • Codec ID/Info                            : Picture based subtitle format used on BDs/HD-DVDs
    • Duration                                 : 1 h 26 min
    • Bit rate                                 : 32.4 kb/s
    • Count of elements                        : 2244
    • Stream size                              : 20.1 MiB (0%)
    • Language                                 : French
    • Default                                  : No
    • Forced                                   : No
    • Text #5
    • ID                                       : 8
    • Format                                   : PGS
    • Muxing mode                              : zlib
    • Codec ID                                 : S_HDMV/PGS
    • Codec ID/Info                            : Picture based subtitle format used on BDs/HD-DVDs
    • Duration                                 : 1 h 26 min
    • Bit rate                                 : 30.5 kb/s
    • Count of elements                        : 2238
    • Stream size                              : 18.9 MiB (0%)
    • Language                                 : Spanish
    • Default                                  : No
    • Forced                                   : No
    • Text #6
    • ID                                       : 9
    • Format                                   : PGS
    • Muxing mode                              : zlib
    • Codec ID                                 : S_HDMV/PGS
    • Codec ID/Info                            : Picture based subtitle format used on BDs/HD-DVDs
    • Duration                                 : 1 h 21 min
    • Bit rate                                 : 40.7 kb/s
    • Count of elements                        : 2312
    • Stream size                              : 23.8 MiB (0%)
    • Language                                 : German
    • Default                                  : No
    • Forced                                   : No
    • Text #7
    • ID                                       : 10
    • Format                                   : PGS
    • Muxing mode                              : zlib
    • Codec ID                                 : S_HDMV/PGS
    • Codec ID/Info                            : Picture based subtitle format used on BDs/HD-DVDs
    • Duration                                 : 1 h 20 min
    • Bit rate                                 : 27.1 kb/s
    • Count of elements                        : 1996
    • Stream size                              : 15.7 MiB (0%)
    • Language                                 : Japanese
    • Default                                  : No
    • Forced                                   : No
    • Text #8
    • ID                                       : 11
    • Format                                   : PGS
    • Muxing mode                              : zlib
    • Codec ID                                 : S_HDMV/PGS
    • Codec ID/Info                            : Picture based subtitle format used on BDs/HD-DVDs
    • Duration                                 : 1 h 26 min
    • Bit rate                                 : 24.0 kb/s
    • Count of elements                        : 2288
    • Stream size                              : 14.8 MiB (0%)
    • Language                                 : Chinese
    • Default                                  : No
    • Forced                                   : No
    • Text #9
    • ID                                       : 12
    • Format                                   : PGS
    • Muxing mode                              : zlib
    • Codec ID                                 : S_HDMV/PGS
    • Codec ID/Info                            : Picture based subtitle format used on BDs/HD-DVDs
    • Duration                                 : 1 h 26 min
    • Bit rate                                 : 25.5 kb/s
    • Count of elements                        : 1988
    • Stream size                              : 15.8 MiB (0%)
    • Language                                 : Chinese
    • Default                                  : No
    • Forced                                   : No
    • Text #10
    • ID                                       : 13
    • Format                                   : PGS
    • Muxing mode                              : zlib
    • Codec ID                                 : S_HDMV/PGS
    • Codec ID/Info                            : Picture based subtitle format used on BDs/HD-DVDs
    • Duration                                 : 1 h 26 min
    • Bit rate                                 : 18.2 kb/s
    • Count of elements                        : 2270
    • Stream size                              : 11.3 MiB (0%)
    • Language                                 : Korean
    • Default                                  : No
    • Forced                                   : No
    • Menu
    • 00:00:00.000                             : :00:00:00.000
    • 00:04:40.071                             : :00:04:40.071
    • 00:08:10.407                             : :00:08:10.407
    • 00:11:28.980                             : :00:11:28.980
    • 00:14:09.557                             : :00:14:09.557
    • 00:17:51.028                             : :00:17:51.028
    • 00:22:54.748                             : :00:22:54.748
    • 00:25:36.118                             : :00:25:36.118
    • 00:30:24.197                             : :00:30:24.197
    • 00:35:52.150                             : :00:35:52.150
    • 00:40:14.078                             : :00:40:14.078
    • 00:41:14.430                             : :00:41:14.430
    • 00:44:16.946                             : :00:44:16.946
    • 00:48:20.564                             : :00:48:20.564
    • 00:50:07.213                             : :00:50:07.213
    • 00:53:14.775                             : :00:53:14.775
    • 00:57:50.842                             : :00:57:50.842
    • 01:00:56.570                             : :01:00:56.570
    • 01:02:32.332                             : :01:02:32.332
    • 01:08:49.625                             : :01:08:49.625
    • 01:12:41.023                             : :01:12:41.023
    • 01:16:42.306                             : :01:16:42.306
    • 01:20:45.132                             : :01:20:45.132
    • 01:23:23.874                             : :01:23:23.874

    复制代码

    狮子王/狮子王3D The.Lion.King.1994.2160p.UHD.BluRay.X265.10bit.HDR.TrueHD.7.1.Atmos-IAMABLE 9.82GB-2.png 狮子王/狮子王3D The.Lion.King.1994.2160p.UHD.BluRay.X265.10bit.HDR.TrueHD.7.1.Atmos-IAMABLE 9.82GB-3.png 狮子王/狮子王3D The.Lion.King.1994.2160p.UHD.BluRay.X265.10bit.HDR.TrueHD.7.1.Atmos-IAMABLE 9.82GB-4.png





    The.Lion.King.1994.2160p.UHD.BluRay.X265.10bit.HDR.TrueHD.7.1.Atmos-IAMABLE.torrent (98.8 KB, 下载次数: 49)
    开通VIP免费下载本站所有资源---点这里
    新手必看:资源下载、资源播放、字幕使用、等常见问题---点这里
    回复

    使用道具 举报

  • TA的每日心情
    开心
    7 小时前
  • 签到天数: 29 天

    [LV.4]偶尔看看III

    发表于 2018-12-2 17:04:39 | 显示全部楼层
    强烈支持楼主ing......
    开通VIP免费下载本站所有资源---点这里
    新手必看:资源下载、资源播放、字幕使用、等常见问题---点这里
    回复 支持 反对

    使用道具 举报

  • TA的每日心情
    开心
    昨天 18:16
  • 签到天数: 26 天

    [LV.4]偶尔看看III

    发表于 2018-12-2 18:11:42 | 显示全部楼层
    谢谢楼主分享
    开通VIP免费下载本站所有资源---点这里
    新手必看:资源下载、资源播放、字幕使用、等常见问题---点这里
    回复 支持 反对

    使用道具 举报

  • TA的每日心情
    开心
    2018-12-2 19:00
  • 签到天数: 1 天

    [LV.1]初来乍到

    发表于 2018-12-2 18:59:31 | 显示全部楼层

    谢谢楼主分享
    开通VIP免费下载本站所有资源---点这里
    新手必看:资源下载、资源播放、字幕使用、等常见问题---点这里
    回复 支持 反对

    使用道具 举报

  • TA的每日心情
    开心
    2018-12-6 19:26
  • 签到天数: 4 天

    [LV.2]偶尔看看I

    发表于 2018-12-2 19:50:07 | 显示全部楼层
    支持支持6666666
    开通VIP免费下载本站所有资源---点这里
    新手必看:资源下载、资源播放、字幕使用、等常见问题---点这里
    回复 支持 反对

    使用道具 举报

  • TA的每日心情
    奋斗
    5 小时前
  • 签到天数: 29 天

    [LV.4]偶尔看看III

    发表于 2018-12-2 20:42:44 | 显示全部楼层
    谢谢楼主分享!
    开通VIP免费下载本站所有资源---点这里
    新手必看:资源下载、资源播放、字幕使用、等常见问题---点这里
    回复 支持 反对

    使用道具 举报

  • TA的每日心情
    郁闷
    2018-12-2 21:26
  • 签到天数: 1 天

    [LV.1]初来乍到

    发表于 2018-12-2 21:24:35 | 显示全部楼层
    儿时的记忆 好怀念
    开通VIP免费下载本站所有资源---点这里
    新手必看:资源下载、资源播放、字幕使用、等常见问题---点这里
    回复 支持 反对

    使用道具 举报

    该用户从未签到

    发表于 2018-12-3 00:20:00 | 显示全部楼层
    经典大片啊     啦啦啦啦啦
    开通VIP免费下载本站所有资源---点这里
    新手必看:资源下载、资源播放、字幕使用、等常见问题---点这里
    回复 支持 反对

    使用道具 举报

  • TA的每日心情
    开心
    6 小时前
  • 签到天数: 29 天

    [LV.4]偶尔看看III

    发表于 2018-12-3 06:08:36 | 显示全部楼层
    谢谢楼主分享
    开通VIP免费下载本站所有资源---点这里
    新手必看:资源下载、资源播放、字幕使用、等常见问题---点这里
    回复 支持 反对

    使用道具 举报

  • TA的每日心情
    奋斗
    前天 10:09
  • 签到天数: 20 天

    [LV.4]偶尔看看III

    发表于 2018-12-3 08:52:27 | 显示全部楼层
    楼主发贴辛苦了,谢谢楼主分享!我觉得蓝光电影网是注册对了!
    开通VIP免费下载本站所有资源---点这里
    新手必看:资源下载、资源播放、字幕使用、等常见问题---点这里
    回复 支持 反对

    使用道具 举报

    懒得打字嘛,点击右侧快捷回复 【右侧内容,后台自定义】
    您需要登录后才可以回帖 登录 | 立即加入

    本版积分规则

    现在加入蓝光电影网,注册一个账号

    QQ| 手机版|小黑屋| 蓝光电影网 |网站地图

    Copyright © 20013-2018 Comsenz Inc.  Template by 蓝光电影论坛 All Rights Reserved.

    Powered by 高清电影网 X3.4
    特别声明:本站所有资源均由网上收集而来,版权归原影音公司所有,如果侵犯了你的权益,请通知我们,我们会及时删除侵权内容.

    快速回复 返回顶部 返回列表