找回密码

蓝光电影网

查看: 6558|回复: 240

[科幻片] 毒液:致命守护者/毒魔 Venom.2018.1080p.WEBRip.x264.AAC2.0-SHITBOX 11.52GB

  [复制链接]
  • TA的每日心情
    开心
    6 小时前
  • 签到天数: 61 天

    [LV.6]常住居民II

     成长值: 18685

    发表于 2018-11-28 23:17:06 | 显示全部楼层 |阅读模式

    马上注册,获取最新影视资讯,享用更多功能,让你轻松玩转蓝光电影网。

    您需要 登录 才可以下载或查看,没有帐号?立即加入

    x

    毒液:致命守护者/毒魔 Venom.2018.1080p.WEBRip.x264.AAC2.0-SHITBOX 11.52GB-1.jpg
    ◎译  名 毒液:致命守护者 / 毒魔(港) / 猛毒(台) / 毒液
    ◎片  名 毒液:致命守护者 Venom
    ◎年  代 2018
    ◎国  家 美国 / 中国大陆
    ◎类  别 动作 / 科幻 / 惊悚
    ◎语  言 英语 / 汉语普通话
    ◎上映日期 2018-11-09(中国大陆) / 2018-10-05(美国)
    ◎IMDb评分  7.0/10 from 128,686 users
    ◎IMDb链接  http://www.imdb.com/title/tt1270797/
    ◎豆瓣评分 7.3/10 from 251231 users
    ◎豆瓣链接 https://movie.douban.com/subject/3168101/
    ◎片  长 112分钟 / 107分钟(中国大陆)
    ◎导  演 鲁本·弗雷斯彻
    ◎主  演 汤姆·哈迪
          米歇尔·威廉姆斯
          里兹·阿迈德
          斯科特·黑兹
           瑞德·斯科特
          珍妮·斯蕾特
          梅罗拉·沃特斯
          伍迪·哈里森
          佩吉·陆
          马尔科姆·C·默里
          索佩·阿卢科
          韦恩·佩雷
          米歇尔·李
          库尔特·岳
          克里斯·奥哈拉
          埃米里奥·瑞弗拉
          阿里亚当娜·约瑟夫
          袁之正
          朴云龙
          麦克·勃兰特
          尼克·图恩
          山姆·麦地那
          迪塞尔·马德金斯
          简·麦克尼尔
          维克托·麦凯
          马丁·巴特斯·布拉德福德
          布兰顿·莫拉莱斯
          马修·康威尔
          斯坦·李
          韦德·威廉姆斯
          约瑟夫·阿梅
          威廉·W·巴伯
          玛塞拉·布拉吉奥
          卡特·伯奇
          克里斯蒂安·康佛瑞
          詹姆斯·富尔特斯
          丹妮拉·加斯基
          约翰·盖蒂尔
          艾米丽塔·T·冈萨雷斯
          杰克·汉森
          安东尼·B·哈里斯
          卡茜·亨德利
          罗恩·彼得·琼斯
          霍梅洛·洛佩兹
          万恩·姆约维奇

    ◎简  介 

      艾迪(汤姆·哈迪 Tom Hardy 饰)是一位深受观众喜爱的新闻记者,和女友安妮(米歇尔·威廉姆斯 Michelle Williams 饰)相恋多年,彼此之间感情十分要好。安妮是一名律师,接手了生命基金会的案件,在女友的邮箱里,艾迪发现了基金会老板德雷克(里兹·阿迈德 Riz Ahmed 饰)不为人知的秘密。为此,艾迪不仅丢了工作,女友也离他而去。
      之后,生命基金会的朵拉博士(珍妮·斯蕾特 Jenny Slate 饰)找到了艾迪,希望艾迪能够帮助她阻止德雷克疯狂的罪行。在生命基金会的实验室里,艾迪发现了德雷克进行人体实验的证据,并且在误打误撞之中被外星生命体毒液附身。回到家后,艾迪和毒液之间形成了共生关系,他们要应对的是德雷克派出的一波又一波杀手。

    • Video
    • ID                                       : 1
    • Format                                   : AVC
    • Format/Info                              : Advanced Video Codec
    • Format profile                           : [email protected]
    • Format settings                          : CABAC / 4 Ref Frames
    • Format settings, CABAC                   : Yes
    • Format settings, ReFrames                : 4 frames
    • Codec ID                                 : V_MPEG4/ISO/AVC
    • Duration                                 : 1 h 47 min
    • Bit rate                                 : 15.1 Mb/s
    • Nominal bit rate                         : 16.0 Mb/s
    • Width                                    : 1 920 pixels
    • Height                                   : 800 pixels
    • Display aspect ratio                     : 2.40:1
    • Frame rate mode                          : Constant
    • Frame rate                               : 23.976 (24000/1001) FPS
    • Color space                              : YUV
    • Chroma subsampling                       : 4:2:0
    • Bit depth                                : 8 bits
    • Scan type                                : Progressive
    • Bits/(Pixel*Frame)                       : 0.411
    • Stream size                              : 11.3 GiB (98%)
    • Title                                    : Venom.2018.1080p.WEBRip.x264.AAC2.0-SHITBOX
    • Writing library                          : x264 core 142 r2479 dd79a61
    • Encoding settings                        : cabac=1 / ref=1 / deblock=1:0:0 / analyse=0x3:0x113 / me=hex / subme=2 / psy=1 / psy_rd=1.00:0.00 / mixed_ref=0 / me_range=16 / chroma_me=1 / trellis=0 / 8x8dct=1 / cqm=0 / deadzone=21,11 / fast_pskip=1 / chroma_qp_offset=0 / threads=18 / lookahead_threads=6 / sliced_threads=0 / nr=0 / decimate=1 / interlaced=0 / bluray_compat=0 / constrained_intra=0 / bframes=3 / b_pyramid=2 / b_adapt=1 / b_bias=0 / direct=1 / weightb=1 / open_gop=0 / weightp=1 / keyint=240 / keyint_min=24 / scenecut=40 / intra_refresh=0 / rc_lookahead=10 / rc=abr / mbtree=1 / bitrate=16000 / ratetol=1.0 / qcomp=0.60 / qpmin=0 / qpmax=69 / qpstep=4 / vbv_maxrate=62500 / vbv_bufsize=78125 / nal_hrd=none / filler=0 / ip_ratio=1.40 / aq=1:1.00
    • Default                                  : Yes
    • Forced                                   : No
    • Color range                              : Limited
    • Color primaries                          : BT.709
    • Transfer characteristics                 : BT.709
    • Matrix coefficients                      : BT.709
    • Audio
    • ID                                       : 2
    • Format                                   : AAC LC
    • Format/Info                              : Advanced Audio Codec Low Complexity
    • Codec ID                                 : A_AAC-2
    • Duration                                 : 1 h 47 min
    • Bit rate                                 : 256 kb/s
    • Channel(s)                               : 2 channels
    • Channel layout                           : L R
    • Sampling rate                            : 48.0 kHz
    • Frame rate                               : 46.875 FPS (1024 SPF)
    • Compression mode                         : Lossy
    • Stream size                              : 196 MiB (2%)
    • Title                                    : Venom.2018.1080p.WEBRip.x264.AAC2.0-SHITBOX
    • Language                                 : English
    • Default                                  : Yes
    • Forced                                   : No
    • Text
    • ID                                       : 3
    • Format                                   : UTF-8
    • Codec ID                                 : S_TEXT/UTF8
    • Codec ID/Info                            : UTF-8 Plain Text
    • Duration                                 : 1 h 34 min
    • Bit rate                                 : 63 b/s
    • Count of elements                        : 1360
    • Stream size                              : 44.4 KiB (0%)
    • Language                                 : English
    • Default                                  : Yes
    • Forced                                   : No

    复制代码

    毒液:致命守护者/毒魔 Venom.2018.1080p.WEBRip.x264.AAC2.0-SHITBOX 11.52GB-2.png 毒液:致命守护者/毒魔 Venom.2018.1080p.WEBRip.x264.AAC2.0-SHITBOX 11.52GB-3.png 毒液:致命守护者/毒魔 Venom.2018.1080p.WEBRip.x264.AAC2.0-SHITBOX 11.52GB-4.png





    Venom.2018.1080p.WEBRip.x264.AAC2.0-SHITBOX.torrent (58.16 KB, 下载次数: 884)
    开通VIP免费下载本站所有资源---点这里
    新手必看:资源下载、资源播放、字幕使用、等常见问题---点这里
    回复

    使用道具 举报

  • TA的每日心情
    难过
    2018-11-29 22:55
  • 签到天数: 2 天

    [LV.1]初来乍到

    发表于 2018-11-28 23:28:48 | 显示全部楼层
    毒液 致命守护

    点评

    很给力!: 5.0
    很给力!: 5
    最新片源,喜欢  发表于 2018-12-4 09:15
    开通VIP免费下载本站所有资源---点这里
    新手必看:资源下载、资源播放、字幕使用、等常见问题---点这里
    回复 支持 1 反对 0

    使用道具 举报

    该用户从未签到

     成长值: 2680

    发表于 2018-11-28 23:35:28 | 显示全部楼层
    什么时候有导演剪辑版就好了
    开通VIP免费下载本站所有资源---点这里
    新手必看:资源下载、资源播放、字幕使用、等常见问题---点这里
    回复 支持 反对

    使用道具 举报

  • TA的每日心情
    开心
    昨天 12:42
  • 签到天数: 54 天

    [LV.5]常住居民I

    发表于 2018-11-29 01:34:36 | 显示全部楼层
    This is really a good spin off from the Spiderman, hope everyone enjoy and thank you very much for sharing this.
    开通VIP免费下载本站所有资源---点这里
    新手必看:资源下载、资源播放、字幕使用、等常见问题---点这里
    回复 支持 反对

    使用道具 举报

  • TA的每日心情
    慵懒
    2018-12-3 11:42
  • 签到天数: 4 天

    [LV.2]偶尔看看I

    发表于 2018-11-29 03:11:04 | 显示全部楼层
    免费下载本站所有资源---点这里
    开通VIP免费下载本站所有资源---点这里
    新手必看:资源下载、资源播放、字幕使用、等常见问题---点这里
    回复 支持 反对

    使用道具 举报

  • TA的每日心情
    开心
    昨天 07:55
  • 签到天数: 60 天

    [LV.6]常住居民II

    发表于 2018-11-29 06:29:18 | 显示全部楼层
    谢谢分享谢谢分享
    开通VIP免费下载本站所有资源---点这里
    新手必看:资源下载、资源播放、字幕使用、等常见问题---点这里
    回复 支持 反对

    使用道具 举报

    该用户从未签到

    发表于 2018-11-29 07:50:16 | 显示全部楼层
    不错,感谢楼主分享。
    开通VIP免费下载本站所有资源---点这里
    新手必看:资源下载、资源播放、字幕使用、等常见问题---点这里
    回复 支持 反对

    使用道具 举报

  • TA的每日心情
    无聊
    昨天 21:55
  • 签到天数: 48 天

    [LV.5]常住居民I

    发表于 2018-11-29 08:36:18 | 显示全部楼层
    哎  要VIP 才能下载呢
    开通VIP免费下载本站所有资源---点这里
    新手必看:资源下载、资源播放、字幕使用、等常见问题---点这里
    回复 支持 反对

    使用道具 举报

  • TA的每日心情
    无聊
    前天 07:15
  • 签到天数: 59 天

    [LV.5]常住居民I

    发表于 2018-11-29 08:45:22 | 显示全部楼层
    好好好好好好好好好好好好好好好好好好好
    开通VIP免费下载本站所有资源---点这里
    新手必看:资源下载、资源播放、字幕使用、等常见问题---点这里
    回复 支持 反对

    使用道具 举报

  • TA的每日心情
    开心
    5 天前
  • 签到天数: 24 天

    [LV.4]偶尔看看III

    发表于 2018-11-29 09:45:41 | 显示全部楼层

    楼主太厉害了!楼主,电影应该很好看我觉得蓝光电影网真是个好地方!
    [发帖际遇]: 一个袋子砸在了 wmonster 头上,wmonster 赚了 1 蓝光币. 幸运榜 / 衰神榜
    开通VIP免费下载本站所有资源---点这里
    新手必看:资源下载、资源播放、字幕使用、等常见问题---点这里
    回复 支持 反对

    使用道具 举报

    懒得打字嘛,点击右侧快捷回复 【右侧内容,后台自定义】
    您需要登录后才可以回帖 登录 | 立即加入

    本版积分规则

    现在加入蓝光电影网,注册一个账号

    QQ| 手机版|小黑屋| 蓝光电影网 |网站地图

    Copyright © 20013-2018 Comsenz Inc.  Template by 蓝光电影论坛 All Rights Reserved.

    Powered by 高清电影网 X3.4
    特别声明:本站所有资源均由网上收集而来,版权归原影音公司所有,如果侵犯了你的权益,请通知我们,我们会及时删除侵权内容.

    快速回复 返回顶部 返回列表