找回密码

蓝光电影网

查看: 52994|回复: 1642

[动作] 碟中谍6:全面瓦解/碟中谍6 Mission.Impossible.Fallout.2018.IMAX.1080p.BluRay.x264.DTS-HD.MA.7.1-FGT 16.19GB

  [复制链接]

 成长值: 23620

发表于 2018-11-15 22:08:17 | 显示全部楼层 |阅读模式

碟中谍6:全面瓦解/碟中谍6 Mission.Impossible.Fallout.2018.IMAX.1080p.BluRay.x264.DTS-HD.MA.7.1-FGT 16.19GB-1.jpg
◎译  名 碟中谍6:全面瓦解 / 碟中谍6 / 不可能的任务:全面瓦解(台) / 职业特工队:叛逆之谜(港) / Mission: Impossible 6 / MI6
◎片  名 碟中谍6:全面瓦解 Mission: Impossible - Fallout
◎年  代 2018
◎国  家 美国
◎类  别 动作 / 惊悚 / 冒险
◎语  言 英语 / 法语
◎上映日期 2018-08-31(中国大陆) / 2018-07-27(美国)
◎IMDb评分  8.0/10 from 156,592 users
◎IMDb链接  http://www.imdb.com/title/tt4912910/
◎豆瓣评分 8.2/10 from 253425 users
◎豆瓣链接 https://movie.douban.com/subject/26336252/
◎片  长 147分钟 / 148分钟(中国大陆)
◎导  演 克里斯托弗·麦奎里
◎主  演 汤姆·克鲁斯
      亨利·卡维尔
      文·瑞姆斯
      西蒙·佩吉
      丽贝卡·弗格森
      西恩·哈里斯
      安吉拉·贝塞特
      凡妮莎·柯比
      米歇尔·莫纳汉
      韦斯·本特利
      费雷德里克·施密特
      亚历克·鲍德温
      杨亮
      克里斯托弗·琼勒
      沃尔夫·布利策
      拉斐尔·琼勒
      安德鲁·卡扎纳夫·平
      克里斯多夫·德·舒瓦西
      拉裴尔·德普雷
      让·巴普蒂斯特·菲永
      马克斯·盖勒
      奥利维尔·体班德
      亚历山大·普尔
      阿利克斯·贝纳泽什
      乔伊·安沙
      维利贝·托皮奇
      格雷厄姆·福克斯
      卡斯珀·菲利普森
      菲恩·乔利
      鲁斯·贝恩
      奈杰尔·艾伦

◎简  介 

  有时好意会造成恶果,人反而被自己所造成的结果所困扰。伊桑·亨特(汤姆·克鲁斯)和他的IMF团队(亚历克·鲍德温、西蒙·佩吉、文·瑞姆斯)将在最新的电影《碟中谍6:全面瓦解》中再度回归,他们会与观众们熟悉的盟友(丽贝卡·弗格森、米歇尔·莫娜汉)一起与时间赛跑,应对一次任务中出现的意外。亨利·卡维尔、安吉拉·贝塞特和凡妮莎·柯比也将加入本片的演员阵容,电影制片人克里斯托夫·迈考利将会再度担任导演。


  1. Video
  2. ID                                       : 1
  3. Format                                   : AVC
  4. Format/Info                              : Advanced Video Codec
  5. Format profile                           : [url=/cdn-cgi/l/email-protection][email protected][/url]
  6. Format settings                          : CABAC / 4 Ref Frames
  7. Format settings, CABAC                   : Yes
  8. Format settings, ReFrames                : 4 frames
  9. Codec ID                                 : V_MPEG4/ISO/AVC
  10. Duration                                 : 2 h 27 min
  11. Bit rate                                 : 11.5 Mb/s
  12. Width                                    : 1 920 pixels
  13. Height                                   : 1 012 pixels
  14. Display aspect ratio                     : 1.897
  15. Frame rate mode                          : Constant
  16. Frame rate                               : 23.976 (24000/1001) FPS
  17. Color space                              : YUV
  18. Chroma subsampling                       : 4:2:0
  19. Bit depth                                : 8 bits
  20. Scan type                                : Progressive
  21. Bits/(Pixel*Frame)                       : 0.247
  22. Stream size                              : 11.8 GiB (73%)
  23. Title                                    : Mission.Impossible.Fallout.2018.1080p.BluRay.x264.DTS-HD.MA.7.1-FGT
  24. Writing library                          : x264 core 148 r2795M aaa9aa8
  25. Encoding settings                        : cabac=1 / ref=4 / deblock=1:-2:-2 / analyse=0x3:0x113 / me=umh / subme=9 / psy=1 / psy_rd=1.00:0.15 / mixed_ref=1 / me_range=16 / chroma_me=1 / trellis=2 / 8x8dct=1 / cqm=0 / deadzone=21,11 / fast_pskip=1 / chroma_qp_offset=-3 / threads=24 / lookahead_threads=3 / sliced_threads=0 / nr=0 / decimate=1 / interlaced=0 / bluray_compat=0 / constrained_intra=0 / bframes=3 / b_pyramid=2 / b_adapt=1 / b_bias=0 / direct=3 / weightb=1 / open_gop=0 / weightp=2 / keyint=250 / keyint_min=25 / scenecut=40 / intra_refresh=0 / rc_lookahead=50 / rc=2pass / mbtree=1 / bitrate=11500 / ratetol=1.0 / qcomp=0.60 / qpmin=0 / qpmax=69 / qpstep=4 / cplxblur=20.0 / qblur=0.5 / vbv_maxrate=31250 / vbv_bufsize=31250 / nal_hrd=none / filler=0 / ip_ratio=1.40 / aq=1:1.00
  26. Language                                 : English
  27. Default                                  : Yes
  28. Forced                                   : No

  29. Audio
  30. ID                                       : 2
  31. Format                                   : DTS XLL
  32. Format/Info                              : Digital Theater Systems
  33. Commercial name                          : DTS-HD Master Audio
  34. Codec ID                                 : A_DTS
  35. Duration                                 : 2 h 27 min
  36. Bit rate mode                            : Variable
  37. Bit rate                                 : 4 182 kb/s
  38. Channel(s)                               : 8 channels
  39. Channel layout                           : C L R LFE Lb Rb Lss Rss
  40. Sampling rate                            : 48.0 kHz
  41. Frame rate                               : 93.750 FPS (512 SPF)
  42. Bit depth                                : 24 bits
  43. Compression mode                         : Lossless
  44. Stream size                              : 4.31 GiB (27%)
  45. Title                                    : Mission.Impossible.Fallout.2018.1080p.BluRay.x264.DTS-HD.MA.7.1-FGT
  46. Language                                 : English
  47. Default                                  : Yes
  48. Forced                                   : No

  49. Text #1
  50. ID                                       : 3
  51. Format                                   : UTF-8
  52. Codec ID                                 : S_TEXT/UTF8
  53. Codec ID/Info                            : UTF-8 Plain Text
  54. Duration                                 : 2 h 19 min
  55. Bit rate                                 : 46 b/s
  56. Count of elements                        : 1566
  57. Stream size                              : 47.1 KiB (0%)
  58. Title                                    : English-SRT
  59. Language                                 : English
  60. Default                                  : Yes
  61. Forced                                   : No

  62. Text #2
  63. ID                                       : 4
  64. Format                                   : UTF-8
  65. Codec ID                                 : S_TEXT/UTF8
  66. Codec ID/Info                            : UTF-8 Plain Text
  67. Duration                                 : 2 h 19 min
  68. Bit rate                                 : 52 b/s
  69. Count of elements                        : 1872
  70. Stream size                              : 53.7 KiB (0%)
  71. Title                                    : English-SDH-SRT
  72. Language                                 : English
  73. Default                                  : No
  74. Forced                                   : No

  75. Text #3
  76. ID                                       : 5
  77. Format                                   : PGS
  78. Muxing mode                              : zlib
  79. Codec ID                                 : S_HDMV/PGS
  80. Codec ID/Info                            : Picture based subtitle format used on BDs/HD-DVDs
  81. Duration                                 : 2 h 19 min
  82. Bit rate                                 : 29.7 kb/s
  83. Count of elements                        : 3111
  84. Stream size                              : 29.5 MiB (0%)
  85. Title                                    : English-PGS
  86. Language                                 : English
  87. Default                                  : No
  88. Forced                                   : No

  89. Text #4
  90. ID                                       : 6
  91. Format                                   : PGS
  92. Muxing mode                              : zlib
  93. Codec ID                                 : S_HDMV/PGS
  94. Codec ID/Info                            : Picture based subtitle format used on BDs/HD-DVDs
  95. Duration                                 : 2 h 19 min
  96. Bit rate                                 : 35.2 kb/s
  97. Count of elements                        : 3747
  98. Stream size                              : 35.1 MiB (0%)
  99. Title                                    : English-SDH-PGS
  100. Language                                 : English
  101. Default                                  : No
  102. Forced                                   : No

  103. Text #5
  104. ID                                       : 7
  105. Format                                   : PGS
  106. Muxing mode                              : zlib
  107. Codec ID                                 : S_HDMV/PGS
  108. Codec ID/Info                            : Picture based subtitle format used on BDs/HD-DVDs
  109. Duration                                 : 32 min 11 s
  110. Bit rate                                 : 671 b/s
  111. Count of elements                        : 37
  112. Stream size                              : 158 KiB (0%)
  113. Title                                    : English-FORCED-PGS
  114. Language                                 : English
  115. Default                                  : No
  116. Forced                                   : No

  117. Text #6
  118. ID                                       : 8
  119. Format                                   : PGS
  120. Muxing mode                              : zlib
  121. Codec ID                                 : S_HDMV/PGS
  122. Codec ID/Info                            : Picture based subtitle format used on BDs/HD-DVDs
  123. Duration                                 : 2 h 19 min
  124. Bit rate                                 : 29.7 kb/s
  125. Count of elements                        : 3327
  126. Stream size                              : 29.6 MiB (0%)
  127. Title                                    : French-PGS
  128. Language                                 : French
  129. Default                                  : No
  130. Forced                                   : No

  131. Text #7
  132. ID                                       : 9
  133. Format                                   : PGS
  134. Muxing mode                              : zlib
  135. Codec ID                                 : S_HDMV/PGS
  136. Codec ID/Info                            : Picture based subtitle format used on BDs/HD-DVDs
  137. Duration                                 : 2 h 19 min
  138. Bit rate                                 : 28.2 kb/s
  139. Count of elements                        : 2788
  140. Stream size                              : 28.1 MiB (0%)
  141. Title                                    : Spanish-PGS
  142. Language                                 : Spanish
  143. Default                                  : No
  144. Forced                                   : No

  145. Text #8
  146. ID                                       : 10
  147. Format                                   : PGS
  148. Muxing mode                              : zlib
  149. Codec ID                                 : S_HDMV/PGS
  150. Codec ID/Info                            : Picture based subtitle format used on BDs/HD-DVDs
  151. Duration                                 : 2 h 19 min
  152. Bit rate                                 : 23.6 kb/s
  153. Count of elements                        : 2750
  154. Stream size                              : 23.5 MiB (0%)
  155. Title                                    : Portuguese-PGS
  156. Language                                 : Portuguese
  157. Default                                  : No
  158. Forced                                   : No

  159. Menu
  160. 00:00:00.000                             : en:Chapter 01
  161. 00:10:37.011                             : en:Chapter 02
  162. 00:17:11.405                             : en:Chapter 03
  163. 00:26:57.240                             : en:Chapter 04
  164. 00:35:56.654                             : en:Chapter 05
  165. 00:49:18.413                             : en:Chapter 06
  166. 01:00:00.805                             : en:Chapter 07
  167. 01:10:23.719                             : en:Chapter 08
  168. 01:17:07.289                             : en:Chapter 09
  169. 01:28:28.469                             : en:Chapter 10
  170. 01:39:09.526                             : en:Chapter 11
  171. 01:46:26.546                             : en:Chapter 12
  172. 01:55:45.563                             : en:Chapter 13
  173. 02:03:10.591                             : en:Chapter 14
  174. 02:14:01.283                             : en:Chapter 15
  175. 02:19:48.088                             : en:Chapter 16
复制代码

复制代码

碟中谍6:全面瓦解/碟中谍6 Mission.Impossible.Fallout.2018.IMAX.1080p.BluRay.x264.DTS-HD.MA.7.1-FGT 16.19GB-2.png 碟中谍6:全面瓦解/碟中谍6 Mission.Impossible.Fallout.2018.IMAX.1080p.BluRay.x264.DTS-HD.MA.7.1-FGT 16.19GB-3.png 碟中谍6:全面瓦解/碟中谍6 Mission.Impossible.Fallout.2018.IMAX.1080p.BluRay.x264.DTS-HD.MA.7.1-FGT 16.19GB-4.png





回复

使用道具 举报

发表于 2018-11-16 10:25:43 | 显示全部楼层
很喜欢的电影
回复 支持 1 反对 0

使用道具 举报

发表于 2018-11-15 22:24:17 | 显示全部楼层
终于等到了高清版本,期待4K的出现
回复 支持 反对

使用道具 举报

发表于 2018-11-15 23:30:00 | 显示全部楼层
顶一个顶一个顶一个顶一个
回复 支持 反对

使用道具 举报

发表于 2018-11-16 08:14:23 | 显示全部楼层
免费下载本站所有资源
回复 支持 反对

使用道具 举报

发表于 2018-11-16 08:34:59 | 显示全部楼层
谢谢楼主分享
回复 支持 反对

使用道具 举报

发表于 2018-11-16 09:43:08 | 显示全部楼层
感谢楼主无私分享
回复 支持 反对

使用道具 举报

发表于 2018-11-16 10:13:40 | 显示全部楼层
好棒终于等到了
回复 支持 反对

使用道具 举报

发表于 2018-11-16 10:22:43 | 显示全部楼层
终于顶到了,谢谢了
回复 支持 反对

使用道具 举报

已抛锚 成长值: 4825

发表于 2018-11-16 11:11:52 | 显示全部楼层
百度网盘下载说种子解析失败? 迅雷没速度还能用啥下载???
回复 支持 反对

使用道具 举报

懒得打字嘛,点击右侧快捷回复 【右侧内容,后台自定义】
您需要登录后才可以回帖 登录 | 立即加入

本版积分规则

现在加入蓝光电影网,注册一个账号
上个主题 下个主题 快速回复 收藏帖子 返回列表 客服中心 搜索

QQ| 手机版|小黑屋| 蓝光电影网 |网站地图 

Copyright © 2015-2019 Comsenz Inc.  Template by 蓝光电影论坛 All Rights Reserved.

Powered by 蓝光电影网 X3.4

特别声明:本站所有资源均由网上收集而来,版权归原影音公司所有,如果侵犯了你的权益,请通知我们,我们会及时删除侵权内容.

快速回复 返回顶部 返回列表