找回密码

蓝光电影网

查看: 8123|回复: 435

[动作] 碟中谍6:全面瓦解/碟中谍6 Mission.Impossible.Fallout.2018.IMAX.1080p.BluRay.x264.DTS-HD.MA.7.1-FGT 16.19GB

  [复制链接]
  • TA的每日心情
    开心
    昨天 09:07
  • 签到天数: 23 天

    [LV.4]偶尔看看III

     成长值: 18115

    发表于 2018-11-15 22:08:17 | 显示全部楼层 |阅读模式

    马上注册,获取最新影视资讯,享用更多功能,让你轻松玩转蓝光电影网。

    您需要 登录 才可以下载或查看,没有帐号?立即加入

    x

    碟中谍6:全面瓦解/碟中谍6 Mission.Impossible.Fallout.2018.IMAX.1080p.BluRay.x264.DTS-HD.MA.7.1-FGT 16.19GB-1.jpg
    ◎译  名 碟中谍6:全面瓦解 / 碟中谍6 / 不可能的任务:全面瓦解(台) / 职业特工队:叛逆之谜(港) / Mission: Impossible 6 / MI6
    ◎片  名 碟中谍6:全面瓦解 Mission: Impossible - Fallout
    ◎年  代 2018
    ◎国  家 美国
    ◎类  别 动作 / 惊悚 / 冒险
    ◎语  言 英语 / 法语
    ◎上映日期 2018-08-31(中国大陆) / 2018-07-27(美国)
    ◎IMDb评分  8.0/10 from 156,592 users
    ◎IMDb链接  http://www.imdb.com/title/tt4912910/
    ◎豆瓣评分 8.2/10 from 253425 users
    ◎豆瓣链接 https://movie.douban.com/subject/26336252/
    ◎片  长 147分钟 / 148分钟(中国大陆)
    ◎导  演 克里斯托弗·麦奎里
    ◎主  演 汤姆·克鲁斯
          亨利·卡维尔
          文·瑞姆斯
          西蒙·佩吉
          丽贝卡·弗格森
          西恩·哈里斯
          安吉拉·贝塞特
          凡妮莎·柯比
          米歇尔·莫纳汉
          韦斯·本特利
          费雷德里克·施密特
          亚历克·鲍德温
          杨亮
          克里斯托弗·琼勒
          沃尔夫·布利策
          拉斐尔·琼勒
          安德鲁·卡扎纳夫·平
          克里斯多夫·德·舒瓦西
          拉裴尔·德普雷
          让·巴普蒂斯特·菲永
          马克斯·盖勒
          奥利维尔·体班德
          亚历山大·普尔
          阿利克斯·贝纳泽什
          乔伊·安沙
          维利贝·托皮奇
          格雷厄姆·福克斯
          卡斯珀·菲利普森
          菲恩·乔利
          鲁斯·贝恩
          奈杰尔·艾伦

    ◎简  介 

      有时好意会造成恶果,人反而被自己所造成的结果所困扰。伊桑·亨特(汤姆·克鲁斯)和他的IMF团队(亚历克·鲍德温、西蒙·佩吉、文·瑞姆斯)将在最新的电影《碟中谍6:全面瓦解》中再度回归,他们会与观众们熟悉的盟友(丽贝卡·弗格森、米歇尔·莫娜汉)一起与时间赛跑,应对一次任务中出现的意外。亨利·卡维尔、安吉拉·贝塞特和凡妮莎·柯比也将加入本片的演员阵容,电影制片人克里斯托夫·迈考利将会再度担任导演。

    • Video
    • ID                                       : 1
    • Format                                   : AVC
    • Format/Info                              : Advanced Video Codec
    • Format profile                           : [email protected]
    • Format settings                          : CABAC / 4 Ref Frames
    • Format settings, CABAC                   : Yes
    • Format settings, ReFrames                : 4 frames
    • Codec ID                                 : V_MPEG4/ISO/AVC
    • Duration                                 : 2 h 27 min
    • Bit rate                                 : 11.5 Mb/s
    • Width                                    : 1 920 pixels
    • Height                                   : 1 012 pixels
    • Display aspect ratio                     : 1.897
    • Frame rate mode                          : Constant
    • Frame rate                               : 23.976 (24000/1001) FPS
    • Color space                              : YUV
    • Chroma subsampling                       : 4:2:0
    • Bit depth                                : 8 bits
    • Scan type                                : Progressive
    • Bits/(Pixel*Frame)                       : 0.247
    • Stream size                              : 11.8 GiB (73%)
    • Title                                    : Mission.Impossible.Fallout.2018.1080p.BluRay.x264.DTS-HD.MA.7.1-FGT
    • Writing library                          : x264 core 148 r2795M aaa9aa8
    • Encoding settings                        : cabac=1 / ref=4 / deblock=1:-2:-2 / analyse=0x3:0x113 / me=umh / subme=9 / psy=1 / psy_rd=1.00:0.15 / mixed_ref=1 / me_range=16 / chroma_me=1 / trellis=2 / 8x8dct=1 / cqm=0 / deadzone=21,11 / fast_pskip=1 / chroma_qp_offset=-3 / threads=24 / lookahead_threads=3 / sliced_threads=0 / nr=0 / decimate=1 / interlaced=0 / bluray_compat=0 / constrained_intra=0 / bframes=3 / b_pyramid=2 / b_adapt=1 / b_bias=0 / direct=3 / weightb=1 / open_gop=0 / weightp=2 / keyint=250 / keyint_min=25 / scenecut=40 / intra_refresh=0 / rc_lookahead=50 / rc=2pass / mbtree=1 / bitrate=11500 / ratetol=1.0 / qcomp=0.60 / qpmin=0 / qpmax=69 / qpstep=4 / cplxblur=20.0 / qblur=0.5 / vbv_maxrate=31250 / vbv_bufsize=31250 / nal_hrd=none / filler=0 / ip_ratio=1.40 / aq=1:1.00
    • Language                                 : English
    • Default                                  : Yes
    • Forced                                   : No
    • Audio
    • ID                                       : 2
    • Format                                   : DTS XLL
    • Format/Info                              : Digital Theater Systems
    • Commercial name                          : DTS-HD Master Audio
    • Codec ID                                 : A_DTS
    • Duration                                 : 2 h 27 min
    • Bit rate mode                            : Variable
    • Bit rate                                 : 4 182 kb/s
    • Channel(s)                               : 8 channels
    • Channel layout                           : C L R LFE Lb Rb Lss Rss
    • Sampling rate                            : 48.0 kHz
    • Frame rate                               : 93.750 FPS (512 SPF)
    • Bit depth                                : 24 bits
    • Compression mode                         : Lossless
    • Stream size                              : 4.31 GiB (27%)
    • Title                                    : Mission.Impossible.Fallout.2018.1080p.BluRay.x264.DTS-HD.MA.7.1-FGT
    • Language                                 : English
    • Default                                  : Yes
    • Forced                                   : No
    • Text #1
    • ID                                       : 3
    • Format                                   : UTF-8
    • Codec ID                                 : S_TEXT/UTF8
    • Codec ID/Info                            : UTF-8 Plain Text
    • Duration                                 : 2 h 19 min
    • Bit rate                                 : 46 b/s
    • Count of elements                        : 1566
    • Stream size                              : 47.1 KiB (0%)
    • Title                                    : English-SRT
    • Language                                 : English
    • Default                                  : Yes
    • Forced                                   : No
    • Text #2
    • ID                                       : 4
    • Format                                   : UTF-8
    • Codec ID                                 : S_TEXT/UTF8
    • Codec ID/Info                            : UTF-8 Plain Text
    • Duration                                 : 2 h 19 min
    • Bit rate                                 : 52 b/s
    • Count of elements                        : 1872
    • Stream size                              : 53.7 KiB (0%)
    • Title                                    : English-SDH-SRT
    • Language                                 : English
    • Default                                  : No
    • Forced                                   : No
    • Text #3
    • ID                                       : 5
    • Format                                   : PGS
    • Muxing mode                              : zlib
    • Codec ID                                 : S_HDMV/PGS
    • Codec ID/Info                            : Picture based subtitle format used on BDs/HD-DVDs
    • Duration                                 : 2 h 19 min
    • Bit rate                                 : 29.7 kb/s
    • Count of elements                        : 3111
    • Stream size                              : 29.5 MiB (0%)
    • Title                                    : English-PGS
    • Language                                 : English
    • Default                                  : No
    • Forced                                   : No
    • Text #4
    • ID                                       : 6
    • Format                                   : PGS
    • Muxing mode                              : zlib
    • Codec ID                                 : S_HDMV/PGS
    • Codec ID/Info                            : Picture based subtitle format used on BDs/HD-DVDs
    • Duration                                 : 2 h 19 min
    • Bit rate                                 : 35.2 kb/s
    • Count of elements                        : 3747
    • Stream size                              : 35.1 MiB (0%)
    • Title                                    : English-SDH-PGS
    • Language                                 : English
    • Default                                  : No
    • Forced                                   : No
    • Text #5
    • ID                                       : 7
    • Format                                   : PGS
    • Muxing mode                              : zlib
    • Codec ID                                 : S_HDMV/PGS
    • Codec ID/Info                            : Picture based subtitle format used on BDs/HD-DVDs
    • Duration                                 : 32 min 11 s
    • Bit rate                                 : 671 b/s
    • Count of elements                        : 37
    • Stream size                              : 158 KiB (0%)
    • Title                                    : English-FORCED-PGS
    • Language                                 : English
    • Default                                  : No
    • Forced                                   : No
    • Text #6
    • ID                                       : 8
    • Format                                   : PGS
    • Muxing mode                              : zlib
    • Codec ID                                 : S_HDMV/PGS
    • Codec ID/Info                            : Picture based subtitle format used on BDs/HD-DVDs
    • Duration                                 : 2 h 19 min
    • Bit rate                                 : 29.7 kb/s
    • Count of elements                        : 3327
    • Stream size                              : 29.6 MiB (0%)
    • Title                                    : French-PGS
    • Language                                 : French
    • Default                                  : No
    • Forced                                   : No
    • Text #7
    • ID                                       : 9
    • Format                                   : PGS
    • Muxing mode                              : zlib
    • Codec ID                                 : S_HDMV/PGS
    • Codec ID/Info                            : Picture based subtitle format used on BDs/HD-DVDs
    • Duration                                 : 2 h 19 min
    • Bit rate                                 : 28.2 kb/s
    • Count of elements                        : 2788
    • Stream size                              : 28.1 MiB (0%)
    • Title                                    : Spanish-PGS
    • Language                                 : Spanish
    • Default                                  : No
    • Forced                                   : No
    • Text #8
    • ID                                       : 10
    • Format                                   : PGS
    • Muxing mode                              : zlib
    • Codec ID                                 : S_HDMV/PGS
    • Codec ID/Info                            : Picture based subtitle format used on BDs/HD-DVDs
    • Duration                                 : 2 h 19 min
    • Bit rate                                 : 23.6 kb/s
    • Count of elements                        : 2750
    • Stream size                              : 23.5 MiB (0%)
    • Title                                    : Portuguese-PGS
    • Language                                 : Portuguese
    • Default                                  : No
    • Forced                                   : No
    • Menu
    • 00:00:00.000                             : en:Chapter 01
    • 00:10:37.011                             : en:Chapter 02
    • 00:17:11.405                             : en:Chapter 03
    • 00:26:57.240                             : en:Chapter 04
    • 00:35:56.654                             : en:Chapter 05
    • 00:49:18.413                             : en:Chapter 06
    • 01:00:00.805                             : en:Chapter 07
    • 01:10:23.719                             : en:Chapter 08
    • 01:17:07.289                             : en:Chapter 09
    • 01:28:28.469                             : en:Chapter 10
    • 01:39:09.526                             : en:Chapter 11
    • 01:46:26.546                             : en:Chapter 12
    • 01:55:45.563                             : en:Chapter 13
    • 02:03:10.591                             : en:Chapter 14
    • 02:14:01.283                             : en:Chapter 15
    • 02:19:48.088                             : en:Chapter 16

    复制代码

    碟中谍6:全面瓦解/碟中谍6 Mission.Impossible.Fallout.2018.IMAX.1080p.BluRay.x264.DTS-HD.MA.7.1-FGT 16.19GB-2.png 碟中谍6:全面瓦解/碟中谍6 Mission.Impossible.Fallout.2018.IMAX.1080p.BluRay.x264.DTS-HD.MA.7.1-FGT 16.19GB-3.png 碟中谍6:全面瓦解/碟中谍6 Mission.Impossible.Fallout.2018.IMAX.1080p.BluRay.x264.DTS-HD.MA.7.1-FGT 16.19GB-4.png





    Mission.Impossible.Fallout.2018.IMAX.1080p.BluRay.x264.DTS-HD.MA.7.1-FGT.torrent (81.53 KB, 下载次数: 757)
    [发帖际遇]: 蓝光 发帖时在路边捡到 3 蓝光币,偷偷放进了口袋. 幸运榜 / 衰神榜
    开通VIP免费下载本站所有资源---点这里
    新手必看:资源下载、资源播放、字幕使用、等常见问题---点这里
    回复

    使用道具 举报

  • TA的每日心情
    开心
    前天 21:32
  • 签到天数: 12 天

    [LV.3]偶尔看看II

    发表于 2018-11-15 22:24:17 | 显示全部楼层
    终于等到了高清版本,期待4K的出现
    开通VIP免费下载本站所有资源---点这里
    新手必看:资源下载、资源播放、字幕使用、等常见问题---点这里
    回复 支持 反对

    使用道具 举报

    该用户从未签到

    发表于 2018-11-15 23:30:00 | 显示全部楼层
    顶一个顶一个顶一个顶一个
    开通VIP免费下载本站所有资源---点这里
    新手必看:资源下载、资源播放、字幕使用、等常见问题---点这里
    回复 支持 反对

    使用道具 举报

  • TA的每日心情
    开心
    4 天前
  • 签到天数: 11 天

    [LV.3]偶尔看看II

    发表于 2018-11-16 08:14:23 | 显示全部楼层
    免费下载本站所有资源
    开通VIP免费下载本站所有资源---点这里
    新手必看:资源下载、资源播放、字幕使用、等常见问题---点这里
    回复 支持 反对

    使用道具 举报

    该用户从未签到

    发表于 2018-11-16 08:34:59 | 显示全部楼层
    谢谢楼主分享
    开通VIP免费下载本站所有资源---点这里
    新手必看:资源下载、资源播放、字幕使用、等常见问题---点这里
    回复 支持 反对

    使用道具 举报

  • TA的每日心情
    开心
    昨天 14:32
  • 签到天数: 6 天

    [LV.2]偶尔看看I

    发表于 2018-11-16 09:43:08 | 显示全部楼层
    感谢楼主无私分享
    开通VIP免费下载本站所有资源---点这里
    新手必看:资源下载、资源播放、字幕使用、等常见问题---点这里
    回复 支持 反对

    使用道具 举报

    该用户从未签到

    发表于 2018-11-16 10:13:40 | 显示全部楼层
    好棒终于等到了
    [发帖际遇]: fireflyzy 发帖时在路边捡到 2 蓝光币,偷偷放进了口袋. 幸运榜 / 衰神榜
    开通VIP免费下载本站所有资源---点这里
    新手必看:资源下载、资源播放、字幕使用、等常见问题---点这里
    回复 支持 反对

    使用道具 举报

    该用户从未签到

    发表于 2018-11-16 10:22:43 | 显示全部楼层
    终于顶到了,谢谢了
    [发帖际遇]: 一个袋子砸在了 hywater 头上,hywater 赚了 3 蓝光币. 幸运榜 / 衰神榜
    开通VIP免费下载本站所有资源---点这里
    新手必看:资源下载、资源播放、字幕使用、等常见问题---点这里
    回复 支持 反对

    使用道具 举报

  • TA的每日心情
    开心
    2018-11-23 18:23
  • 签到天数: 1 天

    [LV.1]初来乍到

    发表于 2018-11-16 10:25:43 | 显示全部楼层
    很喜欢的电影
    开通VIP免费下载本站所有资源---点这里
    新手必看:资源下载、资源播放、字幕使用、等常见问题---点这里
    回复 支持 反对

    使用道具 举报

  • TA的每日心情
    开心
    昨天 17:22
  • 签到天数: 16 天

    [LV.4]偶尔看看III

     成长值: 2005

    发表于 2018-11-16 11:11:52 | 显示全部楼层
    百度网盘下载说种子解析失败? 迅雷没速度还能用啥下载???
    开通VIP免费下载本站所有资源---点这里
    新手必看:资源下载、资源播放、字幕使用、等常见问题---点这里
    回复 支持 反对

    使用道具 举报

    懒得打字嘛,点击右侧快捷回复 【右侧内容,后台自定义】
    您需要登录后才可以回帖 登录 | 立即加入

    本版积分规则

    现在加入蓝光电影网,注册一个账号

    QQ| 手机版|小黑屋| 蓝光电影网 |网站地图

    Copyright © 20013-2018 Comsenz Inc.  Template by 蓝光电影论坛 All Rights Reserved.

    Powered by 高清电影网 X3.4
    特别声明:本站所有资源均由网上收集而来,版权归原影音公司所有,如果侵犯了你的权益,请通知我们,我们会及时删除侵权内容.

    快速回复 返回顶部 返回列表