找回密码

蓝光电影网

查看: 661|回复: 5

[音乐] 金属乐队:穿越永恒 Metallica.Through.the.Never.2013.LIMITED.1080p.BluRay.x264-VETO 6.55GB

[复制链接]

 成长值: 23185

发表于 2018-11-7 23:07:13 | 显示全部楼层 |阅读模式

金属乐队:穿越永恒 Metallica.Through.the.Never.2013.LIMITED.1080p.BluRay.x264-VETO 6.55GB-1.jpg
◎译  名 金属乐队:穿越永恒 / Metallica 3D / 金属乐队3D演唱会
◎片  名 金属乐队:穿越永恒 Metallica Through the Never
◎年  代 2013
◎国  家 美国
◎类  别 音乐
◎语  言 英语
◎上映日期 2013-09-27(美国)
◎IMDb评分  7.2/10 from 15,110 users
◎IMDb链接  http://www.imdb.com/title/tt2172935/
◎豆瓣评分 7.2/10 from 1061 users
◎豆瓣链接 https://movie.douban.com/subject/10735421/
◎片  长 93分钟
◎导  演 尼姆罗德·安陶尔
◎主  演 戴恩·德哈恩
      詹姆斯·海特菲尔德
      拉斯·乌尔里克
      柯克·汉梅特
      罗伯特·图基罗

◎简  介 

  “金属乐队”的这部3D电影《金属乐队:穿越永恒》,由曾经导演过科幻惊悚片《新铁血战士》的尼姆罗德·安塔尔执导,主演是好莱坞新生代演员戴恩·德哈恩。
  在影片中,戴恩·德哈恩受“金属乐队”派遣,去找回一辆破旧的卡车和秘密包裹,但想要完成这项特殊任务并不容易,等待他的是一段惊险刺激的冒险旅程。观众在银幕上会看到戴恩·德哈恩的这场冒险和“金属乐队”极具冲击力的演唱会交替上演,影片的IMAX版本更是能够带来顶尖的视听体验。
  乐队鼓手拉尔斯·乌尔里克感叹道:“我以前觉得IMAX或者3D技术是噱头,但是这部影片只有用这些高科技呈现才更震撼。观众观影时仿佛身临其境于演唱会现场!”本片是“金属乐队”在加拿大巡演时拍摄完成的,之前乐队成员曾在墨西哥城做了八场排练表演,最终呈现的效果令人满意。

◎获奖情况 

  第61届美国音效剪辑协会奖 (2014)
  金卷轴奖 最佳音乐片音乐剪辑(提名) Ryan Rubin /  Joseph Magee /  里克·克莱恩 /  Matt Fausak


  1. Video
  2. ID                                       : 1
  3. Format                                   : AVC
  4. Format/Info                              : Advanced Video Codec
  5. Format profile                           : [url=/cdn-cgi/l/email-protection]High@L4.1[/url]
  6. Format settings, CABAC                   : Yes
  7. Format settings, ReFrames                : 5 frames
  8. Codec ID                                 : V_MPEG4/ISO/AVC
  9. Duration                                 : 1h 32mn
  10. Bit rate                                 : 8 622 Kbps
  11. Width                                    : 1 920 pixels
  12. Height                                   : 800 pixels
  13. Display aspect ratio                     : 2.40:1
  14. Frame rate mode                          : Constant
  15. Frame rate                               : 23.976 (24000/1001) fps
  16. Color space                              : YUV
  17. Chroma subsampling                       : 4:2:0
  18. Bit depth                                : 8 bits
  19. Scan type                                : Progressive
  20. Bits/(Pixel*Frame)                       : 0.234
  21. Stream size                              : 5.45 GiB (83%)
  22. Writing library                          : x264 core 140 r2377 1ca7bb9
  23. Encoding settings                        : cabac=1 / ref=5 / deblock=1:0:0 / analyse=0x3:0x133 / me=umh / subme=7 / psy=1 / psy_rd=1.00:0.00 / mixed_ref=1 / me_range=16 / chroma_me=1 / trellis=1 / 8x8dct=1 / cqm=0 / deadzone=21,11 / fast_pskip=0 / chroma_qp_offset=-2 / threads=12 / lookahead_threads=2 / sliced_threads=0 / nr=0 / decimate=1 / interlaced=0 / bluray_compat=0 / constrained_intra=0 / bframes=3 / b_pyramid=2 / b_adapt=1 / b_bias=0 / direct=1 / weightb=1 / open_gop=0 / weightp=1 / keyint=250 / keyint_min=23 / scenecut=40 / intra_refresh=0 / rc_lookahead=40 / rc=2pass / mbtree=1 / bitrate=8622 / ratetol=1.0 / qcomp=0.60 / qpmin=0 / qpmax=69 / qpstep=4 / cplxblur=20.0 / qblur=0.5 / ip_ratio=1.40 / aq=1:1.00
  24. Default                                  : Yes
  25. Forced                                   : No

  26. Audio
  27. ID                                       : 2
  28. Format                                   : DTS
  29. Format/Info                              : Digital Theater Systems
  30. Mode                                     : 16
  31. Format settings, Endianness              : Big
  32. Codec ID                                 : A_DTS
  33. Duration                                 : 1h 32mn
  34. Bit rate mode                            : Constant
  35. Bit rate                                 : 1 509 Kbps
  36. Channel(s)                               : 6 channels
  37. Channel positions                        : Front: L C R, Side: L R, LFE
  38. Sampling rate                            : 48.0 KHz
  39. Frame rate                               : 93.750 fps (512 spf)
  40. Bit depth                                : 16 bits
  41. Compression mode                         : Lossy
  42. Stream size                              : 1 000 MiB (15%)
  43. Language                                 : English
  44. Default                                  : Yes
  45. Forced                                   : No

  46. Menu
  47. 00:00:00.000                             : en:00:00:00.000
  48. 00:03:45.350                             : en:00:03:45.350
  49. 00:05:11.686                             : en:00:05:11.686
  50. 00:10:52.318                             : en:00:10:52.318
  51. 00:14:54.852                             : en:00:14:54.852
  52. 00:19:29.293                             : en:00:19:29.293
  53. 00:27:46.957                             : en:00:27:46.957
  54. 00:34:35.448                             : en:00:34:35.448
  55. 00:41:20.478                             : en:00:41:20.478
  56. 00:47:08.868                             : en:00:47:08.868
  57. 00:55:08.555                             : en:00:55:08.555
  58. 01:03:40.984                             : en:01:03:40.984
  59. 01:06:55.595                             : en:01:06:55.595
  60. 01:12:27.385                             : en:01:12:27.385
  61. 01:19:10.287                             : en:01:19:10.287
  62. 01:24:21.265                             : en:01:24:21.265
复制代码

复制代码

金属乐队:穿越永恒 Metallica.Through.the.Never.2013.LIMITED.1080p.BluRay.x264-VETO 6.55GB-2.png 金属乐队:穿越永恒 Metallica.Through.the.Never.2013.LIMITED.1080p.BluRay.x264-VETO 6.55GB-3.png 金属乐队:穿越永恒 Metallica.Through.the.Never.2013.LIMITED.1080p.BluRay.x264-VETO 6.55GB-4.png 金属乐队:穿越永恒 Metallica.Through.the.Never.2013.LIMITED.1080p.BluRay.x264-VETO 6.55GB-5.png 金属乐队:穿越永恒 Metallica.Through.the.Never.2013.LIMITED.1080p.BluRay.x264-VETO 6.55GB-6.png 金属乐队:穿越永恒 Metallica.Through.the.Never.2013.LIMITED.1080p.BluRay.x264-VETO 6.55GB-7.png





回复

使用道具 举报

发表于 2018-11-10 14:48:07 | 显示全部楼层
这片子还行吧?不过,音乐嘛……比较小众
回复 支持 反对

使用道具 举报

发表于 2018-12-21 13:26:26 | 显示全部楼层
计划顺几百块几百块具不具备
回复 支持 反对

使用道具 举报

发表于 2019-5-11 13:02:35 | 显示全部楼层
音频是DTS格式啊?
回复 支持 反对

使用道具 举报

发表于 2019-5-11 15:09:35 | 显示全部楼层
好可惜,币不够。
回复 支持 反对

使用道具 举报

发表于 2019-6-8 11:37:09 | 显示全部楼层
感谢蓝光电影网!感谢楼主无私奉献!
回复 支持 反对

使用道具 举报

懒得打字嘛,点击右侧快捷回复 【右侧内容,后台自定义】
您需要登录后才可以回帖 登录 | 立即加入

本版积分规则

现在加入蓝光电影网,注册一个账号

QQ| 手机版|小黑屋| 蓝光电影网 |网站地图

Copyright © 2015-2019 Comsenz Inc.  Template by 蓝光电影论坛 All Rights Reserved.

Powered by 蓝光电影网 X3.4

特别声明:本站所有资源均由网上收集而来,版权归原影音公司所有,如果侵犯了你的权益,请通知我们,我们会及时删除侵权内容.

快速回复 返回顶部 返回列表