找回密码

蓝光电影网

查看: 1499|回复: 40

[2160p-WEB] 开造 The.Binge.2020.2160p.WEB.h265-KOGi 10.07GB

[复制链接]

 成长值: 17760

发表于 2021-1-13 14:28:21 | 显示全部楼层 |阅读模式
p2623105144.jpg


◎译  名 开造
◎片  名 The Binge
◎年  代 2020
◎产  地 美国
◎类  别 喜剧
◎语  言 英语
◎上映日期 2020-08-28(美国)
◎IMDb评分  5.1/10 from 2536 users
◎IMDb链接  https://www.imdb.com/title/tt10994688/
◎豆瓣评分 /10 from 0 users
◎豆瓣链接 https://movie.douban.com/subject/35162168/
◎导  演 杰里米·加尔利 Jeremy Garelick
◎编  剧 乔丹·凡迪那 Jordan VanDina
◎主  演 文斯·沃恩 Vince Vaughn
       斯凯勒·吉桑多 Skyler Gisondo
       德克斯特·达登 Dexter Darden
       爱德华多·弗兰科 Eduardo Franco
       格瑞思·范·迪恩 Grace Van Dien
       埃斯特班·贝尼托 Esteban Benito
       Natalie Paige Bentley
       乔丹·凡迪那 Jordan VanDina
◎标  签 美国 | 喜剧 | [歐美]
◎简  介


  故事设定在酒精和毒品皆违法的时代,The Binge Day是所有人都能彻底放松的特赦日。
  1. Video
  2. ID                                       : 1
  3. Format                                   : HEVC
  4. Format/Info                              : High Efficiency Video Coding
  5. Format profile                           : Main [email protected]@Main
  6. Codec ID                                 : V_MPEGH/ISO/HEVC
  7. Duration                                 : 1 h 38 min
  8. Bit rate                                 : 14.4 Mb/s
  9. Width                                    : 3 840 pixels
  10. Height                                   : 2 160 pixels
  11. Display aspect ratio                     : 16:9
  12. Frame rate mode                          : Constant
  13. Frame rate                               : 24.000 FPS
  14. Color space                              : YUV
  15. Chroma subsampling                       : 4:2:0
  16. Bit depth                                : 10 bits
  17. Bits/(Pixel*Frame)                       : 0.073
  18. Stream size                              : 9.89 GiB (98%)
  19. Language                                 : English
  20. Default                                  : Yes
  21. Forced                                   : No

  22. Audio
  23. ID                                       : 2
  24. Format                                   : E-AC-3
  25. Format/Info                              : Enhanced AC-3
  26. Commercial name                          : Dolby Digital Plus
  27. Codec ID                                 : A_EAC3
  28. Duration                                 : 1 h 38 min
  29. Bit rate mode                            : Constant
  30. Bit rate                                 : 256 kb/s
  31. Channel(s)                               : 6 channels
  32. Channel layout                           : L R C LFE Ls Rs
  33. Sampling rate                            : 48.0 kHz
  34. Frame rate                               : 31.250 FPS (1536 SPF)
  35. Compression mode                         : Lossy
  36. Stream size                              : 179 MiB (2%)
  37. Language                                 : English
  38. Service kind                             : Complete Main
  39. Default                                  : Yes
  40. Forced                                   : No

  41. Text #1
  42. ID                                       : 3
  43. Format                                   : UTF-8
  44. Codec ID                                 : S_TEXT/UTF8
  45. Codec ID/Info                            : UTF-8 Plain Text
  46. Duration                                 : 1 h 37 min
  47. Bit rate                                 : 134 b/s
  48. Count of elements                        : 2543
  49. Stream size                              : 96.3 KiB (0%)
  50. Title                                    : English
  51. Language                                 : English
  52. Default                                  : No
  53. Forced                                   : No

  54. Text #2
  55. ID                                       : 4
  56. Format                                   : UTF-8
  57. Codec ID                                 : S_TEXT/UTF8
  58. Codec ID/Info                            : UTF-8 Plain Text
  59. Duration                                 : 1 h 37 min
  60. Bit rate                                 : 134 b/s
  61. Count of elements                        : 2515
  62. Stream size                              : 96.2 KiB (0%)
  63. Title                                    : Spanish; Castilian
  64. Language                                 : Spanish
  65. Default                                  : No
  66. Forced                                   : No
复制代码



                                       
                                       

                                       
                                       
                                       




回复

使用道具 举报

发表于 2021-1-13 15:24:01 | 显示全部楼层

楼主太厉害了!楼主,电影应该很好看我觉得蓝光电影网真是个好地方!
回复 支持 反对

使用道具 举报

发表于 2021-1-13 15:52:45 | 显示全部楼层
楼主发贴辛苦了,谢谢楼主分享!我觉得蓝光电影网是注册对了!
回复 支持 反对

使用道具 举报

发表于 2021-1-13 16:18:42 | 显示全部楼层
感谢分享,乐于下载!
回复 支持 反对

使用道具 举报

发表于 2021-1-13 16:28:05 | 显示全部楼层
楼主发贴辛苦了,谢谢楼主分享!
回复 支持 反对

使用道具 举报

发表于 2021-1-13 17:02:24 | 显示全部楼层

这个帖子不回对不起自己!我想我是一天也不能离开蓝光电影网
回复 支持 反对

使用道具 举报

发表于 2021-1-13 17:47:57 | 显示全部楼层
谢谢楼主分享!
回复 支持 反对

使用道具 举报

发表于 2021-1-13 18:38:47 | 显示全部楼层

谢谢楼主分享!
回复 支持 反对

使用道具 举报

发表于 2021-1-13 19:43:27 | 显示全部楼层
楼主发贴辛苦了,谢谢楼主分享!我觉得蓝光电影网是注册对了!
回复 支持 反对

使用道具 举报

发表于 2021-1-13 21:02:40 | 显示全部楼层
楼主发贴辛苦了,谢谢楼主分享!我觉得蓝光电影网是注册对了!
回复 支持 反对

使用道具 举报

懒得打字嘛,点击右侧快捷回复 【右侧内容,后台自定义】
您需要登录后才可以回帖 登录 | 立即加入

本版积分规则

现在加入蓝光电影网,注册一个账号
上个主题 下个主题 快速回复 收藏帖子 返回列表 客服中心 搜索

手机版|小黑屋| 蓝光电影网 |网站地图 

Copyright © 2015-2019 Comsenz Inc.  Template by 蓝光电影论坛 All Rights Reserved.

Powered by 蓝光电影网 X3.4

特别声明:本站所有资源均由网上收集而来,版权归原影音公司所有,如果侵犯了你的权益,请通知我们,我们会及时删除侵权内容.

快速回复 返回顶部 返回列表