找回密码

蓝光电影网

查看: 847|回复: 11

[2160p-WEB] 皇家次子女秘密组织 Secret.Society.of.Second-Born.Royals.2020.HDR.2160p.WEB.h265-KOGi 11.62GB

[复制链接]

 成长值: 17760

发表于 2021-1-13 14:28:17 | 显示全部楼层 |阅读模式
皇家次子女秘密组织 Secret.Society.of.Second-Born.Royals.2020.HDR.2160p.WEB.h265-KOGi 11.62GB-1.jpg


◎译  名 皇家次子女秘密组织
◎片  名 Secret Society of Second Born Royals
◎年  代 2020
◎产  地 美国
◎类  别 科幻
◎语  言 英语
◎上映日期 2020-09-25(美国)
◎IMDb评分  4.8/10 from 3080 users
◎IMDb链接  https://www.imdb.com/title/tt10324122/
◎豆瓣评分 3.9/10 from 375 users
◎豆瓣链接 https://movie.douban.com/subject/33440336/
◎片  长 97分钟
◎导  演 安娜·马斯特罗 Anna Mastro
◎编  剧 亚历克斯·利特瓦克 Alex Litvak
◎主  演 格雷格·布瑞克 Greg Bryk
       艾洛蒂·袁 Elodie Yung
       斯盖拉·阿斯丁 Skylar Astin
       佩顿·伊丽莎白·李 Peyton Elizabeth Lee
       奈尔斯·菲奇 Niles Fitch
       阿什利·廖 Ashley Liao
       伊莎贝拉·布莱克·托马斯 Isabella Blake-Thomas
       诺亚·罗麦克斯 Noah Lomax
       贾斯达达 Jas Dhanda
◎标  签 迪士尼 | 美国 | 科幻 | 2020 | 动作 | 冒险 | 电影 | 魔幻
◎简  介


  一个现代王国Illyria的公主Sam,性格叛逆,是王位的第二继承人。正当Sam对王位的漠不关心值达到人生新高时,她惊讶地发现自己有超能力,而且属于一个长期以来偷偷摸摸保护全国和平的秘密组织。影片聚焦Sam的历险:她加入了这个属于最高机密的训练项目,目的是训练皇室的次子女们来肩负拯救世界的任务。
  1. Video
  2. ID                                       : 1
  3. Format                                   : HEVC
  4. Format/Info                              : High Efficiency Video Coding
  5. Format profile                           : Main [email protected]@High
  6. HDR format                               : SMPTE ST 2086, HDR10 compatible
  7. Codec ID                                 : V_MPEGH/ISO/HEVC
  8. Duration                                 : 1 h 37 min
  9. Bit rate                                 : 16.4 Mb/s
  10. Width                                    : 3 840 pixels
  11. Height                                   : 2 160 pixels
  12. Display aspect ratio                     : 16:9
  13. Frame rate mode                          : Constant
  14. Frame rate                               : 23.976 (24000/1001/189150) FPS
  15. Color space                              : YUV
  16. Chroma subsampling                       : 4:2:0
  17. Bit depth                                : 10 bits
  18. Bits/(Pixel*Frame)                       : 0.082
  19. Stream size                              : 11.1 GiB (95%)
  20. Language                                 : English
  21. Default                                  : Yes
  22. Forced                                   : No
  23. Color range                              : Limited
  24. Color primaries                          : BT.2020
  25. Transfer characteristics                 : PQ
  26. Matrix coefficients                      : BT.2020 non-constant
  27. Mastering display color primaries        : Display P3
  28. Mastering display luminance              : min: 0.0001 cd/m2, max: 1000 cd/m2

  29. Audio
  30. ID                                       : 2
  31. Format                                   : E-AC-3 JOC
  32. Format/Info                              : Enhanced AC-3 with Joint Object Coding
  33. Commercial name                          : Dolby Digital Plus with Dolby Atmos
  34. Codec ID                                 : A_EAC3
  35. Duration                                 : 1 h 37 min
  36. Bit rate mode                            : Constant
  37. Bit rate                                 : 768 kb/s
  38. Channel(s)                               : 6 channels
  39. Channel layout                           : L R C LFE Ls Rs
  40. Sampling rate                            : 48.0 kHz
  41. Frame rate                               : 31.250 FPS (1536 SPF)
  42. Compression mode                         : Lossy
  43. Stream size                              : 533 MiB (4%)
  44. Language                                 : English
  45. Service kind                             : Complete Main
  46. Default                                  : Yes
  47. Forced                                   : No
  48. Complexity index                         : 16
  49. Number of dynamic objects                : 15
  50. Bed channel count                        : 1 channel
  51. Bed channel configuration                : LFE

  52. Text #1
  53. ID                                       : 3
  54. Format                                   : UTF-8
  55. Codec ID                                 : S_TEXT/UTF8
  56. Codec ID/Info                            : UTF-8 Plain Text
  57. Duration                                 : 1 h 36 min
  58. Bit rate                                 : 75 b/s
  59. Count of elements                        : 1571
  60. Stream size                              : 53.3 KiB (0%)
  61. Title                                    : English (SDH)
  62. Language                                 : English
  63. Default                                  : No
  64. Forced                                   : No

  65. Text #2
  66. ID                                       : 4
  67. Format                                   : UTF-8
  68. Codec ID                                 : S_TEXT/UTF8
  69. Codec ID/Info                            : UTF-8 Plain Text
  70. Duration                                 : 1 h 36 min
  71. Bit rate                                 : 62 b/s
  72. Count of elements                        : 1348
  73. Stream size                              : 44.7 KiB (0%)
  74. Title                                    : Dansk
  75. Language                                 : Danish
  76. Default                                  : No
  77. Forced                                   : No

  78. Text #3
  79. ID                                       : 5
  80. Format                                   : UTF-8
  81. Codec ID                                 : S_TEXT/UTF8
  82. Codec ID/Info                            : UTF-8 Plain Text
  83. Duration                                 : 1 h 36 min
  84. Bit rate                                 : 59 b/s
  85. Count of elements                        : 1341
  86. Stream size                              : 41.9 KiB (0%)
  87. Title                                    : Deutsch
  88. Language                                 : German
  89. Default                                  : No
  90. Forced                                   : No

  91. Text #4
  92. ID                                       : 6
  93. Format                                   : UTF-8
  94. Codec ID                                 : S_TEXT/UTF8
  95. Codec ID/Info                            : UTF-8 Plain Text
  96. Duration                                 : 1 h 36 min
  97. Bit rate                                 : 59 b/s
  98. Count of elements                        : 1348
  99. Stream size                              : 42.3 KiB (0%)
  100. Title                                    : Espa?ol (Latinoamericano)
  101. Language                                 : Spanish
  102. Default                                  : No
  103. Forced                                   : No

  104. Text #5
  105. ID                                       : 7
  106. Format                                   : UTF-8
  107. Codec ID                                 : S_TEXT/UTF8
  108. Codec ID/Info                            : UTF-8 Plain Text
  109. Duration                                 : 1 h 36 min
  110. Bit rate                                 : 59 b/s
  111. Count of elements                        : 1329
  112. Stream size                              : 42.0 KiB (0%)
  113. Title                                    : Espa?ol
  114. Language                                 : Spanish
  115. Default                                  : No
  116. Forced                                   : No

  117. Text #6
  118. ID                                       : 8
  119. Format                                   : UTF-8
  120. Codec ID                                 : S_TEXT/UTF8
  121. Codec ID/Info                            : UTF-8 Plain Text
  122. Duration                                 : 1 h 36 min
  123. Bit rate                                 : 57 b/s
  124. Count of elements                        : 1331
  125. Stream size                              : 40.6 KiB (0%)
  126. Title                                    : Suomi
  127. Language                                 : Finnish
  128. Default                                  : No
  129. Forced                                   : No

  130. Text #7
  131. ID                                       : 9
  132. Format                                   : UTF-8
  133. Codec ID                                 : S_TEXT/UTF8
  134. Codec ID/Info                            : UTF-8 Plain Text
  135. Duration                                 : 1 h 36 min
  136. Bit rate                                 : 63 b/s
  137. Count of elements                        : 1345
  138. Stream size                              : 45.0 KiB (0%)
  139. Title                                    : Fran?ais
  140. Language                                 : French
  141. Default                                  : No
  142. Forced                                   : No

  143. Text #8
  144. ID                                       : 10
  145. Format                                   : UTF-8
  146. Codec ID                                 : S_TEXT/UTF8
  147. Codec ID/Info                            : UTF-8 Plain Text
  148. Duration                                 : 1 h 36 min
  149. Bit rate                                 : 63 b/s
  150. Count of elements                        : 1348
  151. Stream size                              : 45.2 KiB (0%)
  152. Title                                    : Italiano
  153. Language                                 : Italian
  154. Default                                  : No
  155. Forced                                   : No

  156. Text #9
  157. ID                                       : 11
  158. Format                                   : UTF-8
  159. Codec ID                                 : S_TEXT/UTF8
  160. Codec ID/Info                            : UTF-8 Plain Text
  161. Duration                                 : 1 h 36 min
  162. Bit rate                                 : 53 b/s
  163. Count of elements                        : 1279
  164. Stream size                              : 37.8 KiB (0%)
  165. Title                                    : Nederlands
  166. Language                                 : Dutch
  167. Default                                  : No
  168. Forced                                   : No

  169. Text #10
  170. ID                                       : 12
  171. Format                                   : UTF-8
  172. Codec ID                                 : S_TEXT/UTF8
  173. Codec ID/Info                            : UTF-8 Plain Text
  174. Duration                                 : 1 h 36 min
  175. Bit rate                                 : 54 b/s
  176. Count of elements                        : 1336
  177. Stream size                              : 38.8 KiB (0%)
  178. Title                                    : Norsk
  179. Language                                 : Norwegian
  180. Default                                  : No
  181. Forced                                   : No

  182. Text #11
  183. ID                                       : 13
  184. Format                                   : UTF-8
  185. Codec ID                                 : S_TEXT/UTF8
  186. Codec ID/Info                            : UTF-8 Plain Text
  187. Duration                                 : 1 h 36 min
  188. Bit rate                                 : 60 b/s
  189. Count of elements                        : 1344
  190. Stream size                              : 43.2 KiB (0%)
  191. Title                                    : Polski
  192. Language                                 : Polish
  193. Default                                  : No
  194. Forced                                   : No

  195. Text #12
  196. ID                                       : 14
  197. Format                                   : UTF-8
  198. Codec ID                                 : S_TEXT/UTF8
  199. Codec ID/Info                            : UTF-8 Plain Text
  200. Duration                                 : 1 h 36 min
  201. Bit rate                                 : 59 b/s
  202. Count of elements                        : 1247
  203. Stream size                              : 42.1 KiB (0%)
  204. Title                                    : Português (Brasil)
  205. Language                                 : Portuguese
  206. Default                                  : No
  207. Forced                                   : No

  208. Text #13
  209. ID                                       : 15
  210. Format                                   : UTF-8
  211. Codec ID                                 : S_TEXT/UTF8
  212. Codec ID/Info                            : UTF-8 Plain Text
  213. Duration                                 : 1 h 36 min
  214. Bit rate                                 : 66 b/s
  215. Count of elements                        : 1338
  216. Stream size                              : 46.8 KiB (0%)
  217. Title                                    : Português
  218. Language                                 : Portuguese
  219. Default                                  : No
  220. Forced                                   : No

  221. Text #14
  222. ID                                       : 16
  223. Format                                   : UTF-8
  224. Codec ID                                 : S_TEXT/UTF8
  225. Codec ID/Info                            : UTF-8 Plain Text
  226. Duration                                 : 1 h 36 min
  227. Bit rate                                 : 61 b/s
  228. Count of elements                        : 1347
  229. Stream size                              : 43.8 KiB (0%)
  230. Title                                    : Svenska
  231. Language                                 : Swedish
  232. Default                                  : No
  233. Forced                                   : No
复制代码



                                       
                                       

                                       
                                       
                                       




回复

使用道具 举报

发表于 2021-1-14 09:24:32 | 显示全部楼层
楼主发贴辛苦了,谢谢楼主分享!我觉得蓝光电影网是注册对了!
回复 支持 反对

使用道具 举报

发表于 2021-1-14 12:54:03 | 显示全部楼层
普通的能下吗
回复 支持 反对

使用道具 举报

发表于 2021-1-14 14:52:13 | 显示全部楼层

楼主太厉害了!楼主,电影应该很好看我觉得蓝光电影网真是个好地方!
回复 支持 反对

使用道具 举报

发表于 2021-1-14 17:57:29 | 显示全部楼层
谢谢楼主分享!
回复 支持 反对

使用道具 举报

发表于 7 天前 | 显示全部楼层
进来看看,好像效果不错,哈
回复 支持 反对

使用道具 举报

发表于 7 天前 | 显示全部楼层
还行以,看过了
回复 支持 反对

使用道具 举报

 成长值: 6745

发表于 7 天前 | 显示全部楼层
太好啦&萬分感謝版主的無私發佈分享%
回复 支持 反对

使用道具 举报

发表于 7 天前 | 显示全部楼层

楼主发贴辛苦了,谢谢楼主分享
回复 支持 反对

使用道具 举报

 成长值: 2080

发表于 6 天前 | 显示全部楼层
看过的说一声
回复 支持 反对

使用道具 举报

懒得打字嘛,点击右侧快捷回复 【右侧内容,后台自定义】
您需要登录后才可以回帖 登录 | 立即加入

本版积分规则

现在加入蓝光电影网,注册一个账号
上个主题 下个主题 快速回复 收藏帖子 返回列表 客服中心 搜索

手机版|小黑屋| 蓝光电影网 |网站地图 

Copyright © 2015-2019 Comsenz Inc.  Template by 蓝光电影论坛 All Rights Reserved.

Powered by 蓝光电影网 X3.4

特别声明:本站所有资源均由网上收集而来,版权归原影音公司所有,如果侵犯了你的权益,请通知我们,我们会及时删除侵权内容.

快速回复 返回顶部 返回列表