找回密码

蓝光电影网

查看: 991|回复: 17

[2160p-WEB] 安全后卫/安全卫 Safety.2020.HDR.2160p.WEB.h265-KOGi 14.46GB

[复制链接]

 成长值: 17760

发表于 2021-1-13 14:28:18 | 显示全部楼层 |阅读模式
安全后卫/安全卫 Safety.2020.HDR.2160p.WEB.h265-KOGi 14.46GB-1.jpg


◎译  名 安全后卫/安全卫
◎片  名 Safety
◎年  代 2020
◎产  地 美国
◎类  别 剧情 / 家庭
◎语  言 英语
◎上映日期 2020-12-11(美国)
◎IMDb评分  6.8/10 from 1987 users
◎IMDb链接  https://www.imdb.com/title/tt10649016/
◎豆瓣评分 6.8/10 from 99 users
◎豆瓣链接 https://movie.douban.com/subject/35227660/
◎片  长 120分钟
◎编  剧 兰迪·麦金农 Randy McKinnon / 尼克·桑多拉 Nick Santora
◎主  演 马修·格拉夫 Matthew Glave
       罗达·格里菲丝 Rhoda Griffis
       托德·艾伦 Todd Allen
       阿曼达·沃伦 Amanda Warren
       科琳·福克斯 Corinne Foxx
       布雷特·赖斯 Brett Rice
       布拉德·卡特 Brad Carter
       伊劳伊·辛格尔顿 IronE Singleton
       詹姆斯·杜蒙特 James DuMont
       库尔特·岳 Kurt Yue
       汤姆·诺维茨基 Tom Nowicki
       亨特·桑索内 Hunter Sansone
       维克托·麦凯 Victor McCay
       乔·奈泽维奇 Joe Knezevich
       迈克尔·比斯利 Michael Beasley
       肯尼·阿方索 Kenny Alfonso
       卢克·坦尼 Luke Tennie
       雷内尔·吉布斯 Renell Gibbs
       维克多·里维拉 Victor Rivera
◎标  签 2020 | 美国 | 运动 | 励志 | 真实事件改编 | 剧情 | 橄榄球 | 长子为父
◎简  介


  Safety, an Original Film, premieres tomorrow on DisneyPlus. Inspired by the story of former Clemson University football safety Ray McELrathBey, the film follows a young man facing a series of challenging circumstances, whose dedication helps him triumph over adversities.
  1. Video
  2. ID                                       : 1
  3. Format                                   : HEVC
  4. Format/Info                              : High Efficiency Video Coding
  5. Format profile                           : Main [email protected]@High
  6. HDR format                               : SMPTE ST 2086, HDR10 compatible
  7. Codec ID                                 : V_MPEGH/ISO/HEVC
  8. Duration                                 : 1 h 59 min
  9. Bit rate                                 : 16.5 Mb/s
  10. Width                                    : 3 840 pixels
  11. Height                                   : 2 160 pixels
  12. Display aspect ratio                     : 16:9
  13. Frame rate mode                          : Constant
  14. Frame rate                               : 23.976 (24000/1001/189150) FPS
  15. Color space                              : YUV
  16. Chroma subsampling                       : 4:2:0
  17. Bit depth                                : 10 bits
  18. Bits/(Pixel*Frame)                       : 0.083
  19. Stream size                              : 13.8 GiB (96%)
  20. Language                                 : English
  21. Default                                  : Yes
  22. Forced                                   : No
  23. Color range                              : Limited
  24. Color primaries                          : BT.2020
  25. Transfer characteristics                 : PQ
  26. Matrix coefficients                      : BT.2020 non-constant
  27. Mastering display color primaries        : BT.2020
  28. Mastering display luminance              : min: 0.0000 cd/m2, max: 1000 cd/m2

  29. Audio
  30. ID                                       : 2
  31. Format                                   : E-AC-3 JOC
  32. Format/Info                              : Enhanced AC-3 with Joint Object Coding
  33. Commercial name                          : Dolby Digital Plus with Dolby Atmos
  34. Codec ID                                 : A_EAC3
  35. Duration                                 : 1 h 59 min
  36. Bit rate mode                            : Constant
  37. Bit rate                                 : 768 kb/s
  38. Channel(s)                               : 6 channels
  39. Channel layout                           : L R C LFE Ls Rs
  40. Sampling rate                            : 48.0 kHz
  41. Frame rate                               : 31.250 FPS (1536 SPF)
  42. Compression mode                         : Lossy
  43. Stream size                              : 658 MiB (4%)
  44. Language                                 : English
  45. Service kind                             : Complete Main
  46. Default                                  : Yes
  47. Forced                                   : No
  48. Complexity index                         : 16
  49. Number of dynamic objects                : 15
  50. Bed channel count                        : 1 channel
  51. Bed channel configuration                : LFE

  52. Text #1
  53. ID                                       : 3
  54. Format                                   : UTF-8
  55. Codec ID                                 : S_TEXT/UTF8
  56. Codec ID/Info                            : UTF-8 Plain Text
  57. Duration                                 : 1 h 58 min
  58. Bit rate                                 : 74 b/s
  59. Count of elements                        : 1988
  60. Stream size                              : 65.0 KiB (0%)
  61. Title                                    : English (SDH)
  62. Language                                 : English
  63. Default                                  : No
  64. Forced                                   : No

  65. Text #2
  66. ID                                       : 4
  67. Format                                   : UTF-8
  68. Codec ID                                 : S_TEXT/UTF8
  69. Codec ID/Info                            : UTF-8 Plain Text
  70. Duration                                 : 1 h 58 min
  71. Bit rate                                 : 54 b/s
  72. Count of elements                        : 1176
  73. Stream size                              : 47.3 KiB (0%)
  74. Title                                    : Dansk
  75. Language                                 : Danish
  76. Default                                  : No
  77. Forced                                   : No

  78. Text #3
  79. ID                                       : 5
  80. Format                                   : UTF-8
  81. Codec ID                                 : S_TEXT/UTF8
  82. Codec ID/Info                            : UTF-8 Plain Text
  83. Duration                                 : 1 h 58 min
  84. Bit rate                                 : 57 b/s
  85. Count of elements                        : 1783
  86. Stream size                              : 50.0 KiB (0%)
  87. Title                                    : Deutsch
  88. Language                                 : German
  89. Default                                  : No
  90. Forced                                   : No

  91. Text #4
  92. ID                                       : 6
  93. Format                                   : UTF-8
  94. Codec ID                                 : S_TEXT/UTF8
  95. Codec ID/Info                            : UTF-8 Plain Text
  96. Duration                                 : 1 h 58 min
  97. Bit rate                                 : 60 b/s
  98. Count of elements                        : 1793
  99. Stream size                              : 52.9 KiB (0%)
  100. Title                                    : Espa?ol (Latinoamericano)
  101. Language                                 : Spanish
  102. Default                                  : No
  103. Forced                                   : No

  104. Text #5
  105. ID                                       : 7
  106. Format                                   : UTF-8
  107. Codec ID                                 : S_TEXT/UTF8
  108. Codec ID/Info                            : UTF-8 Plain Text
  109. Duration                                 : 1 h 58 min
  110. Bit rate                                 : 59 b/s
  111. Count of elements                        : 1783
  112. Stream size                              : 51.5 KiB (0%)
  113. Title                                    : Espa?ol
  114. Language                                 : Spanish
  115. Default                                  : No
  116. Forced                                   : No

  117. Text #6
  118. ID                                       : 8
  119. Format                                   : UTF-8
  120. Codec ID                                 : S_TEXT/UTF8
  121. Codec ID/Info                            : UTF-8 Plain Text
  122. Duration                                 : 1 h 58 min
  123. Bit rate                                 : 54 b/s
  124. Count of elements                        : 1785
  125. Stream size                              : 47.2 KiB (0%)
  126. Title                                    : Suomi
  127. Language                                 : Finnish
  128. Default                                  : No
  129. Forced                                   : No

  130. Text #7
  131. ID                                       : 9
  132. Format                                   : UTF-8
  133. Codec ID                                 : S_TEXT/UTF8
  134. Codec ID/Info                            : UTF-8 Plain Text
  135. Duration                                 : 1 h 58 min
  136. Bit rate                                 : 54 b/s
  137. Count of elements                        : 1640
  138. Stream size                              : 47.2 KiB (0%)
  139. Title                                    : Fran?ais
  140. Language                                 : French
  141. Default                                  : No
  142. Forced                                   : No

  143. Text #8
  144. ID                                       : 10
  145. Format                                   : UTF-8
  146. Codec ID                                 : S_TEXT/UTF8
  147. Codec ID/Info                            : UTF-8 Plain Text
  148. Duration                                 : 1 h 58 min
  149. Bit rate                                 : 58 b/s
  150. Count of elements                        : 1791
  151. Stream size                              : 50.5 KiB (0%)
  152. Title                                    : Italiano
  153. Language                                 : Italian
  154. Default                                  : No
  155. Forced                                   : No

  156. Text #9
  157. ID                                       : 11
  158. Format                                   : UTF-8
  159. Codec ID                                 : S_TEXT/UTF8
  160. Codec ID/Info                            : UTF-8 Plain Text
  161. Duration                                 : 1 h 58 min
  162. Bit rate                                 : 57 b/s
  163. Count of elements                        : 1350
  164. Stream size                              : 50.2 KiB (0%)
  165. Title                                    : Nederlands
  166. Language                                 : Dutch
  167. Default                                  : No
  168. Forced                                   : No

  169. Text #10
  170. ID                                       : 12
  171. Format                                   : UTF-8
  172. Codec ID                                 : S_TEXT/UTF8
  173. Codec ID/Info                            : UTF-8 Plain Text
  174. Duration                                 : 1 h 58 min
  175. Bit rate                                 : 60 b/s
  176. Count of elements                        : 1786
  177. Stream size                              : 52.8 KiB (0%)
  178. Title                                    : Norsk
  179. Language                                 : Norwegian
  180. Default                                  : No
  181. Forced                                   : No

  182. Text #11
  183. ID                                       : 13
  184. Format                                   : UTF-8
  185. Codec ID                                 : S_TEXT/UTF8
  186. Codec ID/Info                            : UTF-8 Plain Text
  187. Duration                                 : 1 h 58 min
  188. Bit rate                                 : 48 b/s
  189. Count of elements                        : 1641
  190. Stream size                              : 42.6 KiB (0%)
  191. Title                                    : Polski
  192. Language                                 : Polish
  193. Default                                  : No
  194. Forced                                   : No

  195. Text #12
  196. ID                                       : 14
  197. Format                                   : UTF-8
  198. Codec ID                                 : S_TEXT/UTF8
  199. Codec ID/Info                            : UTF-8 Plain Text
  200. Duration                                 : 1 h 58 min
  201. Bit rate                                 : 65 b/s
  202. Count of elements                        : 1787
  203. Stream size                              : 57.0 KiB (0%)
  204. Title                                    : Português
  205. Language                                 : Portuguese
  206. Default                                  : No
  207. Forced                                   : No

  208. Text #13
  209. ID                                       : 15
  210. Format                                   : UTF-8
  211. Codec ID                                 : S_TEXT/UTF8
  212. Codec ID/Info                            : UTF-8 Plain Text
  213. Duration                                 : 1 h 58 min
  214. Bit rate                                 : 57 b/s
  215. Count of elements                        : 1772
  216. Stream size                              : 49.8 KiB (0%)
  217. Title                                    : Português (Brasil)
  218. Language                                 : Portuguese
  219. Default                                  : No
  220. Forced                                   : No

  221. Text #14
  222. ID                                       : 16
  223. Format                                   : UTF-8
  224. Codec ID                                 : S_TEXT/UTF8
  225. Codec ID/Info                            : UTF-8 Plain Text
  226. Duration                                 : 1 h 58 min
  227. Bit rate                                 : 53 b/s
  228. Count of elements                        : 1780
  229. Stream size                              : 46.9 KiB (0%)
  230. Title                                    : Svenska
  231. Language                                 : Swedish
  232. Default                                  : No
  233. Forced                                   : No
复制代码



                                       
                                       

                                       
                                       
                                       




回复

使用道具 举报

发表于 7 天前 | 显示全部楼层

这东西我收了!谢谢楼主!蓝光电影网真好!
回复 支持 1 反对 0

使用道具 举报

发表于 7 天前 | 显示全部楼层
好看好看好好看
回复 支持 1 反对 0

使用道具 举报

发表于 2021-1-14 08:57:48 | 显示全部楼层
楼主发贴辛苦了,谢谢楼主分享!我觉得蓝光电影网是注册对了!
回复 支持 反对

使用道具 举报

发表于 2021-1-14 09:21:52 | 显示全部楼层
楼主发贴辛苦了,谢谢楼主分享!我觉得蓝光电影网是注册对了!
回复 支持 反对

使用道具 举报

发表于 2021-1-14 13:55:30 | 显示全部楼层
不错,收下了。
回复 支持 反对

使用道具 举报

发表于 2021-1-14 14:54:06 | 显示全部楼层

这个帖子不回对不起自己!我想我是一天也不能离开蓝光电影网
回复 支持 反对

使用道具 举报

发表于 2021-1-14 20:43:55 | 显示全部楼层
楼主发贴辛苦了,谢谢楼主分享!我觉得蓝光电影网是注册对了!
回复 支持 反对

使用道具 举报

发表于 2021-1-14 21:25:30 | 显示全部楼层
楼主发贴辛苦了,谢谢楼主分享!我觉得蓝光电影网是注册对了!
回复 支持 反对

使用道具 举报

发表于 2021-1-14 21:52:58 | 显示全部楼层
楼主发贴辛苦了,谢谢楼主分享!我觉得蓝光电影网是注册对了!
回复 支持 反对

使用道具 举报

懒得打字嘛,点击右侧快捷回复 【右侧内容,后台自定义】
您需要登录后才可以回帖 登录 | 立即加入

本版积分规则

现在加入蓝光电影网,注册一个账号
上个主题 下个主题 快速回复 收藏帖子 返回列表 客服中心 搜索

手机版|小黑屋| 蓝光电影网 |网站地图 

Copyright © 2015-2019 Comsenz Inc.  Template by 蓝光电影论坛 All Rights Reserved.

Powered by 蓝光电影网 X3.4

特别声明:本站所有资源均由网上收集而来,版权归原影音公司所有,如果侵犯了你的权益,请通知我们,我们会及时删除侵权内容.

快速回复 返回顶部 返回列表