找回密码

蓝光电影网

查看: 1656|回复: 39
打印 上一主题 下一主题

[2160p-WEB] 致命女郎/蛇蝎美人 Fatale.2020.HDR.2160p.WEB.H265-NAISU 11.08GB

[复制链接]

 成长值: 17760

跳转到指定楼层
1#
发表于 2021-1-12 16:54:21 | 只看该作者 |只看大图 回帖奖励 |倒序浏览 |阅读模式



◎译  名 致命女郎/蛇蝎美人
◎片  名 Fatale
◎年  代 2020
◎产  地 美国
◎类  别 惊悚
◎语  言 英语
◎上映日期 2020-12-18(美国)
◎IMDb评分  4.8/10 from 957 users
◎IMDb链接  https://www.imdb.com/title/tt8829830/
◎豆瓣评分 /10 from 0 users
◎豆瓣链接 https://movie.douban.com/subject/30382374/
◎片  长 102分钟
◎导  演 德翁·泰勒 Deon Taylor
◎编  剧 戴维·朗格利 David Loughery
◎主  演 希拉里·斯万克 Hilary Swank
       迈克尔·伊雷 Michael Ealy
       迈克·柯尔特 Mike Colter
       卡莉·霍克 Kali Hawk
       丹尼·皮诺 Danny Pino
       达马里斯·刘易斯 Damaris Lewis
       萨姆·戴利 Sam Daly
       杰弗里·欧文斯 Geoffrey Owens
       大卫·霍夫林 David Hoflin
       奥克莉·布尔 Oakley Bull
       达拉斯·钱德勒 Dallas Chandler
       泰里恩·特纳 Tyrin Turner
       朱莉安娜·唐纳德 Juliana Donald
       莱克萨·格鲁克 Lexa Gluck
       丹尼丝·道丝 Denise Dowse
       凯瑞·威斯特科特 Kerry Westcott
       Ian Stanley
       Sasha Golberg
◎标  签 2020 | 美国 | 电影 | 悬疑 | 惊悚 | 四点一 | 剧情 | 其他电影
◎简  介


  影片讲述一个成功的体育经纪人达伦(迈克尔·伊雷饰),当他被卷入由一个身份存疑、不知羞耻但行为坚定的侦探(希拉里·斯万克饰)领导的警方调查中,他原本的完美生活渐渐消失……
  1. Video
  2. ID                                       : 1
  3. Format                                   : HEVC
  4. Format/Info                              : High Efficiency Video Coding
  5. Format profile                           : Main [email protected]@Main
  6. HDR format                               : SMPTE ST 2086, HDR10 compatible
  7. Codec ID                                 : V_MPEGH/ISO/HEVC
  8. Duration                                 : 1 h 42 min
  9. Bit rate                                 : 14.7 Mb/s
  10. Width                                    : 3 840 pixels
  11. Height                                   : 2 160 pixels
  12. Display aspect ratio                     : 16:9
  13. Frame rate mode                          : Constant
  14. Frame rate                               : 23.976 (24000/1001/189150) FPS
  15. Color space                              : YUV
  16. Chroma subsampling                       : 4:2:0 (Type 2)
  17. Bit depth                                : 10 bits
  18. Bits/(Pixel*Frame)                       : 0.074
  19. Stream size                              : 10.6 GiB (96%)
  20. Default                                  : Yes
  21. Forced                                   : No
  22. Color range                              : Limited
  23. Color primaries                          : BT.2020
  24. Transfer characteristics                 : PQ
  25. Matrix coefficients                      : BT.2020 non-constant
  26. Mastering display color primaries        : Display P3
  27. Mastering display luminance              : min: 0.0001 cd/m2, max: 1000 cd/m2
  28. Maximum Content Light Level              : 854 cd/m2
  29. Maximum Frame-Average Light Level        : 365 cd/m2

  30. Audio
  31. ID                                       : 2
  32. Format                                   : E-AC-3
  33. Format/Info                              : Enhanced AC-3
  34. Commercial name                          : Dolby Digital Plus
  35. Codec ID                                 : A_EAC3
  36. Duration                                 : 1 h 42 min
  37. Bit rate mode                            : Constant
  38. Bit rate                                 : 256 kb/s
  39. Channel(s)                               : 6 channels
  40. Channel layout                           : L R C LFE Ls Rs
  41. Sampling rate                            : 48.0 kHz
  42. Frame rate                               : 31.250 FPS (1536 SPF)
  43. Compression mode                         : Lossy
  44. Stream size                              : 188 MiB (2%)
  45. Language                                 : English
  46. Service kind                             : Complete Main
  47. Default                                  : Yes
  48. Forced                                   : No

  49. Text
  50. ID                                       : 3
  51. Format                                   : UTF-8
  52. Codec ID                                 : S_TEXT/UTF8
  53. Codec ID/Info                            : UTF-8 Plain Text
  54. Language                                 : English
  55. Default                                  : No
  56. Forced                                   : No
复制代码



                                       
                                       

                                       
                                       
                                       




分享到:  QQ好友和群QQ好友和群
收藏收藏1
回复

使用道具 举报

推荐
发表于 2021-1-14 11:14:31 | 只看该作者
不错不错,收下了
回复 支持 1 反对 0

使用道具 举报

推荐
发表于 2021-1-14 14:13:48 | 只看该作者
下一个测试一下。
回复 支持 1 反对 0

使用道具 举报

推荐
发表于 2021-1-13 12:09:36 | 只看该作者

既然你诚信诚意的推荐了,那我就勉为其难的看看吧!蓝光电影网不走平凡路。
回复 支持 1 反对 0

使用道具 举报

推荐
发表于 2021-1-13 12:50:21 | 只看该作者
新片啊,remux什么时候来呢
回复 支持 1 反对 0

使用道具 举报

推荐
发表于 2021-1-13 13:29:26 | 只看该作者
没看过,看一下
回复 支持 1 反对 0

使用道具 举报

推荐
发表于 2021-1-13 13:51:43 | 只看该作者
不错,收下了。
回复 支持 1 反对 0

使用道具 举报

推荐
发表于 2021-1-13 14:27:13 | 只看该作者

这东西我收了!谢谢楼主!蓝光电影网真好!
回复 支持 1 反对 0

使用道具 举报

已抛锚 成长值: 310

推荐
发表于 2021-1-13 22:32:57 | 只看该作者

这东西我收了!谢谢楼主!蓝光电影网真好!
回复 支持 1 反对 0

使用道具 举报

10#
发表于 2021-1-12 17:13:50 | 只看该作者
致命女郎
回复

使用道具 举报

11#
发表于 2021-1-12 17:16:01 | 只看该作者
谢谢楼主分享!
回复 支持 反对

使用道具 举报

12#
发表于 2021-1-12 17:47:36 | 只看该作者
谢谢楼主分享
回复 支持 反对

使用道具 举报

13#
发表于 2021-1-12 18:25:32 | 只看该作者

既然你诚信诚意的推荐了,那我就勉为其难的看看吧!蓝光电影网不走平凡路。
回复 支持 反对

使用道具 举报

14#
发表于 2021-1-12 18:46:28 | 只看该作者

楼主太厉害了!楼主,电影应该很好看我觉得蓝光电影网真是个好地方!
回复 支持 反对

使用道具 举报

15#
发表于 2021-1-12 18:52:16 | 只看该作者

这东西我收了!谢谢楼主!蓝光电影网真好!
回复 支持 反对

使用道具 举报

16#
发表于 2021-1-12 19:44:58 | 只看该作者
楼主发贴辛苦了,谢谢楼主分享!我觉得蓝光电影网是注册对了!
回复 支持 反对

使用道具 举报

17#
发表于 2021-1-12 21:16:02 | 只看该作者
致命女郎
回复

使用道具 举报

18#
发表于 2021-1-12 22:01:27 | 只看该作者
楼主发贴辛苦了,谢谢楼主分享!我觉得蓝光电影网是注册对了!
回复 支持 反对

使用道具 举报

懒得打字嘛,点击右侧快捷回复 【右侧内容,后台自定义】
您需要登录后才可以回帖 登录 | 立即加入

本版积分规则

现在加入蓝光电影网,注册一个账号
上个主题 下个主题 快速回复 收藏帖子 返回列表 客服中心 搜索

手机版|小黑屋| 蓝光电影网 |网站地图 

Copyright © 2015-2019 Comsenz Inc.  Template by 蓝光电影论坛 All Rights Reserved.

Powered by 蓝光电影网 X3.4

特别声明:本站所有资源均由网上收集而来,版权归原影音公司所有,如果侵犯了你的权益,请通知我们,我们会及时删除侵权内容.

快速回复 返回顶部 返回列表