找回密码

蓝光电影网

查看: 121|回复: 0

[10bit.SDR] 贼博士/老妇杀手团 The.Ladykillers.1955.FS.2160p.BluRay.x265.10bit.SDR.DTS-HD.MA.2.0-SWTYBLZ 35.93GB

[复制链接]

 成长值: 17745

发表于 2021-1-10 15:03:20 | 显示全部楼层 |阅读模式
贼博士/老妇杀手团 The.Ladykillers.1955.FS.2160p.BluRay.x265.10bit.SDR.DTS-HD.MA.2.0-SWTYBLZ 35.93GB-1.jpg


◎译  名 贼博士/老妇杀手团/贵妇杀手
◎片  名 The Ladykillers
◎年  代 1955
◎产  地 英国
◎类  别 喜剧 / 惊悚 / 犯罪
◎语  言 英语
◎上映日期 1955-12-01
◎IMDb评分  7.7/10 from 26201 users
◎IMDb链接  https://www.imdb.com/title/tt0048281/
◎豆瓣评分 7.6/10 from 2592 users
◎豆瓣链接 https://movie.douban.com/subject/1304710/
◎片  长 91 分钟
◎导  演 亚历山大·麦肯德里克 Alexander Mackendrick
◎编  剧 威廉·罗斯 William Rose / Jimmy O'Connor
◎主  演 亚历克·吉尼斯 Alec Guinness
       西塞尔·帕克 Cecil Parker
       赫伯特·罗姆 Herbert Lom
       彼得·塞勒斯 Peter Sellers
       凯蒂·约翰逊 Katie Johnson
       尤安·罗伯茨 Ewan Roberts
       斯特拉特福德·约翰斯 Stratford Johns
       Jack Melford
       Arthur Mullard
       尼尔·威尔森 Neil Wilson
       Peter Williams
       菲利普·斯坦顿 Philip Stainton
       山姆·基德 Sam Kydd
       弗雷德·格里菲思 Fred Griffiths
       伊迪·马丁 Edie Martin
       Danny Green
       弗兰基·豪尔德 Frankie Howerd
       杰克·华纳 Jack Warner
       Kenneth Connor
       Hélène Burls
       Vincent Holman
       Harold Goodwin
◎标  签 英国 | 喜剧 | 犯罪 | 黑色幽默 | 英国电影 | 1950s | 1955 | AlexanderMackendrick
◎简  介


  怀博菲丝太太在警察局自称见到不明飞行物被警察赶了出去。
  
  一个乐队跑去了怀博菲丝太太的住所,他们希望能借住在这里创造一首新歌。其实他们正计划抢劫运钞车,他们在怀博菲丝太太的公寓筹备着整个计划,而怀博菲丝太太还蒙在鼓里。
  
  当他们成功的抢劫了运钞车之后,事情也终于让怀博菲丝太太发现了,他们决定将怀博菲丝太太杀掉一了百了,但他们却都因为不同的原因相继死去。
  
  老太太去警察局报案,警察却因为之前的“不明飞行物事件”完全否定怀博菲丝太太的说法,最后那笔钱全成了老太太一个人的。
  
  讲述一群智商不高的盗贼想不到会栽在一个小老太太手里。居住在伦敦的怀博菲丝太太到警察局自称见到不明飞行物,被警察赶了出去。一个乐队来到菲丝太太的住所租房子,说要在这里搞创作。其实他们是一伙窃贼,正计划抢劫运钞车,要在菲丝太太的公寓做准备,而她还蒙在鼓里。当他们抢劫成功后,菲丝太太也终于发现了真相,于是他们决定将菲丝太太灭口,然而这个老太太似乎不是看上去那么好对付,窃贼们全都因为不同的原因相继死去。老太太去警局报案,警察却因为之前的“不明飞行物事件”完全否定菲丝太太的说法,最后那笔钱全成了老太太一个人的。
◎获奖情况
  第29届奥斯卡金像奖 ?(1957)
  最佳原创剧本(提名) 威廉·罗斯
  1. Video
  2. ID                                       : 1
  3. Format                                   : HEVC
  4. Format/Info                              : High Efficiency Video Coding
  5. Format profile                           : Main [email protected]@High
  6. Codec ID                                 : V_MPEGH/ISO/HEVC
  7. Duration                                 : 1 h 30 min
  8. Bit rate                                 : 54.2 Mb/s
  9. Width                                    : 3 600 pixels
  10. Height                                   : 2 160 pixels
  11. Display aspect ratio                     : 5:3
  12. Frame rate mode                          : Constant
  13. Frame rate                               : 24.000 FPS
  14. Color space                              : YUV
  15. Chroma subsampling                       : 4:2:0
  16. Bit depth                                : 10 bits
  17. Bits/(Pixel*Frame)                       : 0.290
  18. Stream size                              : 34.3 GiB (96%)
  19. Writing library                          : x265 3.0ed72af837053:[Windows][GCC 8.2.0][64 bit] 10bit
  20. Encoding settings                        : cpuid=1111039 / frame-threads=6 / numa-pools=40 / wpp / no-pmode / no-pme / no-psnr / no-ssim / log-level=2 / input-csp=1 / input-res=3600x2160 / interlace=0 / total-frames=130599 / level-idc=51 / high-tier=1 / uhd-bd=0 / ref=3 / no-allow-non-conformance / repeat-headers / annexb / aud / hrd / info / hash=0 / no-temporal-layers / no-open-gop / min-keyint=1 / keyint=24 / gop-lookahead=0 / bframes=4 / b-adapt=2 / b-pyramid / bframe-bias=0 / rc-lookahead=25 / lookahead-slices=4 / scenecut=40 / radl=0 / no-splice / no-intra-refresh / ctu=64 / min-cu-size=8 / no-rect / no-amp / max-tu-size=32 / tu-inter-depth=1 / tu-intra-depth=1 / limit-tu=0 / rdoq-level=0 / dynamic-rd=0.00 / no-ssim-rd / signhide / no-tskip / nr-intra=0 / nr-inter=0 / no-constrained-intra / strong-intra-smoothing / max-merge=2 / limit-refs=3 / no-limit-modes / me=1 / subme=2 / merange=57 / temporal-mvp / weightp / no-weightb / no-analyze-src-pics / deblock=0:0 / no-sao / no-sao-non-deblock / rd=3 / no-early-skip / rskip / no-fast-intra / no-tskip-fast / no-cu-lossless / no-b-intra / no-splitrd-skip / rdpenalty=0 / psy-rd=2.00 / psy-rdoq=0.00 / no-rd-refine / no-lossless / cbqpoffs=0 / crqpoffs=0 / rc=crf / crf=20.0 / qcomp=0.60 / qpstep=4 / stats-write=0 / stats-read=0 / vbv-maxrate=160000 / vbv-bufsize=160000 / vbv-init=0.9 / crf-max=0.0 / crf-min=0.0 / ipratio=1.40 / pbratio=1.30 / aq-mode=1 / aq-strength=1.00 / cutree / zone-count=0 / no-strict-cbr / qg-size=32 / no-rc-grain / qpmax=69 / qpmin=0 / no-const-vbv / sar=1 / overscan=0 / videoformat=5 / range=0 / colorprim=2 / transfer=2 / colormatrix=2 / chromaloc=0 / display-window=0 / max-cll=0,0 / min-luma=0 / max-luma=1023 / log2-max-poc-lsb=8 / vui-timing-info / vui-hrd-info / slices=1 / opt-qp-pps / opt-ref-list-length-pps / no-multi-pass-opt-rps / scenecut-bias=0.05 / no-opt-cu-delta-qp / no-aq-motion / no-hdr / no-hdr-opt / no-dhdr10-opt / no-idr-recovery-sei / analysis-reuse-level=5 / scale-factor=0 / refine-intra=0 / refine-inter=0 / refine-mv=0 / refine-ctu-distortion=0 / no-limit-sao / ctu-info=0 / no-lowpass-dct / refine-analysis-type=0 / copy-pic=1 / max-ausize-factor=1.0 / no-dynamic-refine / no-single-sei / no-hevc-aq / qp-adaptation-range=1.00
  21. Default                                  : Yes
  22. Forced                                   : No
  23. Audio #1
  24. ID                                       : 2
  25. Format                                   : DTS XLL
  26. Format/Info                              : Digital Theater Systems
  27. Commercial name                          : DTS-HD Master Audio
  28. Codec ID                                 : A_DTS
  29. Duration                                 : 1 h 30 min
  30. Bit rate mode                            : Variable
  31. Bit rate                                 : 1 489 kb/s
  32. Channel(s)                               : 2 channels
  33. Channel layout                           : L R
  34. Sampling rate                            : 48.0 kHz
  35. Frame rate                               : 93.750 FPS (512 SPF)
  36. Bit depth                                : 24 bits
  37. Compression mode                         : Lossless
  38. Stream size                              : 966 MiB (3%)
  39. Title                                    : DTS-HD MA 2.0
  40. Language                                 : English
  41. Default                                  : Yes
  42. Forced                                   : No
  43. Audio #2
  44. ID                                       : 3
  45. Format                                   : AC-3
  46. Format/Info                              : Audio Coding 3
  47. Commercial name                          : Dolby Digital
  48. Codec ID                                 : A_AC3
  49. Duration                                 : 1 h 30 min
  50. Bit rate mode                            : Constant
  51. Bit rate                                 : 640 kb/s
  52. Channel(s)                               : 2 channels
  53. Channel layout                           : L R
  54. Sampling rate                            : 48.0 kHz
  55. Frame rate                               : 31.250 FPS (1536 SPF)
  56. Compression mode                         : Lossy
  57. Stream size                              : 415 MiB (1%)
  58. Title                                    : DD 2.0
  59. Language                                 : English
  60. Service kind                             : Complete Main
  61. Default                                  : No
  62. Forced                                   : No
  63. Text #1
  64. ID                                       : 4
  65. Format                                   : UTF-8
  66. Codec ID                                 : S_TEXT/UTF8
  67. Codec ID/Info                            : UTF-8 Plain Text
  68. Duration                                 : 1 h 28 min
  69. Bit rate                                 : 63 b/s
  70. Count of elements                        : 1092
  71. Stream size                              : 40.8 KiB (0%)
  72. Title                                    : English-SRT
  73. Language                                 : English
  74. Default                                  : Yes
  75. Forced                                   : No
  76. Text #2
  77. ID                                       : 5
  78. Format                                   : PGS
  79. Muxing mode                              : zlib
  80. Codec ID                                 : S_HDMV/PGS
  81. Codec ID/Info                            : Picture based subtitle format used on BDs/HD-DVDs
  82. Duration                                 : 1 h 28 min
  83. Bit rate                                 : 41.0 kb/s
  84. Count of elements                        : 2346
  85. Stream size                              : 25.9 MiB (0%)
  86. Title                                    : English-PGS
  87. Language                                 : English
  88. Default                                  : No
  89. Forced                                   : No
  90. Text #3
  91. ID                                       : 6
  92. Format                                   : PGS
  93. Muxing mode                              : zlib
  94. Codec ID                                 : S_HDMV/PGS
  95. Codec ID/Info                            : Picture based subtitle format used on BDs/HD-DVDs
  96. Duration                                 : 1 h 30 min
  97. Bit rate                                 : 61.1 kb/s
  98. Count of elements                        : 3192
  99. Stream size                              : 39.3 MiB (0%)
  100. Title                                    : English-SDH-PGS
  101. Language                                 : English
  102. Default                                  : No
  103. Forced                                   : No
  104. Menu
  105. 00:00:00.000                             : :Chapter 01
  106. 00:08:00.208                             : :Chapter 02
  107. 00:18:14.375                             : :Chapter 03
  108. 00:25:27.333                             : :Chapter 04
  109. 00:31:47.458                             : :Chapter 05
  110. 00:38:20.292                             : :Chapter 06
  111. 00:45:58.958                             : :Chapter 07
  112. 00:52:51.250                             : :Chapter 08
  113. 01:04:29.667                             : :Chapter 09
  114. 01:10:36.500                             : :Chapter 10
  115. 01:18:22.750                             : :Chapter 11
  116. 01:27:37.083                             : :Chapter 12
复制代码



                                       
                                       

                                       
                                       
                                       




回复

使用道具 举报

懒得打字嘛,点击右侧快捷回复 【右侧内容,后台自定义】
您需要登录后才可以回帖 登录 | 立即加入

本版积分规则

现在加入蓝光电影网,注册一个账号
上个主题 下个主题 快速回复 收藏帖子 返回列表 客服中心 搜索

手机版|小黑屋| 蓝光电影网 |网站地图 

Copyright © 2015-2019 Comsenz Inc.  Template by 蓝光电影论坛 All Rights Reserved.

Powered by 蓝光电影网 X3.4

特别声明:本站所有资源均由网上收集而来,版权归原影音公司所有,如果侵犯了你的权益,请通知我们,我们会及时删除侵权内容.

快速回复 返回顶部 返回列表