找回密码

蓝光电影网

查看: 501|回复: 9

[2160p-WEB] 《海豚礁》幕后特辑 Diving.With.Dolphins.2020.2160p.DSNP.WEBRip.x265.10bit.HDR.DDP5.1-MZABI 6.54GB

[复制链接]

 成长值: 17820

发表于 2021-1-7 12:30:44 | 显示全部楼层 |阅读模式
《海豚礁》幕后特辑 Diving.With.Dolphins.2020.2160p.DSNP.WEBRip.x265.10bit.HDR.DDP5.1-MZABI 6.54GB-1.jpg


◎译  名 《海豚礁》幕后特辑
◎片  名 Diving with Dolphins
◎年  代 2020
◎产  地 美国
◎类  别 
◎语  言 英语
◎上映日期 2020-04-03(美国)
◎IMDb评分  7.3/10 from 75 users
◎IMDb链接  https://www.imdb.com/title/tt12100080/
◎豆瓣评分 /10 from 0 users
◎豆瓣链接 https://movie.douban.com/subject/35064763/
◎片  长 79分钟
◎导  演 基思·肖利 Keith Scholey
◎编  剧 David Fowler / 基思·肖利 Keith Scholey
◎简  介


  Chronicles the making of Dolphin Reef (2020). From wave surfing with dolphins in South Africa to dancing with humpback whales in Hawaii, filmmakers go to great lengths - and depths - to shed new light on the ocean's mysteries.
  1. Video
  2. ID                                       : 1
  3. Format                                   : HEVC
  4. Format/Info                              : High Efficiency Video Coding
  5. Format profile                           : Main [email protected]@High
  6. HDR format                               : SMPTE ST 2086, HDR10 compatible
  7. Codec ID                                 : V_MPEGH/ISO/HEVC
  8. Duration                                 : 55 min 3 s
  9. Bit rate                                 : 16.6 Mb/s
  10. Width                                    : 3 840 pixels
  11. Height                                   : 2 160 pixels
  12. Display aspect ratio                     : 16:9
  13. Frame rate mode                          : Constant
  14. Frame rate                               : 23.976 (24000/1001/189150) FPS
  15. Color space                              : YUV
  16. Chroma subsampling                       : 4:2:0
  17. Bit depth                                : 10 bits
  18. Bits/(Pixel*Frame)                       : 0.084
  19. Stream size                              : 6.40 GiB (98%)
  20. Default                                  : Yes
  21. Forced                                   : No
  22. Color range                              : Limited
  23. Color primaries                          : BT.2020
  24. Transfer characteristics                 : PQ
  25. Matrix coefficients                      : BT.2020 non-constant
  26. Mastering display color primaries        : Display P3
  27. Mastering display luminance              : min: 0.0010 cd/m2, max: 1000 cd/m2
  28. Audio
  29. ID                                       : 2
  30. Format                                   : E-AC-3
  31. Format/Info                              : Enhanced AC-3
  32. Commercial name                          : Dolby Digital Plus
  33. Codec ID                                 : A_EAC3
  34. Duration                                 : 1 h 17 min
  35. Bit rate mode                            : Constant
  36. Bit rate                                 : 256 kb/s
  37. Channel(s)                               : 6 channels
  38. Channel layout                           : L R C LFE Ls Rs
  39. Sampling rate                            : 48.0 kHz
  40. Frame rate                               : 31.250 FPS (1536 SPF)
  41. Compression mode                         : Lossy
  42. Stream size                              : 143 MiB (2%)
  43. Title                                    : English
  44. Language                                 : English
  45. Service kind                             : Complete Main
  46. Default                                  : No
  47. Forced                                   : No
  48. Text #1
  49. ID                                       : 3
  50. Format                                   : UTF-8
  51. Codec ID                                 : S_TEXT/UTF8
  52. Codec ID/Info                            : UTF-8 Plain Text
  53. Duration                                 : 1 h 17 min
  54. Bit rate                                 : 79 b/s
  55. Count of elements                        : 1027
  56. Stream size                              : 44.8 KiB (0%)
  57. Title                                    : French
  58. Language                                 : French
  59. Default                                  : No
  60. Forced                                   : No
  61. Text #2
  62. ID                                       : 4
  63. Format                                   : UTF-8
  64. Codec ID                                 : S_TEXT/UTF8
  65. Codec ID/Info                            : UTF-8 Plain Text
  66. Duration                                 : 1 h 17 min
  67. Bit rate                                 : 77 b/s
  68. Count of elements                        : 1061
  69. Stream size                              : 43.8 KiB (0%)
  70. Title                                    : European Spanish
  71. Language                                 : Spanish
  72. Default                                  : No
  73. Forced                                   : No
  74. Text #3
  75. ID                                       : 5
  76. Format                                   : UTF-8
  77. Codec ID                                 : S_TEXT/UTF8
  78. Codec ID/Info                            : UTF-8 Plain Text
  79. Duration                                 : 1 h 17 min
  80. Bit rate                                 : 74 b/s
  81. Count of elements                        : 1053
  82. Stream size                              : 42.4 KiB (0%)
  83. Title                                    : Swedish
  84. Language                                 : Swedish
  85. Default                                  : No
  86. Forced                                   : No
  87. Text #4
  88. ID                                       : 6
  89. Format                                   : UTF-8
  90. Codec ID                                 : S_TEXT/UTF8
  91. Codec ID/Info                            : UTF-8 Plain Text
  92. Duration                                 : 1 h 17 min
  93. Bit rate                                 : 66 b/s
  94. Count of elements                        : 1048
  95. Stream size                              : 37.8 KiB (0%)
  96. Title                                    : Norwegian
  97. Language                                 : Norwegian
  98. Default                                  : No
  99. Forced                                   : No
  100. Text #5
  101. ID                                       : 7
  102. Format                                   : UTF-8
  103. Codec ID                                 : S_TEXT/UTF8
  104. Codec ID/Info                            : UTF-8 Plain Text
  105. Duration                                 : 1 h 15 min
  106. Bit rate                                 : 75 b/s
  107. Count of elements                        : 1030
  108. Stream size                              : 41.9 KiB (0%)
  109. Title                                    : Italian
  110. Language                                 : Italian
  111. Default                                  : No
  112. Forced                                   : No
  113. Text #6
  114. ID                                       : 8
  115. Format                                   : UTF-8
  116. Codec ID                                 : S_TEXT/UTF8
  117. Codec ID/Info                            : UTF-8 Plain Text
  118. Duration                                 : 1 h 15 min
  119. Bit rate                                 : 84 b/s
  120. Count of elements                        : 1034
  121. Stream size                              : 46.6 KiB (0%)
  122. Title                                    : English
  123. Language                                 : English
  124. Default                                  : No
  125. Forced                                   : No
  126. Text #7
  127. ID                                       : 9
  128. Format                                   : UTF-8
  129. Codec ID                                 : S_TEXT/UTF8
  130. Codec ID/Info                            : UTF-8 Plain Text
  131. Duration                                 : 1 h 17 min
  132. Bit rate                                 : 77 b/s
  133. Count of elements                        : 1045
  134. Stream size                              : 43.8 KiB (0%)
  135. Title                                    : Polish
  136. Language                                 : Polish
  137. Default                                  : No
  138. Forced                                   : No
  139. Text #8
  140. ID                                       : 10
  141. Format                                   : UTF-8
  142. Codec ID                                 : S_TEXT/UTF8
  143. Codec ID/Info                            : UTF-8 Plain Text
  144. Duration                                 : 1 h 17 min
  145. Bit rate                                 : 82 b/s
  146. Count of elements                        : 1069
  147. Stream size                              : 46.8 KiB (0%)
  148. Title                                    : Spanish
  149. Language                                 : Spanish
  150. Default                                  : No
  151. Forced                                   : No
  152. Text #9
  153. ID                                       : 11
  154. Format                                   : UTF-8
  155. Codec ID                                 : S_TEXT/UTF8
  156. Codec ID/Info                            : UTF-8 Plain Text
  157. Duration                                 : 1 h 17 min
  158. Bit rate                                 : 73 b/s
  159. Count of elements                        : 1023
  160. Stream size                              : 41.7 KiB (0%)
  161. Title                                    : Finnish
  162. Language                                 : Finnish
  163. Default                                  : No
  164. Forced                                   : No
  165. Text #10
  166. ID                                       : 12
  167. Format                                   : UTF-8
  168. Codec ID                                 : S_TEXT/UTF8
  169. Codec ID/Info                            : UTF-8 Plain Text
  170. Duration                                 : 1 h 15 min
  171. Bit rate                                 : 85 b/s
  172. Count of elements                        : 1063
  173. Stream size                              : 47.7 KiB (0%)
  174. Title                                    : English [SDH]
  175. Language                                 : English
  176. Default                                  : No
  177. Forced                                   : No
  178. Text #11
  179. ID                                       : 13
  180. Format                                   : UTF-8
  181. Codec ID                                 : S_TEXT/UTF8
  182. Codec ID/Info                            : UTF-8 Plain Text
  183. Duration                                 : 1 h 15 min
  184. Bit rate                                 : 74 b/s
  185. Count of elements                        : 1044
  186. Stream size                              : 41.2 KiB (0%)
  187. Title                                    : Danish
  188. Language                                 : Danish
  189. Default                                  : No
  190. Forced                                   : No
  191. Text #12
  192. ID                                       : 14
  193. Format                                   : UTF-8
  194. Codec ID                                 : S_TEXT/UTF8
  195. Codec ID/Info                            : UTF-8 Plain Text
  196. Duration                                 : 1 h 17 min
  197. Bit rate                                 : 80 b/s
  198. Count of elements                        : 1053
  199. Stream size                              : 45.3 KiB (0%)
  200. Title                                    : German
  201. Language                                 : German
  202. Default                                  : No
  203. Forced                                   : No
  204. Text #13
  205. ID                                       : 15
  206. Format                                   : UTF-8
  207. Codec ID                                 : S_TEXT/UTF8
  208. Codec ID/Info                            : UTF-8 Plain Text
  209. Duration                                 : 1 h 17 min
  210. Bit rate                                 : 75 b/s
  211. Count of elements                        : 922
  212. Stream size                              : 42.8 KiB (0%)
  213. Title                                    : Dutch
  214. Language                                 : Dutch
  215. Default                                  : No
  216. Forced                                   : No
  217. Text #14
  218. ID                                       : 16
  219. Format                                   : UTF-8
  220. Codec ID                                 : S_TEXT/UTF8
  221. Codec ID/Info                            : UTF-8 Plain Text
  222. Duration                                 : 1 h 17 min
  223. Bit rate                                 : 76 b/s
  224. Count of elements                        : 1035
  225. Stream size                              : 43.4 KiB (0%)
  226. Title                                    : Portuguese
  227. Language                                 : Portuguese
  228. Default                                  : No
  229. Forced                                   : No
  230. Text #15
  231. ID                                       : 17
  232. Format                                   : UTF-8
  233. Codec ID                                 : S_TEXT/UTF8
  234. Codec ID/Info                            : UTF-8 Plain Text
  235. Duration                                 : 1 h 17 min
  236. Bit rate                                 : 79 b/s
  237. Count of elements                        : 1059
  238. Stream size                              : 44.8 KiB (0%)
  239. Title                                    : Brazilian Portuguese
  240. Language                                 : Portuguese
  241. Default                                  : No
  242. Forced                                   : No
复制代码



                                       
                                       

                                       
                                       
                                       




回复

使用道具 举报

发表于 2021-1-7 15:18:06 | 显示全部楼层

我看不错噢 谢谢楼主!蓝光电影网越来越好!
回复 支持 反对

使用道具 举报

 成长值: 6805

发表于 2021-1-7 18:19:37 | 显示全部楼层
太好啦&萬分感謝版主的無私發佈分享%
回复 支持 反对

使用道具 举报

发表于 2021-1-7 21:09:04 | 显示全部楼层
楼主发贴辛苦了,谢谢楼主分享!我觉得蓝光电影网是注册对了!
回复 支持 反对

使用道具 举报

发表于 2021-1-8 08:27:34 | 显示全部楼层
楼主发贴辛苦了,谢谢楼主分享!我觉得蓝光电影网是注册对了!
回复 支持 反对

使用道具 举报

发表于 2021-1-8 08:54:13 | 显示全部楼层

既然你诚信诚意的推荐了,那我就勉为其难的看看吧!蓝光电影网不走平凡路。
回复 支持 反对

使用道具 举报

发表于 2021-1-8 13:04:12 | 显示全部楼层
纪录片不错,喜欢这种类型的
回复 支持 反对

使用道具 举报

发表于 2021-1-9 23:25:32 | 显示全部楼层
这个挺好,感谢分享!
回复 支持 反对

使用道具 举报

发表于 2021-1-11 11:43:38 | 显示全部楼层
谢谢楼主分享
回复 支持 反对

使用道具 举报

发表于 2021-1-12 13:06:01 | 显示全部楼层
楼主发贴辛苦了,谢谢楼主分享!我觉得蓝光电影网是注册对了!
回复 支持 反对

使用道具 举报

懒得打字嘛,点击右侧快捷回复 【右侧内容,后台自定义】
您需要登录后才可以回帖 登录 | 立即加入

本版积分规则

现在加入蓝光电影网,注册一个账号
上个主题 下个主题 快速回复 收藏帖子 返回列表 客服中心 搜索

手机版|小黑屋| 蓝光电影网 |网站地图 

Copyright © 2015-2019 Comsenz Inc.  Template by 蓝光电影论坛 All Rights Reserved.

Powered by 蓝光电影网 X3.4

特别声明:本站所有资源均由网上收集而来,版权归原影音公司所有,如果侵犯了你的权益,请通知我们,我们会及时删除侵权内容.

快速回复 返回顶部 返回列表