找回密码

蓝光电影网

查看: 398|回复: 10

[REMUX.HEVC] 爱与怪物 Love.and.Monsters.2020.2160p.BluRay.REMUX.HEVC.DTS-HD.MA.7.1-FGT 51.12GB

[复制链接]

 成长值: 17745

发表于 2021-1-4 19:45:37 | 显示全部楼层 |阅读模式
爱与怪物 Love.and.Monsters.2020.2160p.BluRay.REMUX.HEVC.DTS-HD.MA.7.1-FGT 51.12GB-1.jpg

◎译  名 爱与怪物/Monster Problems/怪物问题
◎片  名 Love and Monsters
◎年  代 2020
◎产  地 美国
◎类  别 冒险
◎语  言 英语
◎上映日期 2020-10-16(美国)
◎IMDb评分  7/10 from 25786 users
◎IMDb链接  https://www.imdb.com/title/tt2222042/
◎豆瓣评分 7.2/10 from 17062 users
◎豆瓣链接 https://movie.douban.com/subject/21349338/
◎片  长 109分钟
◎导  演 迈克尔·马修斯 Michael Matthews
◎编  剧 布莱恩·达菲尔德 Brian Duffield / 马修·罗宾逊 Matthew Robinson
◎主  演 迪伦·奥布莱恩 Dylan O'Brien
       杰西卡·亨维克 Jessica Henwick
       迈克尔·鲁克 Michael Rooker
       丹尼尔·尤因 Daniel Ewing
       阿丽亚娜·格林布拉特 Ariana Greenblatt
       艾伦·霍尔曼 Ellen Hollman
       特雷·黑尔 Tre Hale
       帕卡罗·姆泽贝 Pacharo Mzembe
       西尼·普里蒂 Senie Priti
       阿玛莉·沃德 Amali Ward
       特克赫·图哈卡 Te Kohe Tuhaka
       塔斯尼姆·罗克 Tasneem Roc
       托马斯·坎贝尔 Thomas Campbell
       乔尔·皮尔斯 Joel Pierce
       梅拉妮·萨内蒂 Melanie Zanetti
       布鲁斯·斯宾斯 Bruce Spence
       米莉亚玛·史密斯 Miriama Smith
       安德鲁·布坎南 Andrew Buchanan
       坦蒂·莱特 Tandi Wright
       达米安·加维 Damien Garvey
       西罗 Hero
       道奇 Dodge
       拉里·塞达尔 Larry Cedar
◎标  签 怪物 | 冒险 | 科幻 | 奇幻 | 美国 | 2020 | 喜剧 | 爱情
◎简  介


  故事的背景设定在一个大部分人类已经死亡的末日世界中,主宰着这个世界里的生杀大权的,是那些变异了的冷血动物。仅剩的人类为了求生被迫迁入地下堡垒中,终日生活在胆战心惊里。
  
  乔伊(迪伦·奥布莱恩 Dylan O'Brien 饰)在七年前的大灾难里同女友艾米(杰西卡·亨维克 Jessica Henwick 饰)走散,如今他们身居两个不同的地堡中,靠着无线电联系。一天,无比思念艾米的乔伊决定踏出安全区,重返地上世界,独自徒步前往艾米所在的营地,一路上他遇见了无数的危险,同时也遇见了良师益友克莱德(迈克尔·鲁克 Michael Rooker 饰)和米诺(阿丽亚娜·格林布拉特 Ariana Greenblatt 饰)。性格懦弱胆小的乔伊能够活着见到艾米吗?
  1. Video
  2. ID                                       : 1
  3. ID in the original source medium         : 4113 (0x1011)
  4. Format                                   : HEVC
  5. Format/Info                              : High Efficiency Video Coding
  6. Format profile                           : Main [email protected]@High
  7. HDR format                               : SMPTE ST 2086, HDR10 compatible
  8. Codec ID                                 : V_MPEGH/ISO/HEVC
  9. Duration                                 : 1 h 48 min
  10. Bit rate                                 : 61.5 Mb/s
  11. Width                                    : 3 840 pixels
  12. Height                                   : 2 160 pixels
  13. Display aspect ratio                     : 16:9
  14. Frame rate mode                          : Constant
  15. Frame rate                               : 23.976 (24000/1001/189150) FPS
  16. Color space                              : YUV
  17. Chroma subsampling                       : 4:2:0 (Type 2)
  18. Bit depth                                : 10 bits
  19. Bits/(Pixel*Frame)                       : 0.309
  20. Stream size                              : 46.7 GiB (91%)
  21. Language                                 : English
  22. Default                                  : No
  23. Forced                                   : No
  24. Color range                              : Limited
  25. Color primaries                          : BT.2020
  26. Transfer characteristics                 : PQ
  27. Matrix coefficients                      : BT.2020 non-constant
  28. Mastering display color primaries        : Display P3
  29. Mastering display luminance              : min: 0.0050 cd/m2, max: 4000 cd/m2
  30. Maximum Content Light Level              : 1000 cd/m2
  31. Maximum Frame-Average Light Level        : 520 cd/m2
  32. Original source medium                   : Blu-ray
  33. Audio #1
  34. ID                                       : 2
  35. ID in the original source medium         : 4352 (0x1100)
  36. Format                                   : DTS XLL
  37. Format/Info                              : Digital Theater Systems
  38. Commercial name                          : DTS-HD Master Audio
  39. Codec ID                                 : A_DTS
  40. Duration                                 : 1 h 48 min
  41. Bit rate mode                            : Variable
  42. Bit rate                                 : 4 413 kb/s
  43. Channel(s)                               : 8 channels
  44. Channel layout                           : C L R LFE Lb Rb Lss Rss
  45. Sampling rate                            : 48.0 kHz
  46. Frame rate                               : 93.750 FPS (512 SPF)
  47. Bit depth                                : 24 bits
  48. Compression mode                         : Lossless
  49. Stream size                              : 3.36 GiB (7%)
  50. Title                                    : DTS-HD MA 7.1
  51. Language                                 : English
  52. Default                                  : Yes
  53. Forced                                   : No
  54. Original source medium                   : Blu-ray
  55. Audio #2
  56. ID                                       : 3
  57. Format                                   : AC-3
  58. Format/Info                              : Audio Coding 3
  59. Commercial name                          : Dolby Digital
  60. Codec ID                                 : A_AC3
  61. Duration                                 : 1 h 48 min
  62. Bit rate mode                            : Constant
  63. Bit rate                                 : 640 kb/s
  64. Channel(s)                               : 6 channels
  65. Channel layout                           : L R C LFE Ls Rs
  66. Sampling rate                            : 48.0 kHz
  67. Frame rate                               : 31.250 FPS (1536 SPF)
  68. Compression mode                         : Lossy
  69. Stream size                              : 498 MiB (1%)
  70. Title                                    : DD 5.1
  71. Language                                 : English
  72. Service kind                             : Complete Main
  73. Default                                  : No
  74. Forced                                   : No
  75. Audio #3
  76. ID                                       : 4
  77. ID in the original source medium         : 4353 (0x1101)
  78. Format                                   : AC-3
  79. Format/Info                              : Audio Coding 3
  80. Commercial name                          : Dolby Digital
  81. Codec ID                                 : A_AC3
  82. Duration                                 : 1 h 48 min
  83. Bit rate mode                            : Constant
  84. Bit rate                                 : 640 kb/s
  85. Channel(s)                               : 6 channels
  86. Channel layout                           : L R C LFE Ls Rs
  87. Sampling rate                            : 48.0 kHz
  88. Frame rate                               : 31.250 FPS (1536 SPF)
  89. Compression mode                         : Lossy
  90. Stream size                              : 498 MiB (1%)
  91. Title                                    : DD 5.1
  92. Language                                 : English
  93. Service kind                             : Complete Main
  94. Default                                  : No
  95. Forced                                   : No
  96. Original source medium                   : Blu-ray
  97. Text #1
  98. ID                                       : 5
  99. Format                                   : UTF-8
  100. Codec ID                                 : S_TEXT/UTF8
  101. Codec ID/Info                            : UTF-8 Plain Text
  102. Duration                                 : 1 h 41 min
  103. Bit rate                                 : 60 b/s
  104. Count of elements                        : 1402
  105. Stream size                              : 45.2 KiB (0%)
  106. Title                                    : English-SRT
  107. Language                                 : English
  108. Default                                  : Yes
  109. Forced                                   : No
  110. Text #2
  111. ID                                       : 6
  112. ID in the original source medium         : 4768 (0x12A0)
  113. Format                                   : PGS
  114. Muxing mode                              : zlib
  115. Codec ID                                 : S_HDMV/PGS
  116. Codec ID/Info                            : Picture based subtitle format used on BDs/HD-DVDs
  117. Duration                                 : 1 h 41 min
  118. Bit rate                                 : 41.7 kb/s
  119. Count of elements                        : 2812
  120. Stream size                              : 30.3 MiB (0%)
  121. Title                                    : English-PGS
  122. Language                                 : English
  123. Default                                  : No
  124. Forced                                   : No
  125. Original source medium                   : Blu-ray
  126. Text #3
  127. ID                                       : 7
  128. ID in the original source medium         : 4769 (0x12A1)
  129. Format                                   : PGS
  130. Muxing mode                              : zlib
  131. Codec ID                                 : S_HDMV/PGS
  132. Codec ID/Info                            : Picture based subtitle format used on BDs/HD-DVDs
  133. Duration                                 : 1 h 42 min
  134. Bit rate                                 : 49.9 kb/s
  135. Count of elements                        : 3374
  136. Stream size                              : 36.8 MiB (0%)
  137. Title                                    : English-SDH-PGS
  138. Language                                 : English
  139. Default                                  : No
  140. Forced                                   : No
  141. Original source medium                   : Blu-ray
  142. Text #4
  143. ID                                       : 8
  144. ID in the original source medium         : 4770 (0x12A2)
  145. Format                                   : PGS
  146. Muxing mode                              : zlib
  147. Codec ID                                 : S_HDMV/PGS
  148. Codec ID/Info                            : Picture based subtitle format used on BDs/HD-DVDs
  149. Duration                                 : 1 h 47 min
  150. Bit rate                                 : 38.5 kb/s
  151. Count of elements                        : 2830
  152. Stream size                              : 29.7 MiB (0%)
  153. Title                                    : Spanish-PGS
  154. Language                                 : Spanish
  155. Default                                  : No
  156. Forced                                   : No
  157. Original source medium                   : Blu-ray
  158. Menu
  159. 00:00:00.000                             : en:Chapter 01
  160. 00:10:19.368                             : en:Chapter 02
  161. 00:20:14.129                             : en:Chapter 03
  162. 00:28:48.643                             : en:Chapter 04
  163. 00:34:54.675                             : en:Chapter 05
  164. 00:41:15.264                             : en:Chapter 06
  165. 00:50:20.976                             : en:Chapter 07
  166. 00:54:56.293                             : en:Chapter 08
  167. 01:04:05.633                             : en:Chapter 09
  168. 01:13:02.669                             : en:Chapter 10
  169. 01:20:52.264                             : en:Chapter 11
  170. 01:27:57.021                             : en:Chapter 12
  171. 01:36:45.466                             : en:Chapter 13
  172. 01:42:38.944                             : en:Chapter 14
复制代码



                                       
                                       

                                       
                                       
                                       




回复

使用道具 举报

发表于 2021-1-4 21:47:26 | 显示全部楼层
楼主发贴辛苦了,谢谢楼主分享!我觉得蓝光电影网是注册对了!
回复 支持 反对

使用道具 举报

发表于 2021-1-5 09:03:39 | 显示全部楼层

楼主太厉害了!楼主,电影应该很好看我觉得蓝光电影网真是个好地方!
回复 支持 反对

使用道具 举报

发表于 2021-1-5 09:11:34 | 显示全部楼层
楼主发贴辛苦了,谢谢楼主分享!我觉得蓝光电影网是注册对了!
回复 支持 反对

使用道具 举报

发表于 2021-1-5 09:33:36 | 显示全部楼层
楼主发贴辛苦了,谢谢楼主分享!我觉得蓝光电影网是注册对了!
回复 支持 反对

使用道具 举报

 成长值: 6415

发表于 2021-1-5 15:08:12 | 显示全部楼层
谢谢楼主无私分享。
回复 支持 反对

使用道具 举报

发表于 2021-1-5 19:04:16 | 显示全部楼层
楼主发贴辛苦了,谢谢楼主分享!我觉得蓝光电影网是注册对了!
回复 支持 反对

使用道具 举报

发表于 2021-1-5 23:07:41 | 显示全部楼层

楼主太厉害了!楼主,电影应该很好看我觉得蓝光电影网真是个好地方!
回复 支持 反对

使用道具 举报

发表于 2021-1-6 18:26:33 | 显示全部楼层
这个片子的4K出来的好快啊,感谢
回复 支持 反对

使用道具 举报

发表于 2021-1-8 08:10:24 | 显示全部楼层

楼主太厉害了!楼主,电影应该很好看我觉得蓝光电影网真是个好地方!
回复 支持 反对

使用道具 举报

懒得打字嘛,点击右侧快捷回复 【右侧内容,后台自定义】
您需要登录后才可以回帖 登录 | 立即加入

本版积分规则

现在加入蓝光电影网,注册一个账号
上个主题 下个主题 快速回复 收藏帖子 返回列表 客服中心 搜索

手机版|小黑屋| 蓝光电影网 |网站地图 

Copyright © 2015-2019 Comsenz Inc.  Template by 蓝光电影论坛 All Rights Reserved.

Powered by 蓝光电影网 X3.4

特别声明:本站所有资源均由网上收集而来,版权归原影音公司所有,如果侵犯了你的权益,请通知我们,我们会及时删除侵权内容.

快速回复 返回顶部 返回列表