找回密码

蓝光电影网

查看: 274|回复: 4

[8bit.SDR] 爱与怪物 Love.and.Monsters.2020.2160p.BluRay.x264.8bit.SDR.DTS-HD.MA.7.1-SWTYBLZ 31.64GB

[复制链接]

 成长值: 17820

发表于 2021-1-4 19:45:33 | 显示全部楼层 |阅读模式
爱与怪物 Love.and.Monsters.2020.2160p.BluRay.x264.8bit.SDR.DTS-HD.MA.7.1-SWTYBLZ 31.64GB-1.jpg


◎译  名 爱与怪物/Monster Problems/怪物问题
◎片  名 Love and Monsters
◎年  代 2020
◎产  地 美国
◎类  别 冒险
◎语  言 英语
◎上映日期 2020-10-16(美国)
◎IMDb评分  7/10 from 25685 users
◎IMDb链接  https://www.imdb.com/title/tt2222042/
◎豆瓣评分 7.2/10 from 17062 users
◎豆瓣链接 https://movie.douban.com/subject/21349338/
◎片  长 109分钟
◎导  演 迈克尔·马修斯 Michael Matthews
◎编  剧 布莱恩·达菲尔德 Brian Duffield / 马修·罗宾逊 Matthew Robinson
◎主  演 迪伦·奥布莱恩 Dylan O'Brien
       杰西卡·亨维克 Jessica Henwick
       迈克尔·鲁克 Michael Rooker
       丹尼尔·尤因 Daniel Ewing
       阿丽亚娜·格林布拉特 Ariana Greenblatt
       艾伦·霍尔曼 Ellen Hollman
       特雷·黑尔 Tre Hale
       帕卡罗·姆泽贝 Pacharo Mzembe
       西尼·普里蒂 Senie Priti
       阿玛莉·沃德 Amali Ward
       特克赫·图哈卡 Te Kohe Tuhaka
       塔斯尼姆·罗克 Tasneem Roc
       托马斯·坎贝尔 Thomas Campbell
       乔尔·皮尔斯 Joel Pierce
       梅拉妮·萨内蒂 Melanie Zanetti
       布鲁斯·斯宾斯 Bruce Spence
       米莉亚玛·史密斯 Miriama Smith
       安德鲁·布坎南 Andrew Buchanan
       坦蒂·莱特 Tandi Wright
       达米安·加维 Damien Garvey
       西罗 Hero
       道奇 Dodge
       拉里·塞达尔 Larry Cedar
◎标  签 怪物 | 冒险 | 科幻 | 奇幻 | 美国 | 2020 | 喜剧 | 爱情
◎简  介


  故事的背景设定在一个大部分人类已经死亡的末日世界中,主宰着这个世界里的生杀大权的,是那些变异了的冷血动物。仅剩的人类为了求生被迫迁入地下堡垒中,终日生活在胆战心惊里。
  
  乔伊(迪伦·奥布莱恩 Dylan O'Brien 饰)在七年前的大灾难里同女友艾米(杰西卡·亨维克 Jessica Henwick 饰)走散,如今他们身居两个不同的地堡中,靠着无线电联系。一天,无比思念艾米的乔伊决定踏出安全区,重返地上世界,独自徒步前往艾米所在的营地,一路上他遇见了无数的危险,同时也遇见了良师益友克莱德(迈克尔·鲁克 Michael Rooker 饰)和米诺(阿丽亚娜·格林布拉特 Ariana Greenblatt 饰)。性格懦弱胆小的乔伊能够活着见到艾米吗?
  1. Video
  2. ID                                       : 1
  3. Format                                   : AVC
  4. Format/Info                              : Advanced Video Codec
  5. Format profile                           : [email protected]
  6. Format settings                          : CABAC / 5 Ref Frames
  7. Format settings, CABAC                   : Yes
  8. Format settings, Reference frames        : 5 frames
  9. Codec ID                                 : V_MPEG4/ISO/AVC
  10. Duration                                 : 1 h 48 min
  11. Bit rate                                 : 36.2 Mb/s
  12. Width                                    : 3 840 pixels
  13. Height                                   : 1 606 pixels
  14. Display aspect ratio                     : 2.40:1
  15. Frame rate mode                          : Constant
  16. Frame rate                               : 23.976 (24000/1001/189150) FPS
  17. Color space                              : YUV
  18. Chroma subsampling                       : 4:2:0
  19. Bit depth                                : 8 bits
  20. Scan type                                : Progressive
  21. Bits/(Pixel*Frame)                       : 0.245
  22. Stream size                              : 27.5 GiB (88%)
  23. Writing library                          : x264 core 157 r2935 545de2f
  24. Encoding settings                        : cabac=1 / ref=5 / deblock=1:-1:-1 / analyse=0x3:0x113 / me=umh / subme=10 / psy=1 / psy_rd=1.00:0.15 / mixed_ref=1 / me_range=48 / chroma_me=1 / trellis=2 / 8x8dct=1 / cqm=0 / deadzone=21,11 / fast_pskip=1 / chroma_qp_offset=-3 / threads=48 / lookahead_threads=4 / sliced_threads=0 / nr=0 / decimate=0 / interlaced=0 / bluray_compat=0 / constrained_intra=0 / bframes=3 / b_pyramid=2 / b_adapt=2 / b_bias=0 / direct=3 / weightb=1 / open_gop=0 / weightp=2 / keyint=250 / keyint_min=23 / scenecut=40 / intra_refresh=0 / rc_lookahead=50 / rc=crf / mbtree=1 / crf=18.0 / qcomp=0.60 / qpmin=0 / qpmax=69 / qpstep=4 / ip_ratio=1.40 / aq=1:1.00
  25. Default                                  : Yes
  26. Forced                                   : No
  27. Audio #1
  28. ID                                       : 2
  29. Format                                   : DTS XLL
  30. Format/Info                              : Digital Theater Systems
  31. Commercial name                          : DTS-HD Master Audio
  32. Codec ID                                 : A_DTS
  33. Duration                                 : 1 h 48 min
  34. Bit rate mode                            : Variable
  35. Bit rate                                 : 4 413 kb/s
  36. Channel(s)                               : 8 channels
  37. Channel layout                           : C L R LFE Lb Rb Lss Rss
  38. Sampling rate                            : 48.0 kHz
  39. Frame rate                               : 93.750 FPS (512 SPF)
  40. Bit depth                                : 24 bits
  41. Compression mode                         : Lossless
  42. Stream size                              : 3.36 GiB (11%)
  43. Title                                    : DTS-HD MA 7.1
  44. Language                                 : English
  45. Default                                  : Yes
  46. Forced                                   : No
  47. Audio #2
  48. ID                                       : 3
  49. Format                                   : AC-3
  50. Format/Info                              : Audio Coding 3
  51. Commercial name                          : Dolby Digital
  52. Codec ID                                 : A_AC3
  53. Duration                                 : 1 h 48 min
  54. Bit rate mode                            : Constant
  55. Bit rate                                 : 640 kb/s
  56. Channel(s)                               : 6 channels
  57. Channel layout                           : L R C LFE Ls Rs
  58. Sampling rate                            : 48.0 kHz
  59. Frame rate                               : 31.250 FPS (1536 SPF)
  60. Compression mode                         : Lossy
  61. Stream size                              : 498 MiB (2%)
  62. Title                                    : DD 5.1
  63. Language                                 : English
  64. Service kind                             : Complete Main
  65. Default                                  : No
  66. Forced                                   : No
  67. Text #1
  68. ID                                       : 4
  69. Format                                   : UTF-8
  70. Codec ID                                 : S_TEXT/UTF8
  71. Codec ID/Info                            : UTF-8 Plain Text
  72. Duration                                 : 1 h 41 min
  73. Bit rate                                 : 60 b/s
  74. Count of elements                        : 1402
  75. Stream size                              : 45.2 KiB (0%)
  76. Title                                    : English-SRT
  77. Language                                 : English
  78. Default                                  : Yes
  79. Forced                                   : No
  80. Text #2
  81. ID                                       : 5
  82. Format                                   : PGS
  83. Muxing mode                              : zlib
  84. Codec ID                                 : S_HDMV/PGS
  85. Codec ID/Info                            : Picture based subtitle format used on BDs/HD-DVDs
  86. Duration                                 : 1 h 41 min
  87. Bit rate                                 : 41.7 kb/s
  88. Count of elements                        : 2812
  89. Stream size                              : 30.3 MiB (0%)
  90. Title                                    : English-PGS
  91. Language                                 : English
  92. Default                                  : No
  93. Forced                                   : No
  94. Text #3
  95. ID                                       : 6
  96. Format                                   : PGS
  97. Muxing mode                              : zlib
  98. Codec ID                                 : S_HDMV/PGS
  99. Codec ID/Info                            : Picture based subtitle format used on BDs/HD-DVDs
  100. Duration                                 : 1 h 42 min
  101. Bit rate                                 : 49.9 kb/s
  102. Count of elements                        : 3374
  103. Stream size                              : 36.8 MiB (0%)
  104. Title                                    : English-SDH-PGS
  105. Language                                 : English
  106. Default                                  : No
  107. Forced                                   : No
  108. Text #4
  109. ID                                       : 7
  110. Format                                   : PGS
  111. Muxing mode                              : zlib
  112. Codec ID                                 : S_HDMV/PGS
  113. Codec ID/Info                            : Picture based subtitle format used on BDs/HD-DVDs
  114. Duration                                 : 1 h 47 min
  115. Bit rate                                 : 38.5 kb/s
  116. Count of elements                        : 2830
  117. Stream size                              : 29.7 MiB (0%)
  118. Title                                    : Spanish-PGS
  119. Language                                 : Spanish
  120. Default                                  : No
  121. Forced                                   : No
  122. Menu
  123. 00:00:00.000                             : en:Chapter 1
  124. 00:10:19.369                             : en:Chapter 2
  125. 00:20:14.505                             : en:Chapter 3
  126. 00:28:48.644                             : en:Chapter 4
  127. 00:34:54.968                             : en:Chapter 5
  128. 00:41:15.515                             : en:Chapter 6
  129. 00:50:20.976                             : en:Chapter 7
  130. 00:54:56.460                             : en:Chapter 8
  131. 01:04:05.717                             : en:Chapter 9
  132. 01:13:02.670                             : en:Chapter 10
  133. 01:20:52.473                             : en:Chapter 11
  134. 01:27:57.105                             : en:Chapter 12
  135. 01:36:45.466                             : en:Chapter 13
  136. 01:42:38.527                             : en:Chapter 14
复制代码



                                       
                                       

                                       
                                       
                                       




回复

使用道具 举报

发表于 2021-1-5 06:50:53 | 显示全部楼层

我看不错噢 谢谢楼主!蓝光电影网越来越好!
回复 支持 反对

使用道具 举报

发表于 2021-1-5 09:45:01 | 显示全部楼层

这东西我收了!谢谢楼主!蓝光电影网真好!
回复 支持 反对

使用道具 举报

发表于 2021-1-5 18:00:08 | 显示全部楼层
谢谢楼主分享!
回复 支持 反对

使用道具 举报

发表于 2021-1-15 15:30:35 | 显示全部楼层
我看不错噢 谢谢楼主!蓝光电影网越来越好!
回复 支持 反对

使用道具 举报

懒得打字嘛,点击右侧快捷回复 【右侧内容,后台自定义】
您需要登录后才可以回帖 登录 | 立即加入

本版积分规则

现在加入蓝光电影网,注册一个账号
上个主题 下个主题 快速回复 收藏帖子 返回列表 客服中心 搜索

手机版|小黑屋| 蓝光电影网 |网站地图 

Copyright © 2015-2019 Comsenz Inc.  Template by 蓝光电影论坛 All Rights Reserved.

Powered by 蓝光电影网 X3.4

特别声明:本站所有资源均由网上收集而来,版权归原影音公司所有,如果侵犯了你的权益,请通知我们,我们会及时删除侵权内容.

快速回复 返回顶部 返回列表