找回密码

蓝光电影网

查看: 328|回复: 8

[10bit.SDR] 爱与怪物 Love.and.Monsters.2020.2160p.BluRay.x265.10bit.SDR.DTS-HD.MA.7.1-SWTYBLZ 28.95GB

[复制链接]

 成长值: 17745

发表于 2021-1-4 19:45:33 | 显示全部楼层 |阅读模式
爱与怪物 Love.and.Monsters.2020.2160p.BluRay.x265.10bit.SDR.DTS-HD.MA.7.1-SWTYBLZ 28.95GB-1.jpg


◎译  名 爱与怪物/Monster Problems/怪物问题
◎片  名 Love and Monsters
◎年  代 2020
◎产  地 美国
◎类  别 冒险
◎语  言 英语
◎上映日期 2020-10-16(美国)
◎IMDb评分  7/10 from 25685 users
◎IMDb链接  https://www.imdb.com/title/tt2222042/
◎豆瓣评分 7.2/10 from 17062 users
◎豆瓣链接 https://movie.douban.com/subject/21349338/
◎片  长 109分钟
◎导  演 迈克尔·马修斯 Michael Matthews
◎编  剧 布莱恩·达菲尔德 Brian Duffield / 马修·罗宾逊 Matthew Robinson
◎主  演 迪伦·奥布莱恩 Dylan O'Brien
       杰西卡·亨维克 Jessica Henwick
       迈克尔·鲁克 Michael Rooker
       丹尼尔·尤因 Daniel Ewing
       阿丽亚娜·格林布拉特 Ariana Greenblatt
       艾伦·霍尔曼 Ellen Hollman
       特雷·黑尔 Tre Hale
       帕卡罗·姆泽贝 Pacharo Mzembe
       西尼·普里蒂 Senie Priti
       阿玛莉·沃德 Amali Ward
       特克赫·图哈卡 Te Kohe Tuhaka
       塔斯尼姆·罗克 Tasneem Roc
       托马斯·坎贝尔 Thomas Campbell
       乔尔·皮尔斯 Joel Pierce
       梅拉妮·萨内蒂 Melanie Zanetti
       布鲁斯·斯宾斯 Bruce Spence
       米莉亚玛·史密斯 Miriama Smith
       安德鲁·布坎南 Andrew Buchanan
       坦蒂·莱特 Tandi Wright
       达米安·加维 Damien Garvey
       西罗 Hero
       道奇 Dodge
       拉里·塞达尔 Larry Cedar
◎标  签 怪物 | 冒险 | 科幻 | 奇幻 | 美国 | 2020 | 喜剧 | 爱情
◎简  介


  故事的背景设定在一个大部分人类已经死亡的末日世界中,主宰着这个世界里的生杀大权的,是那些变异了的冷血动物。仅剩的人类为了求生被迫迁入地下堡垒中,终日生活在胆战心惊里。
  
  乔伊(迪伦·奥布莱恩 Dylan O'Brien 饰)在七年前的大灾难里同女友艾米(杰西卡·亨维克 Jessica Henwick 饰)走散,如今他们身居两个不同的地堡中,靠着无线电联系。一天,无比思念艾米的乔伊决定踏出安全区,重返地上世界,独自徒步前往艾米所在的营地,一路上他遇见了无数的危险,同时也遇见了良师益友克莱德(迈克尔·鲁克 Michael Rooker 饰)和米诺(阿丽亚娜·格林布拉特 Ariana Greenblatt 饰)。性格懦弱胆小的乔伊能够活着见到艾米吗?
  1. Video
  2. ID                                       : 1
  3. Format                                   : HEVC
  4. Format/Info                              : High Efficiency Video Coding
  5. Format profile                           : Main [email protected]@High
  6. Codec ID                                 : V_MPEGH/ISO/HEVC
  7. Duration                                 : 1 h 48 min
  8. Bit rate                                 : 32.7 Mb/s
  9. Width                                    : 3 840 pixels
  10. Height                                   : 1 606 pixels
  11. Display aspect ratio                     : 2.40:1
  12. Frame rate mode                          : Constant
  13. Frame rate                               : 23.976 (24000/1001/189150) FPS
  14. Color space                              : YUV
  15. Chroma subsampling                       : 4:2:0
  16. Bit depth                                : 10 bits
  17. Bits/(Pixel*Frame)                       : 0.221
  18. Stream size                              : 24.9 GiB (86%)
  19. Writing library                          : x265 3.0ed72af837053:[Windows][GCC 8.2.0][64 bit] 10bit
  20. Encoding settings                        : cpuid=1111039 / frame-threads=6 / numa-pools=40 / wpp / no-pmode / no-pme / no-psnr / no-ssim / log-level=2 / input-csp=1 / input-res=3840x1606 / interlace=0 / total-frames=156607 / level-idc=51 / high-tier=1 / uhd-bd=0 / ref=3 / no-allow-non-conformance / repeat-headers / annexb / aud / hrd / info / hash=0 / no-temporal-layers / no-open-gop / min-keyint=1 / keyint=24 / gop-lookahead=0 / bframes=4 / b-adapt=2 / b-pyramid / bframe-bias=0 / rc-lookahead=25 / lookahead-slices=4 / scenecut=40 / radl=0 / no-splice / no-intra-refresh / ctu=64 / min-cu-size=8 / no-rect / no-amp / max-tu-size=32 / tu-inter-depth=1 / tu-intra-depth=1 / limit-tu=0 / rdoq-level=0 / dynamic-rd=0.00 / no-ssim-rd / signhide / no-tskip / nr-intra=0 / nr-inter=0 / no-constrained-intra / strong-intra-smoothing / max-merge=2 / limit-refs=3 / no-limit-modes / me=1 / subme=2 / merange=57 / temporal-mvp / weightp / no-weightb / no-analyze-src-pics / deblock=0:0 / no-sao / no-sao-non-deblock / rd=3 / no-early-skip / rskip / no-fast-intra / no-tskip-fast / no-cu-lossless / no-b-intra / no-splitrd-skip / rdpenalty=0 / psy-rd=2.00 / psy-rdoq=0.00 / no-rd-refine / no-lossless / cbqpoffs=0 / crqpoffs=0 / rc=crf / crf=16.0 / qcomp=0.60 / qpstep=4 / stats-write=0 / stats-read=0 / vbv-maxrate=160000 / vbv-bufsize=160000 / vbv-init=0.9 / crf-max=0.0 / crf-min=0.0 / ipratio=1.40 / pbratio=1.30 / aq-mode=1 / aq-strength=1.00 / cutree / zone-count=0 / no-strict-cbr / qg-size=32 / no-rc-grain / qpmax=69 / qpmin=0 / no-const-vbv / sar=1 / overscan=0 / videoformat=5 / range=0 / colorprim=2 / transfer=2 / colormatrix=2 / chromaloc=0 / display-window=0 / max-cll=0,0 / min-luma=0 / max-luma=1023 / log2-max-poc-lsb=8 / vui-timing-info / vui-hrd-info / slices=1 / opt-qp-pps / opt-ref-list-length-pps / no-multi-pass-opt-rps / scenecut-bias=0.05 / no-opt-cu-delta-qp / no-aq-motion / no-hdr / no-hdr-opt / no-dhdr10-opt / no-idr-recovery-sei / analysis-reuse-level=5 / scale-factor=0 / refine-intra=0 / refine-inter=0 / refine-mv=0 / refine-ctu-distortion=0 / no-limit-sao / ctu-info=0 / no-lowpass-dct / refine-analysis-type=0 / copy-pic=1 / max-ausize-factor=1.0 / no-dynamic-refine / no-single-sei / no-hevc-aq / qp-adaptation-range=1.00
  21. Default                                  : Yes
  22. Forced                                   : No
  23. Audio #1
  24. ID                                       : 2
  25. Format                                   : DTS XLL
  26. Format/Info                              : Digital Theater Systems
  27. Commercial name                          : DTS-HD Master Audio
  28. Codec ID                                 : A_DTS
  29. Duration                                 : 1 h 48 min
  30. Bit rate mode                            : Variable
  31. Bit rate                                 : 4 413 kb/s
  32. Channel(s)                               : 8 channels
  33. Channel layout                           : C L R LFE Lb Rb Lss Rss
  34. Sampling rate                            : 48.0 kHz
  35. Frame rate                               : 93.750 FPS (512 SPF)
  36. Bit depth                                : 24 bits
  37. Compression mode                         : Lossless
  38. Stream size                              : 3.36 GiB (12%)
  39. Title                                    : DTS-HD MA 7.1
  40. Language                                 : English
  41. Default                                  : Yes
  42. Forced                                   : No
  43. Audio #2
  44. ID                                       : 3
  45. Format                                   : AC-3
  46. Format/Info                              : Audio Coding 3
  47. Commercial name                          : Dolby Digital
  48. Codec ID                                 : A_AC3
  49. Duration                                 : 1 h 48 min
  50. Bit rate mode                            : Constant
  51. Bit rate                                 : 640 kb/s
  52. Channel(s)                               : 6 channels
  53. Channel layout                           : L R C LFE Ls Rs
  54. Sampling rate                            : 48.0 kHz
  55. Frame rate                               : 31.250 FPS (1536 SPF)
  56. Compression mode                         : Lossy
  57. Stream size                              : 498 MiB (2%)
  58. Title                                    : DD 5.1
  59. Language                                 : English
  60. Service kind                             : Complete Main
  61. Default                                  : No
  62. Forced                                   : No
  63. Text #1
  64. ID                                       : 4
  65. Format                                   : UTF-8
  66. Codec ID                                 : S_TEXT/UTF8
  67. Codec ID/Info                            : UTF-8 Plain Text
  68. Duration                                 : 1 h 41 min
  69. Bit rate                                 : 60 b/s
  70. Count of elements                        : 1402
  71. Stream size                              : 45.2 KiB (0%)
  72. Title                                    : English-SRT
  73. Language                                 : English
  74. Default                                  : Yes
  75. Forced                                   : No
  76. Text #2
  77. ID                                       : 5
  78. Format                                   : PGS
  79. Muxing mode                              : zlib
  80. Codec ID                                 : S_HDMV/PGS
  81. Codec ID/Info                            : Picture based subtitle format used on BDs/HD-DVDs
  82. Duration                                 : 1 h 41 min
  83. Bit rate                                 : 41.7 kb/s
  84. Count of elements                        : 2812
  85. Stream size                              : 30.3 MiB (0%)
  86. Title                                    : English-PGS
  87. Language                                 : English
  88. Default                                  : No
  89. Forced                                   : No
  90. Text #3
  91. ID                                       : 6
  92. Format                                   : PGS
  93. Muxing mode                              : zlib
  94. Codec ID                                 : S_HDMV/PGS
  95. Codec ID/Info                            : Picture based subtitle format used on BDs/HD-DVDs
  96. Duration                                 : 1 h 42 min
  97. Bit rate                                 : 49.9 kb/s
  98. Count of elements                        : 3374
  99. Stream size                              : 36.8 MiB (0%)
  100. Title                                    : English-SDH-PGS
  101. Language                                 : English
  102. Default                                  : No
  103. Forced                                   : No
  104. Text #4
  105. ID                                       : 7
  106. Format                                   : PGS
  107. Muxing mode                              : zlib
  108. Codec ID                                 : S_HDMV/PGS
  109. Codec ID/Info                            : Picture based subtitle format used on BDs/HD-DVDs
  110. Duration                                 : 1 h 47 min
  111. Bit rate                                 : 38.5 kb/s
  112. Count of elements                        : 2830
  113. Stream size                              : 29.7 MiB (0%)
  114. Title                                    : Spanish-PGS
  115. Language                                 : Spanish
  116. Default                                  : No
  117. Forced                                   : No
  118. Menu
  119. 00:00:00.000                             : en:Chapter 1
  120. 00:10:19.369                             : en:Chapter 2
  121. 00:20:14.505                             : en:Chapter 3
  122. 00:28:48.644                             : en:Chapter 4
  123. 00:34:54.968                             : en:Chapter 5
  124. 00:41:15.515                             : en:Chapter 6
  125. 00:50:20.976                             : en:Chapter 7
  126. 00:54:56.460                             : en:Chapter 8
  127. 01:04:05.717                             : en:Chapter 9
  128. 01:13:02.670                             : en:Chapter 10
  129. 01:20:52.473                             : en:Chapter 11
  130. 01:27:57.105                             : en:Chapter 12
  131. 01:36:45.466                             : en:Chapter 13
  132. 01:42:38.527                             : en:Chapter 14
复制代码



                                       
                                       

                                       
                                       
                                       




回复

使用道具 举报

发表于 2021-1-5 02:08:13 | 显示全部楼层

感谢楼主的无私分享!要想蓝光电影网好 就靠你我他
回复 支持 反对

使用道具 举报

发表于 2021-1-5 08:57:00 | 显示全部楼层
楼主发贴辛苦了,谢谢楼主分享!我觉得蓝光电影网是注册对了!
回复 支持 反对

使用道具 举报

发表于 2021-1-5 13:03:17 | 显示全部楼层

这东西我收了!谢谢楼主!蓝光电影网真好!
回复 支持 反对

使用道具 举报

发表于 2021-1-5 15:27:55 | 显示全部楼层
楼主发贴辛苦了,谢谢楼主分享!我觉得蓝光电影网是注册对了!
回复 支持 反对

使用道具 举报

发表于 2021-1-6 15:54:37 | 显示全部楼层
楼主发贴辛苦了,谢谢楼主分享
回复 支持 反对

使用道具 举报

发表于 2021-1-6 17:50:57 | 显示全部楼层

楼主太厉害了!楼主,电影应该很好看我觉得蓝光电影网真是个好地方!
回复 支持 反对

使用道具 举报

发表于 5 天前 | 显示全部楼层
谢谢分享
回复

使用道具 举报

发表于 5 天前 | 显示全部楼层

楼主发贴辛苦了,谢谢楼主分享!我觉得蓝光电影网是注册对了!
回复 支持 反对

使用道具 举报

懒得打字嘛,点击右侧快捷回复 【右侧内容,后台自定义】
您需要登录后才可以回帖 登录 | 立即加入

本版积分规则

现在加入蓝光电影网,注册一个账号
上个主题 下个主题 快速回复 收藏帖子 返回列表 客服中心 搜索

手机版|小黑屋| 蓝光电影网 |网站地图 

Copyright © 2015-2019 Comsenz Inc.  Template by 蓝光电影论坛 All Rights Reserved.

Powered by 蓝光电影网 X3.4

特别声明:本站所有资源均由网上收集而来,版权归原影音公司所有,如果侵犯了你的权益,请通知我们,我们会及时删除侵权内容.

快速回复 返回顶部 返回列表