找回密码

蓝光电影网

查看: 1134|回复: 40

[2160p-WEB] 牧羊女大冒险/《玩具总动员4》番外短片 Lamp.Life.2020.2160p.DSNP.WEBRip.x265.10bit.HDR.DDP5.1.Atmos-TrollUHD 915.77MB

[复制链接]

 成长值: 17745

发表于 2021-1-1 18:29:29 | 显示全部楼层 |阅读模式
牧羊女大冒险/《玩具总动员4》番外短片 Lamp.Life.2020.2160p.DSNP.WEBRip.x265.10bit.HDR.DDP5.1.Atmos-TrollUHD 915.77MB-1.jpg


◎译  名 牧羊女大冒险/《玩具总动员4》番外短片/台灯生活
◎片  名 Lamp Life
◎年  代 2020
◎产  地 美国
◎类  别 动画 / 短片 / 奇幻
◎语  言 英语
◎上映日期 2020-01-31(美国)
◎IMDb评分  6.8/10 from 1885 users
◎IMDb链接  https://www.imdb.com/title/tt10167262/
◎豆瓣评分 8.1/10 from 2075 users
◎豆瓣链接 https://movie.douban.com/subject/34956867/
◎片  长 7分钟
◎导  演 瓦莱丽·拉普安特 Valerie LaPointe
◎编  剧 瓦莱丽·拉普安特 Valerie LaPointe
◎主  演 安妮·波茨 Annie Potts
       松村艾丽 Ally Maki
       吉姆·汉克斯 Jim Hanks
       艾米丽·戴维斯 Emily Davis
       克里斯蒂娜·亨德里克斯 Christina Hendricks
◎标  签 短片 | 动画 | 美国 | 动画短片 | 皮克斯 | 2020 | Pixar | Disney
◎简  介


  皮克斯发布《玩具总动员》新衍生短片《Lamp Life》预告,可爱。聚焦牧羊女的故事:她为何在外流浪,并跟被迫“跑路”的胡迪重逢?
  
  1月31日Disney+上线。
  1. Video
  2. ID                                       : 1
  3. Format                                   : HEVC
  4. Format/Info                              : High Efficiency Video Coding
  5. Format profile                           : Main [email protected]@High
  6. HDR format                               : SMPTE ST 2086, HDR10 compatible
  7. Codec ID                                 : V_MPEGH/ISO/HEVC
  8. Duration                                 : 11 min 6 s
  9. Bit rate                                 : 10.7 Mb/s
  10. Width                                    : 3 840 pixels
  11. Height                                   : 2 160 pixels
  12. Display aspect ratio                     : 16:9
  13. Frame rate mode                          : Constant
  14. Frame rate                               : 23.976 (24000/1001/189150) FPS
  15. Color space                              : YUV
  16. Chroma subsampling                       : 4:2:0
  17. Bit depth                                : 10 bits
  18. Bits/(Pixel*Frame)                       : 0.054
  19. Stream size                              : 854 MiB (93%)
  20. Default                                  : Yes
  21. Forced                                   : No
  22. Color range                              : Limited
  23. Color primaries                          : BT.2020
  24. Transfer characteristics                 : PQ
  25. Matrix coefficients                      : BT.2020 non-constant
  26. Mastering display color primaries        : BT.2020
  27. Mastering display luminance              : min: 0.0001 cd/m2, max: 1000 cd/m2
  28. Maximum Content Light Level              : 954 cd/m2
  29. Maximum Frame-Average Light Level        : 32 cd/m2
  30. Audio
  31. ID                                       : 2
  32. Format                                   : E-AC-3 JOC
  33. Format/Info                              : Enhanced AC-3 with Joint Object Coding
  34. Commercial name                          : Dolby Digital Plus with Dolby Atmos
  35. Codec ID                                 : A_EAC3
  36. Duration                                 : 11 min 7 s
  37. Bit rate mode                            : Constant
  38. Bit rate                                 : 768 kb/s
  39. Channel(s)                               : 6 channels
  40. Channel layout                           : L R C LFE Ls Rs
  41. Sampling rate                            : 48.0 kHz
  42. Frame rate                               : 31.250 FPS (1536 SPF)
  43. Compression mode                         : Lossy
  44. Stream size                              : 61.1 MiB (7%)
  45. Title                                    : English
  46. Language                                 : English
  47. Service kind                             : Complete Main
  48. Default                                  : No
  49. Forced                                   : No
  50. Complexity index                         : 16
  51. Number of dynamic objects                : 15
  52. Bed channel count                        : 1 channel
  53. Bed channel configuration                : LFE
  54. Text #1
  55. ID                                       : 3
  56. Format                                   : UTF-8
  57. Codec ID                                 : S_TEXT/UTF8
  58. Codec ID/Info                            : UTF-8 Plain Text
  59. Duration                                 : 6 min 35 s
  60. Bit rate                                 : 94 b/s
  61. Count of elements                        : 147
  62. Stream size                              : 4.58 KiB (0%)
  63. Title                                    : English
  64. Language                                 : English
  65. Default                                  : No
  66. Forced                                   : No
  67. Text #2
  68. ID                                       : 4
  69. Format                                   : UTF-8
  70. Codec ID                                 : S_TEXT/UTF8
  71. Codec ID/Info                            : UTF-8 Plain Text
  72. Duration                                 : 6 min 54 s
  73. Bit rate                                 : 61 b/s
  74. Count of elements                        : 101
  75. Stream size                              : 3.13 KiB (0%)
  76. Title                                    : European Spanish
  77. Language                                 : Spanish
  78. Default                                  : No
  79. Forced                                   : No
  80. Text #3
  81. ID                                       : 5
  82. Format                                   : UTF-8
  83. Codec ID                                 : S_TEXT/UTF8
  84. Codec ID/Info                            : UTF-8 Plain Text
  85. Duration                                 : 6 min 41 s
  86. Bit rate                                 : 65 b/s
  87. Count of elements                        : 100
  88. Stream size                              : 3.20 KiB (0%)
  89. Title                                    : Latin American Spanish
  90. Language                                 : Spanish
  91. Default                                  : No
  92. Forced                                   : No
  93. Text #4
  94. ID                                       : 6
  95. Format                                   : UTF-8
  96. Codec ID                                 : S_TEXT/UTF8
  97. Codec ID/Info                            : UTF-8 Plain Text
  98. Duration                                 : 6 min 54 s
  99. Bit rate                                 : 57 b/s
  100. Count of elements                        : 103
  101. Stream size                              : 2.89 KiB (0%)
  102. Title                                    : French
  103. Language                                 : French
  104. Default                                  : No
  105. Forced                                   : No
  106. Text #5
  107. ID                                       : 7
  108. Format                                   : UTF-8
  109. Codec ID                                 : S_TEXT/UTF8
  110. Codec ID/Info                            : UTF-8 Plain Text
  111. Duration                                 : 6 min 54 s
  112. Bit rate                                 : 66 b/s
  113. Count of elements                        : 101
  114. Stream size                              : 3.38 KiB (0%)
  115. Title                                    : Canadian French
  116. Language                                 : French
  117. Default                                  : No
  118. Forced                                   : No
  119. Text #6
  120. ID                                       : 8
  121. Format                                   : UTF-8
  122. Codec ID                                 : S_TEXT/UTF8
  123. Codec ID/Info                            : UTF-8 Plain Text
  124. Duration                                 : 6 min 41 s
  125. Bit rate                                 : 62 b/s
  126. Count of elements                        : 102
  127. Stream size                              : 3.09 KiB (0%)
  128. Title                                    : German
  129. Language                                 : German
  130. Default                                  : No
  131. Forced                                   : No
  132. Text #7
  133. ID                                       : 9
  134. Format                                   : UTF-8
  135. Codec ID                                 : S_TEXT/UTF8
  136. Codec ID/Info                            : UTF-8 Plain Text
  137. Duration                                 : 6 min 54 s
  138. Bit rate                                 : 63 b/s
  139. Count of elements                        : 101
  140. Stream size                              : 3.19 KiB (0%)
  141. Title                                    : Italian
  142. Language                                 : Italian
  143. Default                                  : No
  144. Forced                                   : No
  145. Text #8
  146. ID                                       : 10
  147. Format                                   : UTF-8
  148. Codec ID                                 : S_TEXT/UTF8
  149. Codec ID/Info                            : UTF-8 Plain Text
  150. Duration                                 : 6 min 54 s
  151. Bit rate                                 : 66 b/s
  152. Count of elements                        : 101
  153. Stream size                              : 3.36 KiB (0%)
  154. Title                                    : European Portuguese
  155. Language                                 : Portuguese
  156. Default                                  : No
  157. Forced                                   : No
  158. Text #9
  159. ID                                       : 11
  160. Format                                   : UTF-8
  161. Codec ID                                 : S_TEXT/UTF8
  162. Codec ID/Info                            : UTF-8 Plain Text
  163. Duration                                 : 6 min 54 s
  164. Bit rate                                 : 60 b/s
  165. Count of elements                        : 101
  166. Stream size                              : 3.08 KiB (0%)
  167. Title                                    : Brazilian Portuguese
  168. Language                                 : Portuguese
  169. Default                                  : No
  170. Forced                                   : No
  171. Text #10
  172. ID                                       : 12
  173. Format                                   : UTF-8
  174. Codec ID                                 : S_TEXT/UTF8
  175. Codec ID/Info                            : UTF-8 Plain Text
  176. Duration                                 : 6 min 54 s
  177. Bit rate                                 : 63 b/s
  178. Count of elements                        : 103
  179. Stream size                              : 3.21 KiB (0%)
  180. Title                                    : Polish
  181. Language                                 : Polish
  182. Default                                  : No
  183. Forced                                   : No
  184. Text #11
  185. ID                                       : 13
  186. Format                                   : UTF-8
  187. Codec ID                                 : S_TEXT/UTF8
  188. Codec ID/Info                            : UTF-8 Plain Text
  189. Duration                                 : 6 min 54 s
  190. Bit rate                                 : 60 b/s
  191. Count of elements                        : 88
  192. Stream size                              : 3.05 KiB (0%)
  193. Title                                    : Swedish
  194. Language                                 : Swedish
  195. Default                                  : No
  196. Forced                                   : No
  197. Text #12
  198. ID                                       : 14
  199. Format                                   : UTF-8
  200. Codec ID                                 : S_TEXT/UTF8
  201. Codec ID/Info                            : UTF-8 Plain Text
  202. Duration                                 : 6 min 54 s
  203. Bit rate                                 : 66 b/s
  204. Count of elements                        : 86
  205. Stream size                              : 3.34 KiB (0%)
  206. Title                                    : Danish
  207. Language                                 : Danish
  208. Default                                  : No
  209. Forced                                   : No
  210. Text #13
  211. ID                                       : 15
  212. Format                                   : UTF-8
  213. Codec ID                                 : S_TEXT/UTF8
  214. Codec ID/Info                            : UTF-8 Plain Text
  215. Duration                                 : 6 min 54 s
  216. Bit rate                                 : 58 b/s
  217. Count of elements                        : 101
  218. Stream size                              : 2.97 KiB (0%)
  219. Title                                    : Finnish
  220. Language                                 : Finnish
  221. Default                                  : No
  222. Forced                                   : No
  223. Text #14
  224. ID                                       : 16
  225. Format                                   : UTF-8
  226. Codec ID                                 : S_TEXT/UTF8
  227. Codec ID/Info                            : UTF-8 Plain Text
  228. Duration                                 : 6 min 41 s
  229. Bit rate                                 : 54 b/s
  230. Count of elements                        : 94
  231. Stream size                              : 2.68 KiB (0%)
  232. Title                                    : Dutch
  233. Language                                 : Dutch
  234. Default                                  : No
  235. Forced                                   : No
  236. Text #15
  237. ID                                       : 17
  238. Format                                   : UTF-8
  239. Codec ID                                 : S_TEXT/UTF8
  240. Codec ID/Info                            : UTF-8 Plain Text
  241. Duration                                 : 6 min 54 s
  242. Bit rate                                 : 56 b/s
  243. Count of elements                        : 101
  244. Stream size                              : 2.83 KiB (0%)
  245. Title                                    : Norwegian
  246. Language                                 : Norwegian
  247. Default                                  : No
  248. Forced                                   : No
复制代码



                                       
                                       

                                       
                                       
                                       




回复

使用道具 举报

发表于 2021-1-3 21:52:36 | 显示全部楼层
小孩子的最爱。
回复 支持 1 反对 0

使用道具 举报

发表于 2021-1-3 21:20:04 | 显示全部楼层
小孩子的钱好赚啊。。。。。。。。。。。。。。。。。
回复 支持 1 反对 0

使用道具 举报

已抛锚 成长值: 310

发表于 2021-1-3 20:02:41 | 显示全部楼层
楼主发贴辛苦了,谢谢楼主分享!我觉得蓝光电影网是注册对了!
回复 支持 1 反对 0

使用道具 举报

发表于 2021-1-3 19:20:01 | 显示全部楼层

这个帖子不回对不起自己!我想我是一天也不能离开蓝光电影网
回复 支持 1 反对 0

使用道具 举报

发表于 2021-1-3 18:59:00 | 显示全部楼层

楼主太厉害了!楼主,电影应该很好看我觉得蓝光电影网真是个好地方!
回复 支持 1 反对 0

使用道具 举报

发表于 2021-1-4 00:48:35 | 显示全部楼层
楼主发贴辛苦了,谢谢楼主分享!我觉得蓝光电影网是注册对了!
回复 支持 反对

使用道具 举报

发表于 2021-1-4 02:28:25 | 显示全部楼层

这个帖子不回对不起自己!我想我是一天也不能离开蓝光电影网
回复 支持 反对

使用道具 举报

发表于 2021-1-4 08:20:49 | 显示全部楼层
楼主发贴辛苦了,谢谢楼主分享!我觉得蓝光电影网是注册对了!
回复 支持 反对

使用道具 举报

发表于 2021-1-4 08:39:46 | 显示全部楼层
楼主发贴辛苦了,谢谢楼主分享!我觉得蓝光电影网是注册对了!
回复 支持 反对

使用道具 举报

懒得打字嘛,点击右侧快捷回复 【右侧内容,后台自定义】
您需要登录后才可以回帖 登录 | 立即加入

本版积分规则

现在加入蓝光电影网,注册一个账号
上个主题 下个主题 快速回复 收藏帖子 返回列表 客服中心 搜索

手机版|小黑屋| 蓝光电影网 |网站地图 

Copyright © 2015-2019 Comsenz Inc.  Template by 蓝光电影论坛 All Rights Reserved.

Powered by 蓝光电影网 X3.4

特别声明:本站所有资源均由网上收集而来,版权归原影音公司所有,如果侵犯了你的权益,请通知我们,我们会及时删除侵权内容.

快速回复 返回顶部 返回列表