找回密码

蓝光电影网

查看: 1077|回复: 16

[2160p-WEB] 触礁/岩石上 On.The.Rocks.2020.HDR.2160p.WEB.h265-KOGi 16.99GB

[复制链接]

 成长值: 17835

发表于 2021-1-1 18:29:28 | 显示全部楼层 |阅读模式
触礁/岩石上 On.The.Rocks.2020.HDR.2160p.WEB.h265-KOGi 16.99GB-1.jpg


◎译  名 触礁/岩石上
◎片  名 On the Rocks
◎年  代 2020
◎产  地 美国
◎类  别 剧情 / 喜剧 / 冒险
◎语  言 英语
◎上映日期 2020-09-22(纽约电影节) / 2020-10-23(美国)
◎IMDb评分  6.5/10 from 17676 users
◎IMDb链接  https://www.imdb.com/title/tt9606374/
◎豆瓣评分 6.5/10 from 2064 users
◎豆瓣链接 https://movie.douban.com/subject/30432861/
◎片  长 97分钟
◎导  演 索菲亚·科波拉 Sofia Coppola
◎编  剧 索菲亚·科波拉 Sofia Coppola
◎主  演 比尔·默瑞 Bill Murray
       拉什达·琼斯 Rashida Jones
       马龙·韦恩斯 Marlon Wayans
       珍妮·斯蕾特 Jenny Slate
       杰西卡·亨维克 Jessica Henwick
       芭芭拉·贝恩 Barbara Bain
       纳迪雅·达珍妮 Nadia Dajani
       朱尔斯·威尔科克斯 Jules Willcox
       娜缇娅·蒂恩 Natia Dune
       桃乐丝·麦卡锡 Doris McCarthy
       南希·欧泽力 Nancy Ozelli
       Mike Keller
◎标  签 美国 | 索菲亚·科波拉 | 2020 | 喜剧 | 剧情 | BillMurray | SofiaCoppola | 美国电影
◎简  介


  索菲亚·科波拉将执导新片《触礁》(On the Rocks),比尔·莫瑞、拉什达·琼斯主演,这将是苹果和A24合作的第一部电影,下月开拍。
  
  剧本由科波拉编写,讲述一个年轻妈妈和她有英雄色彩的父亲重新联系,在纽约展开一段冒险。
◎获奖情况
  第33届芝加哥影评人协会奖 ?(2020)
  最佳男配角(提名) 比尔·默瑞
  1. Video
  2. ID                                       : 1
  3. Format                                   : HEVC
  4. Format/Info                              : High Efficiency Video Coding
  5. Format profile                           : Main [email protected]@High
  6. HDR format                               : SMPTE ST 2086, HDR10 compatible
  7. Codec ID                                 : V_MPEGH/ISO/HEVC
  8. Duration                                 : 1 h 36 min
  9. Bit rate                                 : 24.1 Mb/s
  10. Width                                    : 3 840 pixels
  11. Height                                   : 2 076 pixels
  12. Display aspect ratio                     : 1.85:1
  13. Frame rate mode                          : Constant
  14. Frame rate                               : 23.976 (24000/1001/189150) FPS
  15. Color space                              : YUV
  16. Chroma subsampling                       : 4:2:0 (Type 2)
  17. Bit depth                                : 10 bits
  18. Bits/(Pixel*Frame)                       : 0.126
  19. Stream size                              : 16.3 GiB (97%)
  20. Language                                 : English
  21. Default                                  : Yes
  22. Forced                                   : No
  23. Color range                              : Limited
  24. Color primaries                          : BT.2020
  25. Transfer characteristics                 : PQ
  26. Matrix coefficients                      : BT.2020 non-constant
  27. Mastering display color primaries        : Display P3
  28. Mastering display luminance              : min: 0.0050 cd/m2, max: 1000 cd/m2
  29. Maximum Content Light Level              : 2022 cd/m2
  30. Maximum Frame-Average Light Level        : 75 cd/m2
  31. Audio
  32. ID                                       : 2
  33. Format                                   : E-AC-3 JOC
  34. Format/Info                              : Enhanced AC-3 with Joint Object Coding
  35. Commercial name                          : Dolby Digital Plus with Dolby Atmos
  36. Codec ID                                 : A_EAC3
  37. Duration                                 : 1 h 36 min
  38. Bit rate mode                            : Constant
  39. Bit rate                                 : 768 kb/s
  40. Channel(s)                               : 6 channels
  41. Channel layout                           : L R C LFE Ls Rs
  42. Sampling rate                            : 48.0 kHz
  43. Frame rate                               : 31.250 FPS (1536 SPF)
  44. Compression mode                         : Lossy
  45. Stream size                              : 532 MiB (3%)
  46. Language                                 : English
  47. Service kind                             : Complete Main
  48. Default                                  : Yes
  49. Forced                                   : No
  50. Complexity index                         : 16
  51. Number of dynamic objects                : 15
  52. Bed channel count                        : 1 channel
  53. Bed channel configuration                : LFE
  54. Text #1
  55. ID                                       : 3
  56. Format                                   : UTF-8
  57. Codec ID                                 : S_TEXT/UTF8
  58. Codec ID/Info                            : UTF-8 Plain Text
  59. Duration                                 : 1 h 29 min
  60. Bit rate                                 : 66 b/s
  61. Count of elements                        : 1401
  62. Stream size                              : 43.6 KiB (0%)
  63. Title                                    : English
  64. Language                                 : English
  65. Default                                  : No
  66. Forced                                   : No
  67. Text #2
  68. ID                                       : 4
  69. Format                                   : UTF-8
  70. Codec ID                                 : S_TEXT/UTF8
  71. Codec ID/Info                            : UTF-8 Plain Text
  72. Duration                                 : 1 h 29 min
  73. Bit rate                                 : 74 b/s
  74. Count of elements                        : 1526
  75. Stream size                              : 49.0 KiB (0%)
  76. Title                                    : English (SDH)
  77. Language                                 : English
  78. Default                                  : No
  79. Forced                                   : No
  80. Text #3
  81. ID                                       : 5
  82. Format                                   : UTF-8
  83. Codec ID                                 : S_TEXT/UTF8
  84. Codec ID/Info                            : UTF-8 Plain Text
  85. Duration                                 : 1 h 36 min
  86. Bit rate                                 : 88 b/s
  87. Count of elements                        : 1416
  88. Stream size                              : 62.2 KiB (0%)
  89. Title                                    : ???????
  90. Language                                 : Arabic
  91. Default                                  : No
  92. Forced                                   : No
  93. Text #4
  94. ID                                       : 6
  95. Format                                   : UTF-8
  96. Codec ID                                 : S_TEXT/UTF8
  97. Codec ID/Info                            : UTF-8 Plain Text
  98. Duration                                 : 1 h 36 min
  99. Bit rate                                 : 90 b/s
  100. Count of elements                        : 1294
  101. Stream size                              : 64.0 KiB (0%)
  102. Title                                    : български
  103. Language                                 : Bulgarian
  104. Default                                  : No
  105. Forced                                   : No
  106. Text #5
  107. ID                                       : 7
  108. Format                                   : UTF-8
  109. Codec ID                                 : S_TEXT/UTF8
  110. Codec ID/Info                            : UTF-8 Plain Text
  111. Duration                                 : 1 h 36 min
  112. Bit rate                                 : 55 b/s
  113. Count of elements                        : 1404
  114. Stream size                              : 39.2 KiB (0%)
  115. Title                                    : ?e?tina
  116. Language                                 : Czech
  117. Default                                  : No
  118. Forced                                   : No
  119. Text #6
  120. ID                                       : 8
  121. Format                                   : UTF-8
  122. Codec ID                                 : S_TEXT/UTF8
  123. Codec ID/Info                            : UTF-8 Plain Text
  124. Duration                                 : 1 h 36 min
  125. Bit rate                                 : 59 b/s
  126. Count of elements                        : 1335
  127. Stream size                              : 41.6 KiB (0%)
  128. Title                                    : dansk
  129. Language                                 : Danish
  130. Default                                  : No
  131. Forced                                   : No
  132. Text #7
  133. ID                                       : 9
  134. Format                                   : UTF-8
  135. Codec ID                                 : S_TEXT/UTF8
  136. Codec ID/Info                            : UTF-8 Plain Text
  137. Duration                                 : 1 h 36 min
  138. Bit rate                                 : 64 b/s
  139. Count of elements                        : 1264
  140. Stream size                              : 45.7 KiB (0%)
  141. Title                                    : Deutsch
  142. Language                                 : German
  143. Default                                  : No
  144. Forced                                   : No
  145. Text #8
  146. ID                                       : 10
  147. Format                                   : UTF-8
  148. Codec ID                                 : S_TEXT/UTF8
  149. Codec ID/Info                            : UTF-8 Plain Text
  150. Duration                                 : 1 h 36 min
  151. Bit rate                                 : 95 b/s
  152. Count of elements                        : 1407
  153. Stream size                              : 67.2 KiB (0%)
  154. Title                                    : Ελληνικ?
  155. Language                                 : Greek
  156. Default                                  : No
  157. Forced                                   : No
  158. Text #9
  159. ID                                       : 11
  160. Format                                   : UTF-8
  161. Codec ID                                 : S_TEXT/UTF8
  162. Codec ID/Info                            : UTF-8 Plain Text
  163. Duration                                 : 1 h 36 min
  164. Bit rate                                 : 60 b/s
  165. Count of elements                        : 1394
  166. Stream size                              : 42.8 KiB (0%)
  167. Title                                    : Espa?ol (Espa?a)
  168. Language                                 : Spanish
  169. Default                                  : No
  170. Forced                                   : No
  171. Text #10
  172. ID                                       : 12
  173. Format                                   : UTF-8
  174. Codec ID                                 : S_TEXT/UTF8
  175. Codec ID/Info                            : UTF-8 Plain Text
  176. Duration                                 : 1 h 36 min
  177. Bit rate                                 : 61 b/s
  178. Count of elements                        : 1411
  179. Stream size                              : 43.3 KiB (0%)
  180. Title                                    : Espa?ol (Latinoamérica)
  181. Language                                 : Spanish
  182. Default                                  : No
  183. Forced                                   : No
  184. Text #11
  185. ID                                       : 13
  186. Format                                   : UTF-8
  187. Codec ID                                 : S_TEXT/UTF8
  188. Codec ID/Info                            : UTF-8 Plain Text
  189. Duration                                 : 1 h 36 min
  190. Bit rate                                 : 57 b/s
  191. Count of elements                        : 1269
  192. Stream size                              : 40.8 KiB (0%)
  193. Title                                    : eesti
  194. Language                                 : Estonian
  195. Default                                  : No
  196. Forced                                   : No
  197. Text #12
  198. ID                                       : 14
  199. Format                                   : UTF-8
  200. Codec ID                                 : S_TEXT/UTF8
  201. Codec ID/Info                            : UTF-8 Plain Text
  202. Duration                                 : 1 h 36 min
  203. Bit rate                                 : 56 b/s
  204. Count of elements                        : 1404
  205. Stream size                              : 39.7 KiB (0%)
  206. Title                                    : Suomi
  207. Language                                 : Finnish
  208. Default                                  : No
  209. Forced                                   : No
  210. Text #13
  211. ID                                       : 15
  212. Format                                   : UTF-8
  213. Codec ID                                 : S_TEXT/UTF8
  214. Codec ID/Info                            : UTF-8 Plain Text
  215. Duration                                 : 1 h 36 min
  216. Bit rate                                 : 51 b/s
  217. Count of elements                        : 1357
  218. Stream size                              : 36.3 KiB (0%)
  219. Title                                    : Fran?ais (Canada)
  220. Language                                 : French
  221. Default                                  : No
  222. Forced                                   : No
  223. Text #14
  224. ID                                       : 16
  225. Format                                   : UTF-8
  226. Codec ID                                 : S_TEXT/UTF8
  227. Codec ID/Info                            : UTF-8 Plain Text
  228. Duration                                 : 1 h 36 min
  229. Bit rate                                 : 51 b/s
  230. Count of elements                        : 1356
  231. Stream size                              : 36.2 KiB (0%)
  232. Title                                    : Fran?ais (France)
  233. Language                                 : French
  234. Default                                  : No
  235. Forced                                   : No
  236. Text #15
  237. ID                                       : 17
  238. Format                                   : UTF-8
  239. Codec ID                                 : S_TEXT/UTF8
  240. Codec ID/Info                            : UTF-8 Plain Text
  241. Duration                                 : 1 h 36 min
  242. Bit rate                                 : 84 b/s
  243. Count of elements                        : 1415
  244. Stream size                              : 59.6 KiB (0%)
  245. Title                                    : ?????
  246. Language                                 : Hebrew
  247. Default                                  : No
  248. Forced                                   : No
  249. Text #16
  250. ID                                       : 18
  251. Format                                   : UTF-8
  252. Codec ID                                 : S_TEXT/UTF8
  253. Codec ID/Info                            : UTF-8 Plain Text
  254. Duration                                 : 1 h 36 min
  255. Bit rate                                 : 145 b/s
  256. Count of elements                        : 1416
  257. Stream size                              : 103 KiB (0%)
  258. Title                                    : ??????
  259. Language                                 : Hindi
  260. Default                                  : No
  261. Forced                                   : No
  262. Text #17
  263. ID                                       : 19
  264. Format                                   : UTF-8
  265. Codec ID                                 : S_TEXT/UTF8
  266. Codec ID/Info                            : UTF-8 Plain Text
  267. Duration                                 : 1 h 36 min
  268. Bit rate                                 : 58 b/s
  269. Count of elements                        : 1412
  270. Stream size                              : 41.1 KiB (0%)
  271. Title                                    : magyar
  272. Language                                 : Hungarian
  273. Default                                  : No
  274. Forced                                   : No
  275. Text #18
  276. ID                                       : 20
  277. Format                                   : UTF-8
  278. Codec ID                                 : S_TEXT/UTF8
  279. Codec ID/Info                            : UTF-8 Plain Text
  280. Duration                                 : 1 h 36 min
  281. Bit rate                                 : 57 b/s
  282. Count of elements                        : 1410
  283. Stream size                              : 40.3 KiB (0%)
  284. Title                                    : Bahasa Indonesia
  285. Language                                 : Indonesian
  286. Default                                  : No
  287. Forced                                   : No
  288. Text #19
  289. ID                                       : 21
  290. Format                                   : UTF-8
  291. Codec ID                                 : S_TEXT/UTF8
  292. Codec ID/Info                            : UTF-8 Plain Text
  293. Duration                                 : 1 h 36 min
  294. Bit rate                                 : 64 b/s
  295. Count of elements                        : 1327
  296. Stream size                              : 45.5 KiB (0%)
  297. Title                                    : Italiano
  298. Language                                 : Italian
  299. Default                                  : No
  300. Forced                                   : No
  301. Text #20
  302. ID                                       : 22
  303. Format                                   : UTF-8
  304. Codec ID                                 : S_TEXT/UTF8
  305. Codec ID/Info                            : UTF-8 Plain Text
  306. Duration                                 : 1 h 36 min
  307. Bit rate                                 : 52 b/s
  308. Count of elements                        : 1348
  309. Stream size                              : 37.1 KiB (0%)
  310. Title                                    : 日本語
  311. Language                                 : Japanese
  312. Default                                  : No
  313. Forced                                   : No
  314. Text #21
  315. ID                                       : 23
  316. Format                                   : UTF-8
  317. Codec ID                                 : S_TEXT/UTF8
  318. Codec ID/Info                            : UTF-8 Plain Text
  319. Duration                                 : 1 h 36 min
  320. Bit rate                                 : 63 b/s
  321. Count of elements                        : 1416
  322. Stream size                              : 44.4 KiB (0%)
  323. Title                                    : ???
  324. Language                                 : Korean
  325. Default                                  : No
  326. Forced                                   : No
  327. Text #22
  328. ID                                       : 24
  329. Format                                   : UTF-8
  330. Codec ID                                 : S_TEXT/UTF8
  331. Codec ID/Info                            : UTF-8 Plain Text
  332. Duration                                 : 1 h 36 min
  333. Bit rate                                 : 60 b/s
  334. Count of elements                        : 1412
  335. Stream size                              : 42.6 KiB (0%)
  336. Title                                    : lietuvi?
  337. Language                                 : Lithuanian
  338. Default                                  : No
  339. Forced                                   : No
  340. Text #23
  341. ID                                       : 25
  342. Format                                   : UTF-8
  343. Codec ID                                 : S_TEXT/UTF8
  344. Codec ID/Info                            : UTF-8 Plain Text
  345. Duration                                 : 1 h 36 min
  346. Bit rate                                 : 62 b/s
  347. Count of elements                        : 1405
  348. Stream size                              : 44.2 KiB (0%)
  349. Title                                    : latvie?u
  350. Language                                 : Latvian
  351. Default                                  : No
  352. Forced                                   : No
  353. Text #24
  354. ID                                       : 26
  355. Format                                   : UTF-8
  356. Codec ID                                 : S_TEXT/UTF8
  357. Codec ID/Info                            : UTF-8 Plain Text
  358. Duration                                 : 1 h 36 min
  359. Bit rate                                 : 64 b/s
  360. Count of elements                        : 1410
  361. Stream size                              : 45.2 KiB (0%)
  362. Title                                    : Bahasa Melayu
  363. Language                                 : Malay
  364. Default                                  : No
  365. Forced                                   : No
  366. Text #25
  367. ID                                       : 27
  368. Format                                   : UTF-8
  369. Codec ID                                 : S_TEXT/UTF8
  370. Codec ID/Info                            : UTF-8 Plain Text
  371. Duration                                 : 1 h 36 min
  372. Bit rate                                 : 53 b/s
  373. Count of elements                        : 1252
  374. Stream size                              : 37.6 KiB (0%)
  375. Title                                    : Nederlands
  376. Language                                 : Dutch
  377. Default                                  : No
  378. Forced                                   : No
  379. Text #26
  380. ID                                       : 28
  381. Format                                   : UTF-8
  382. Codec ID                                 : S_TEXT/UTF8
  383. Codec ID/Info                            : UTF-8 Plain Text
  384. Duration                                 : 1 h 36 min
  385. Bit rate                                 : 59 b/s
  386. Count of elements                        : 1220
  387. Stream size                              : 41.7 KiB (0%)
  388. Title                                    : norsk
  389. Language                                 : Norwegian
  390. Default                                  : No
  391. Forced                                   : No
  392. Text #27
  393. ID                                       : 29
  394. Format                                   : UTF-8
  395. Codec ID                                 : S_TEXT/UTF8
  396. Codec ID/Info                            : UTF-8 Plain Text
  397. Duration                                 : 1 h 36 min
  398. Bit rate                                 : 56 b/s
  399. Count of elements                        : 1410
  400. Stream size                              : 39.6 KiB (0%)
  401. Title                                    : polski
  402. Language                                 : Polish
  403. Default                                  : No
  404. Forced                                   : No
  405. Text #28
  406. ID                                       : 30
  407. Format                                   : UTF-8
  408. Codec ID                                 : S_TEXT/UTF8
  409. Codec ID/Info                            : UTF-8 Plain Text
  410. Duration                                 : 1 h 36 min
  411. Bit rate                                 : 56 b/s
  412. Count of elements                        : 1402
  413. Stream size                              : 40.1 KiB (0%)
  414. Title                                    : Português
  415. Language                                 : Portuguese
  416. Default                                  : No
  417. Forced                                   : No
  418. Text #29
  419. ID                                       : 31
  420. Format                                   : UTF-8
  421. Codec ID                                 : S_TEXT/UTF8
  422. Codec ID/Info                            : UTF-8 Plain Text
  423. Duration                                 : 1 h 36 min
  424. Bit rate                                 : 53 b/s
  425. Count of elements                        : 1411
  426. Stream size                              : 37.6 KiB (0%)
  427. Title                                    : Português (Brasil)
  428. Language                                 : Portuguese
  429. Default                                  : No
  430. Forced                                   : No
  431. Text #30
  432. ID                                       : 32
  433. Format                                   : UTF-8
  434. Codec ID                                 : S_TEXT/UTF8
  435. Codec ID/Info                            : UTF-8 Plain Text
  436. Duration                                 : 1 h 36 min
  437. Bit rate                                 : 94 b/s
  438. Count of elements                        : 1415
  439. Stream size                              : 66.8 KiB (0%)
  440. Title                                    : Русский
  441. Language                                 : Russian
  442. Default                                  : No
  443. Forced                                   : No
  444. Text #31
  445. ID                                       : 33
  446. Format                                   : UTF-8
  447. Codec ID                                 : S_TEXT/UTF8
  448. Codec ID/Info                            : UTF-8 Plain Text
  449. Duration                                 : 1 h 36 min
  450. Bit rate                                 : 58 b/s
  451. Count of elements                        : 1413
  452. Stream size                              : 41.4 KiB (0%)
  453. Title                                    : Sloven?ina
  454. Language                                 : Slovak
  455. Default                                  : No
  456. Forced                                   : No
  457. Text #32
  458. ID                                       : 34
  459. Format                                   : UTF-8
  460. Codec ID                                 : S_TEXT/UTF8
  461. Codec ID/Info                            : UTF-8 Plain Text
  462. Duration                                 : 1 h 36 min
  463. Bit rate                                 : 49 b/s
  464. Count of elements                        : 1405
  465. Stream size                              : 35.1 KiB (0%)
  466. Title                                    : sloven??ina
  467. Language                                 : Slovenian
  468. Default                                  : No
  469. Forced                                   : No
  470. Text #33
  471. ID                                       : 35
  472. Format                                   : UTF-8
  473. Codec ID                                 : S_TEXT/UTF8
  474. Codec ID/Info                            : UTF-8 Plain Text
  475. Duration                                 : 1 h 36 min
  476. Bit rate                                 : 59 b/s
  477. Count of elements                        : 1410
  478. Stream size                              : 42.1 KiB (0%)
  479. Title                                    : Svenska
  480. Language                                 : Swedish
  481. Default                                  : No
  482. Forced                                   : No
  483. Text #34
  484. ID                                       : 36
  485. Format                                   : UTF-8
  486. Codec ID                                 : S_TEXT/UTF8
  487. Codec ID/Info                            : UTF-8 Plain Text
  488. Duration                                 : 1 h 36 min
  489. Bit rate                                 : 190 b/s
  490. Count of elements                        : 1415
  491. Stream size                              : 134 KiB (0%)
  492. Title                                    : ?????
  493. Language                                 : Tamil
  494. Default                                  : No
  495. Forced                                   : No
  496. Text #35
  497. ID                                       : 37
  498. Format                                   : UTF-8
  499. Codec ID                                 : S_TEXT/UTF8
  500. Codec ID/Info                            : UTF-8 Plain Text
  501. Duration                                 : 1 h 36 min
  502. Bit rate                                 : 172 b/s
  503. Count of elements                        : 1413
  504. Stream size                              : 122 KiB (0%)
  505. Title                                    : ??????
  506. Language                                 : Telugu
  507. Default                                  : No
  508. Forced                                   : No
  509. Text #36
  510. ID                                       : 38
  511. Format                                   : UTF-8
  512. Codec ID                                 : S_TEXT/UTF8
  513. Codec ID/Info                            : UTF-8 Plain Text
  514. Duration                                 : 1 h 36 min
  515. Bit rate                                 : 155 b/s
  516. Count of elements                        : 1415
  517. Stream size                              : 109 KiB (0%)
  518. Title                                    : ???
  519. Language                                 : Thai
  520. Default                                  : No
  521. Forced                                   : No
  522. Text #37
  523. ID                                       : 39
  524. Format                                   : UTF-8
  525. Codec ID                                 : S_TEXT/UTF8
  526. Codec ID/Info                            : UTF-8 Plain Text
  527. Duration                                 : 1 h 36 min
  528. Bit rate                                 : 60 b/s
  529. Count of elements                        : 1401
  530. Stream size                              : 42.4 KiB (0%)
  531. Title                                    : Türk?e
  532. Language                                 : Turkish
  533. Default                                  : No
  534. Forced                                   : No
  535. Text #38
  536. ID                                       : 40
  537. Format                                   : UTF-8
  538. Codec ID                                 : S_TEXT/UTF8
  539. Codec ID/Info                            : UTF-8 Plain Text
  540. Duration                                 : 1 h 36 min
  541. Bit rate                                 : 89 b/s
  542. Count of elements                        : 1415
  543. Stream size                              : 63.3 KiB (0%)
  544. Title                                    : укра?нська
  545. Language                                 : Ukrainian
  546. Default                                  : No
  547. Forced                                   : No
  548. Text #39
  549. ID                                       : 41
  550. Format                                   : UTF-8
  551. Codec ID                                 : S_TEXT/UTF8
  552. Codec ID/Info                            : UTF-8 Plain Text
  553. Duration                                 : 1 h 36 min
  554. Bit rate                                 : 77 b/s
  555. Count of elements                        : 1412
  556. Stream size                              : 54.4 KiB (0%)
  557. Title                                    : Ti?ng Vi?t
  558. Language                                 : Vietnamese
  559. Default                                  : No
  560. Forced                                   : No
  561. Text #40
  562. ID                                       : 42
  563. Format                                   : UTF-8
  564. Codec ID                                 : S_TEXT/UTF8
  565. Codec ID/Info                            : UTF-8 Plain Text
  566. Duration                                 : 1 h 36 min
  567. Bit rate                                 : 60 b/s
  568. Count of elements                        : 1416
  569. Stream size                              : 42.4 KiB (0%)
  570. Title                                    : 廣東話
  571. Language                                 : Chinese
  572. Default                                  : No
  573. Forced                                   : No
  574. Text #41
  575. ID                                       : 43
  576. Format                                   : UTF-8
  577. Codec ID                                 : S_TEXT/UTF8
  578. Codec ID/Info                            : UTF-8 Plain Text
  579. Duration                                 : 1 h 36 min
  580. Bit rate                                 : 56 b/s
  581. Count of elements                        : 1416
  582. Stream size                              : 39.8 KiB (0%)
  583. Title                                    : 中文(繁體)
  584. Language                                 : Chinese
  585. Default                                  : No
  586. Forced                                   : No
  587. Text #42
  588. ID                                       : 44
  589. Format                                   : UTF-8
  590. Codec ID                                 : S_TEXT/UTF8
  591. Codec ID/Info                            : UTF-8 Plain Text
  592. Duration                                 : 1 h 36 min
  593. Bit rate                                 : 55 b/s
  594. Count of elements                        : 1415
  595. Stream size                              : 39.0 KiB (0%)
  596. Title                                    : 中文(简体)
  597. Language                                 : Chinese
  598. Default                                  : No
  599. Forced                                   : No
复制代码



                                       
                                       

                                       
                                       
                                       




回复

使用道具 举报

 成长值: 1825

发表于 2021-1-3 20:54:49 | 显示全部楼层

我看不错噢 谢谢楼主!蓝光电影网越来越好!
回复 支持 反对

使用道具 举报

发表于 2021-1-3 21:19:41 | 显示全部楼层
楼主发贴辛苦了,谢谢楼主分享!我觉得蓝光电影网是注册对了!
回复 支持 反对

使用道具 举报

发表于 2021-1-4 01:06:22 | 显示全部楼层

楼主太厉害了!楼主,电影应该很好看我觉得蓝光电影网真是个好地方!
回复 支持 反对

使用道具 举报

发表于 2021-1-4 10:18:47 | 显示全部楼层

这个帖子不回对不起自己!我想我是一天也不能离开蓝光电影网
回复 支持 反对

使用道具 举报

发表于 2021-1-4 13:53:02 | 显示全部楼层
不错,收下了。
回复 支持 反对

使用道具 举报

发表于 2021-1-4 13:55:34 | 显示全部楼层
谢谢楼主分享
回复 支持 反对

使用道具 举报

 成长值: 220

发表于 2021-1-4 15:03:23 | 显示全部楼层
谢谢分享
回复

使用道具 举报

发表于 2021-1-4 15:42:18 | 显示全部楼层

楼主太厉害了!楼主,电影应该很好看我觉得蓝光电影网真是个好地方!
回复 支持 反对

使用道具 举报

已抛锚 成长值: 3730

发表于 2021-1-4 15:50:15 | 显示全部楼层
谢谢分享
回复

使用道具 举报

懒得打字嘛,点击右侧快捷回复 【右侧内容,后台自定义】
您需要登录后才可以回帖 登录 | 立即加入

本版积分规则

现在加入蓝光电影网,注册一个账号
上个主题 下个主题 快速回复 收藏帖子 返回列表 客服中心 搜索

手机版|小黑屋| 蓝光电影网 |网站地图 

Copyright © 2015-2019 Comsenz Inc.  Template by 蓝光电影论坛 All Rights Reserved.

Powered by 蓝光电影网 X3.4

特别声明:本站所有资源均由网上收集而来,版权归原影音公司所有,如果侵犯了你的权益,请通知我们,我们会及时删除侵权内容.

快速回复 返回顶部 返回列表