找回密码

蓝光电影网

查看: 611|回复: 5

[2160p-WEB] 布鲁斯·斯普林斯汀:给你的信 Bruce.Springsteen.Letter.To.You.2020.2160p.WEB.h265-KOGi 13.03GB

[复制链接]

 成长值: 17820

发表于 2021-1-1 18:29:25 | 显示全部楼层 |阅读模式
布鲁斯·斯普林斯汀:给你的信 Bruce.Springsteen.Letter.To.You.2020.2160p.WEB.h265-KOGi 13.03GB-1.jpg


◎译  名 布鲁斯·斯普林斯汀:给你的信
◎片  名 Bruce Springsteen: Letter to You
◎年  代 2020
◎产  地 美国
◎类  别 短片 / 音乐
◎语  言 英语
◎上映日期 2020-09-10(美国)
◎IMDb评分  7.4/10 from 558 users
◎IMDb链接  https://www.imdb.com/title/tt13093506/
◎豆瓣评分 /10 from 0 users
◎豆瓣链接 https://movie.douban.com/subject/35214575/
◎片  长 85分钟
◎导  演 托姆·齐穆尼 Thom Zimny
◎主  演 布鲁斯·斯普林斯汀 Bruce Springsteen
◎标  签 美国 | 音乐 | 纪录片 | Springsteen | music | Documentary | Bruce_Springsteen | Bruce
◎简  介


  Apple TV+ 独家推出这位美国摇滚教父新碟制作过程全纪录,纪录片将带领观众一睹这位教父的音乐创作过程,由 Bruce 本人亲自剖白制作全新专辑《Letter To You》的所思所感,并收录 Bruce 与传奇乐队班底 The E Street Band 的原整歌曲演出、幕后花絮片段及从未曝光的昔日珍贵片段新作不但向 Bruce 身后的 E Street Band 一众出色乐手致敬,亦是 Bruce 本人向摇滚音乐致敬的深情自白书。
  1. Video
  2. ID                                       : 1
  3. Format                                   : HEVC
  4. Format/Info                              : High Efficiency Video Coding
  5. Format profile                           : Main [email protected]@High
  6. Codec ID                                 : V_MPEGH/ISO/HEVC
  7. Duration                                 : 1 h 25 min
  8. Bit rate                                 : 20.7 Mb/s
  9. Width                                    : 3 840 pixels
  10. Height                                   : 1 606 pixels
  11. Display aspect ratio                     : 2.40:1
  12. Frame rate mode                          : Constant
  13. Frame rate                               : 23.976 (24000/1001/189150) FPS
  14. Color space                              : YUV
  15. Chroma subsampling                       : 4:2:0
  16. Bit depth                                : 10 bits
  17. Bits/(Pixel*Frame)                       : 0.140
  18. Stream size                              : 12.4 GiB (96%)
  19. Language                                 : English
  20. Default                                  : Yes
  21. Forced                                   : No
  22. Color range                              : Limited
  23. Color primaries                          : BT.709
  24. Transfer characteristics                 : BT.709
  25. Matrix coefficients                      : BT.709
  26. Audio
  27. ID                                       : 2
  28. Format                                   : E-AC-3 JOC
  29. Format/Info                              : Enhanced AC-3 with Joint Object Coding
  30. Commercial name                          : Dolby Digital Plus with Dolby Atmos
  31. Codec ID                                 : A_EAC3
  32. Duration                                 : 1 h 25 min
  33. Bit rate mode                            : Constant
  34. Bit rate                                 : 768 kb/s
  35. Channel(s)                               : 6 channels
  36. Channel layout                           : L R C LFE Ls Rs
  37. Sampling rate                            : 48.0 kHz
  38. Frame rate                               : 31.250 FPS (1536 SPF)
  39. Compression mode                         : Lossy
  40. Stream size                              : 472 MiB (4%)
  41. Language                                 : English
  42. Service kind                             : Complete Main
  43. Default                                  : Yes
  44. Forced                                   : No
  45. Complexity index                         : 16
  46. Number of dynamic objects                : 15
  47. Bed channel count                        : 1 channel
  48. Bed channel configuration                : LFE
  49. Text #1
  50. ID                                       : 3
  51. Format                                   : UTF-8
  52. Codec ID                                 : S_TEXT/UTF8
  53. Codec ID/Info                            : UTF-8 Plain Text
  54. Duration                                 : 1 h 25 min
  55. Bit rate                                 : 52 b/s
  56. Count of elements                        : 960
  57. Stream size                              : 32.9 KiB (0%)
  58. Title                                    : English
  59. Language                                 : English
  60. Default                                  : No
  61. Forced                                   : No
  62. Text #2
  63. ID                                       : 4
  64. Format                                   : UTF-8
  65. Codec ID                                 : S_TEXT/UTF8
  66. Codec ID/Info                            : UTF-8 Plain Text
  67. Duration                                 : 1 h 25 min
  68. Bit rate                                 : 62 b/s
  69. Count of elements                        : 1008
  70. Stream size                              : 39.2 KiB (0%)
  71. Title                                    : English (SDH)
  72. Language                                 : English
  73. Default                                  : No
  74. Forced                                   : No
  75. Text #3
  76. ID                                       : 5
  77. Format                                   : UTF-8
  78. Codec ID                                 : S_TEXT/UTF8
  79. Codec ID/Info                            : UTF-8 Plain Text
  80. Duration                                 : 1 h 25 min
  81. Bit rate                                 : 41 b/s
  82. Count of elements                        : 492
  83. Stream size                              : 25.9 KiB (0%)
  84. Title                                    : ???????
  85. Language                                 : Arabic
  86. Default                                  : No
  87. Forced                                   : No
  88. Text #4
  89. ID                                       : 6
  90. Format                                   : UTF-8
  91. Codec ID                                 : S_TEXT/UTF8
  92. Codec ID/Info                            : UTF-8 Plain Text
  93. Duration                                 : 1 h 25 min
  94. Bit rate                                 : 45 b/s
  95. Count of elements                        : 472
  96. Stream size                              : 28.7 KiB (0%)
  97. Title                                    : български
  98. Language                                 : Bulgarian
  99. Default                                  : No
  100. Forced                                   : No
  101. Text #5
  102. ID                                       : 7
  103. Format                                   : UTF-8
  104. Codec ID                                 : S_TEXT/UTF8
  105. Codec ID/Info                            : UTF-8 Plain Text
  106. Duration                                 : 1 h 25 min
  107. Bit rate                                 : 29 b/s
  108. Count of elements                        : 484
  109. Stream size                              : 18.3 KiB (0%)
  110. Title                                    : ?e?tina
  111. Language                                 : Czech
  112. Default                                  : No
  113. Forced                                   : No
  114. Text #6
  115. ID                                       : 8
  116. Format                                   : UTF-8
  117. Codec ID                                 : S_TEXT/UTF8
  118. Codec ID/Info                            : UTF-8 Plain Text
  119. Duration                                 : 1 h 25 min
  120. Bit rate                                 : 27 b/s
  121. Count of elements                        : 451
  122. Stream size                              : 17.1 KiB (0%)
  123. Title                                    : dansk
  124. Language                                 : Danish
  125. Default                                  : No
  126. Forced                                   : No
  127. Text #7
  128. ID                                       : 9
  129. Format                                   : UTF-8
  130. Codec ID                                 : S_TEXT/UTF8
  131. Codec ID/Info                            : UTF-8 Plain Text
  132. Duration                                 : 1 h 25 min
  133. Bit rate                                 : 29 b/s
  134. Count of elements                        : 485
  135. Stream size                              : 18.4 KiB (0%)
  136. Title                                    : Deutsch
  137. Language                                 : German
  138. Default                                  : No
  139. Forced                                   : No
  140. Text #8
  141. ID                                       : 10
  142. Format                                   : UTF-8
  143. Codec ID                                 : S_TEXT/UTF8
  144. Codec ID/Info                            : UTF-8 Plain Text
  145. Duration                                 : 1 h 25 min
  146. Bit rate                                 : 52 b/s
  147. Count of elements                        : 482
  148. Stream size                              : 33.2 KiB (0%)
  149. Title                                    : Ελληνικ?
  150. Language                                 : Greek
  151. Default                                  : No
  152. Forced                                   : No
  153. Text #9
  154. ID                                       : 11
  155. Format                                   : UTF-8
  156. Codec ID                                 : S_TEXT/UTF8
  157. Codec ID/Info                            : UTF-8 Plain Text
  158. Duration                                 : 1 h 25 min
  159. Bit rate                                 : 28 b/s
  160. Count of elements                        : 486
  161. Stream size                              : 17.8 KiB (0%)
  162. Title                                    : Espa?ol (Latinoamérica)
  163. Language                                 : Spanish
  164. Default                                  : No
  165. Forced                                   : No
  166. Text #10
  167. ID                                       : 12
  168. Format                                   : UTF-8
  169. Codec ID                                 : S_TEXT/UTF8
  170. Codec ID/Info                            : UTF-8 Plain Text
  171. Duration                                 : 1 h 25 min
  172. Bit rate                                 : 29 b/s
  173. Count of elements                        : 483
  174. Stream size                              : 18.7 KiB (0%)
  175. Title                                    : Espa?ol (Espa?a)
  176. Language                                 : Spanish
  177. Default                                  : No
  178. Forced                                   : No
  179. Text #11
  180. ID                                       : 13
  181. Format                                   : UTF-8
  182. Codec ID                                 : S_TEXT/UTF8
  183. Codec ID/Info                            : UTF-8 Plain Text
  184. Duration                                 : 1 h 25 min
  185. Bit rate                                 : 27 b/s
  186. Count of elements                        : 467
  187. Stream size                              : 17.5 KiB (0%)
  188. Title                                    : eesti
  189. Language                                 : Estonian
  190. Default                                  : No
  191. Forced                                   : No
  192. Text #12
  193. ID                                       : 14
  194. Format                                   : UTF-8
  195. Codec ID                                 : S_TEXT/UTF8
  196. Codec ID/Info                            : UTF-8 Plain Text
  197. Duration                                 : 1 h 25 min
  198. Bit rate                                 : 26 b/s
  199. Count of elements                        : 483
  200. Stream size                              : 16.8 KiB (0%)
  201. Title                                    : Suomi
  202. Language                                 : Finnish
  203. Default                                  : No
  204. Forced                                   : No
  205. Text #13
  206. ID                                       : 15
  207. Format                                   : UTF-8
  208. Codec ID                                 : S_TEXT/UTF8
  209. Codec ID/Info                            : UTF-8 Plain Text
  210. Duration                                 : 1 h 25 min
  211. Bit rate                                 : 30 b/s
  212. Count of elements                        : 489
  213. Stream size                              : 19.0 KiB (0%)
  214. Title                                    : Fran?ais (Canada)
  215. Language                                 : French
  216. Default                                  : No
  217. Forced                                   : No
  218. Text #14
  219. ID                                       : 16
  220. Format                                   : UTF-8
  221. Codec ID                                 : S_TEXT/UTF8
  222. Codec ID/Info                            : UTF-8 Plain Text
  223. Duration                                 : 1 h 25 min
  224. Bit rate                                 : 30 b/s
  225. Count of elements                        : 489
  226. Stream size                              : 19.0 KiB (0%)
  227. Title                                    : Fran?ais (France)
  228. Language                                 : French
  229. Default                                  : No
  230. Forced                                   : No
  231. Text #15
  232. ID                                       : 17
  233. Format                                   : UTF-8
  234. Codec ID                                 : S_TEXT/UTF8
  235. Codec ID/Info                            : UTF-8 Plain Text
  236. Duration                                 : 1 h 25 min
  237. Bit rate                                 : 39 b/s
  238. Count of elements                        : 490
  239. Stream size                              : 25.0 KiB (0%)
  240. Title                                    : ?????
  241. Language                                 : Hebrew
  242. Default                                  : No
  243. Forced                                   : No
  244. Text #16
  245. ID                                       : 18
  246. Format                                   : UTF-8
  247. Codec ID                                 : S_TEXT/UTF8
  248. Codec ID/Info                            : UTF-8 Plain Text
  249. Duration                                 : 1 h 25 min
  250. Bit rate                                 : 71 b/s
  251. Count of elements                        : 493
  252. Stream size                              : 44.8 KiB (0%)
  253. Title                                    : ??????
  254. Language                                 : Hindi
  255. Default                                  : No
  256. Forced                                   : No
  257. Text #17
  258. ID                                       : 19
  259. Format                                   : UTF-8
  260. Codec ID                                 : S_TEXT/UTF8
  261. Codec ID/Info                            : UTF-8 Plain Text
  262. Duration                                 : 1 h 25 min
  263. Bit rate                                 : 29 b/s
  264. Count of elements                        : 481
  265. Stream size                              : 18.3 KiB (0%)
  266. Title                                    : magyar
  267. Language                                 : Hungarian
  268. Default                                  : No
  269. Forced                                   : No
  270. Text #18
  271. ID                                       : 20
  272. Format                                   : UTF-8
  273. Codec ID                                 : S_TEXT/UTF8
  274. Codec ID/Info                            : UTF-8 Plain Text
  275. Duration                                 : 1 h 25 min
  276. Bit rate                                 : 29 b/s
  277. Count of elements                        : 487
  278. Stream size                              : 18.3 KiB (0%)
  279. Title                                    : Bahasa Indonesia
  280. Language                                 : Indonesian
  281. Default                                  : No
  282. Forced                                   : No
  283. Text #19
  284. ID                                       : 21
  285. Format                                   : UTF-8
  286. Codec ID                                 : S_TEXT/UTF8
  287. Codec ID/Info                            : UTF-8 Plain Text
  288. Duration                                 : 1 h 25 min
  289. Bit rate                                 : 26 b/s
  290. Count of elements                        : 479
  291. Stream size                              : 16.7 KiB (0%)
  292. Title                                    : Italiano
  293. Language                                 : Italian
  294. Default                                  : No
  295. Forced                                   : No
  296. Text #20
  297. ID                                       : 22
  298. Format                                   : UTF-8
  299. Codec ID                                 : S_TEXT/UTF8
  300. Codec ID/Info                            : UTF-8 Plain Text
  301. Duration                                 : 1 h 25 min
  302. Bit rate                                 : 27 b/s
  303. Count of elements                        : 518
  304. Stream size                              : 17.1 KiB (0%)
  305. Title                                    : 日本語
  306. Language                                 : Japanese
  307. Default                                  : No
  308. Forced                                   : No
  309. Text #21
  310. ID                                       : 23
  311. Format                                   : UTF-8
  312. Codec ID                                 : S_TEXT/UTF8
  313. Codec ID/Info                            : UTF-8 Plain Text
  314. Duration                                 : 1 h 25 min
  315. Bit rate                                 : 32 b/s
  316. Count of elements                        : 493
  317. Stream size                              : 20.4 KiB (0%)
  318. Title                                    : ???
  319. Language                                 : Korean
  320. Default                                  : No
  321. Forced                                   : No
  322. Text #22
  323. ID                                       : 24
  324. Format                                   : UTF-8
  325. Codec ID                                 : S_TEXT/UTF8
  326. Codec ID/Info                            : UTF-8 Plain Text
  327. Duration                                 : 1 h 25 min
  328. Bit rate                                 : 27 b/s
  329. Count of elements                        : 486
  330. Stream size                              : 17.5 KiB (0%)
  331. Title                                    : lietuvi?
  332. Language                                 : Lithuanian
  333. Default                                  : No
  334. Forced                                   : No
  335. Text #23
  336. ID                                       : 25
  337. Format                                   : UTF-8
  338. Codec ID                                 : S_TEXT/UTF8
  339. Codec ID/Info                            : UTF-8 Plain Text
  340. Duration                                 : 1 h 25 min
  341. Bit rate                                 : 30 b/s
  342. Count of elements                        : 487
  343. Stream size                              : 19.0 KiB (0%)
  344. Title                                    : latvie?u
  345. Language                                 : Latvian
  346. Default                                  : No
  347. Forced                                   : No
  348. Text #24
  349. ID                                       : 26
  350. Format                                   : UTF-8
  351. Codec ID                                 : S_TEXT/UTF8
  352. Codec ID/Info                            : UTF-8 Plain Text
  353. Duration                                 : 1 h 25 min
  354. Bit rate                                 : 29 b/s
  355. Count of elements                        : 487
  356. Stream size                              : 18.8 KiB (0%)
  357. Title                                    : Bahasa Melayu
  358. Language                                 : Malay
  359. Default                                  : No
  360. Forced                                   : No
  361. Text #25
  362. ID                                       : 27
  363. Format                                   : UTF-8
  364. Codec ID                                 : S_TEXT/UTF8
  365. Codec ID/Info                            : UTF-8 Plain Text
  366. Duration                                 : 1 h 25 min
  367. Bit rate                                 : 28 b/s
  368. Count of elements                        : 465
  369. Stream size                              : 17.8 KiB (0%)
  370. Title                                    : Nederlands
  371. Language                                 : Dutch
  372. Default                                  : No
  373. Forced                                   : No
  374. Text #26
  375. ID                                       : 28
  376. Format                                   : UTF-8
  377. Codec ID                                 : S_TEXT/UTF8
  378. Codec ID/Info                            : UTF-8 Plain Text
  379. Duration                                 : 1 h 25 min
  380. Bit rate                                 : 27 b/s
  381. Count of elements                        : 484
  382. Stream size                              : 17.0 KiB (0%)
  383. Title                                    : norsk
  384. Language                                 : Norwegian
  385. Default                                  : No
  386. Forced                                   : No
  387. Text #27
  388. ID                                       : 29
  389. Format                                   : UTF-8
  390. Codec ID                                 : S_TEXT/UTF8
  391. Codec ID/Info                            : UTF-8 Plain Text
  392. Duration                                 : 1 h 25 min
  393. Bit rate                                 : 28 b/s
  394. Count of elements                        : 487
  395. Stream size                              : 17.8 KiB (0%)
  396. Title                                    : polski
  397. Language                                 : Polish
  398. Default                                  : No
  399. Forced                                   : No
  400. Text #28
  401. ID                                       : 30
  402. Format                                   : UTF-8
  403. Codec ID                                 : S_TEXT/UTF8
  404. Codec ID/Info                            : UTF-8 Plain Text
  405. Duration                                 : 1 h 25 min
  406. Bit rate                                 : 29 b/s
  407. Count of elements                        : 488
  408. Stream size                              : 18.5 KiB (0%)
  409. Title                                    : Português (Brasil)
  410. Language                                 : Portuguese
  411. Default                                  : No
  412. Forced                                   : No
  413. Text #29
  414. ID                                       : 31
  415. Format                                   : UTF-8
  416. Codec ID                                 : S_TEXT/UTF8
  417. Codec ID/Info                            : UTF-8 Plain Text
  418. Duration                                 : 1 h 25 min
  419. Bit rate                                 : 29 b/s
  420. Count of elements                        : 485
  421. Stream size                              : 18.7 KiB (0%)
  422. Title                                    : Português
  423. Language                                 : Portuguese
  424. Default                                  : No
  425. Forced                                   : No
  426. Text #30
  427. ID                                       : 32
  428. Format                                   : UTF-8
  429. Codec ID                                 : S_TEXT/UTF8
  430. Codec ID/Info                            : UTF-8 Plain Text
  431. Duration                                 : 1 h 25 min
  432. Bit rate                                 : 47 b/s
  433. Count of elements                        : 491
  434. Stream size                              : 29.7 KiB (0%)
  435. Title                                    : Русский
  436. Language                                 : Russian
  437. Default                                  : No
  438. Forced                                   : No
  439. Text #31
  440. ID                                       : 33
  441. Format                                   : UTF-8
  442. Codec ID                                 : S_TEXT/UTF8
  443. Codec ID/Info                            : UTF-8 Plain Text
  444. Duration                                 : 1 h 25 min
  445. Bit rate                                 : 27 b/s
  446. Count of elements                        : 486
  447. Stream size                              : 17.5 KiB (0%)
  448. Title                                    : Sloven?ina
  449. Language                                 : Slovak
  450. Default                                  : No
  451. Forced                                   : No
  452. Text #32
  453. ID                                       : 34
  454. Format                                   : UTF-8
  455. Codec ID                                 : S_TEXT/UTF8
  456. Codec ID/Info                            : UTF-8 Plain Text
  457. Duration                                 : 1 h 25 min
  458. Bit rate                                 : 24 b/s
  459. Count of elements                        : 487
  460. Stream size                              : 15.6 KiB (0%)
  461. Title                                    : sloven??ina
  462. Language                                 : Slovenian
  463. Default                                  : No
  464. Forced                                   : No
  465. Text #33
  466. ID                                       : 35
  467. Format                                   : UTF-8
  468. Codec ID                                 : S_TEXT/UTF8
  469. Codec ID/Info                            : UTF-8 Plain Text
  470. Duration                                 : 1 h 25 min
  471. Bit rate                                 : 27 b/s
  472. Count of elements                        : 488
  473. Stream size                              : 16.9 KiB (0%)
  474. Title                                    : Svenska
  475. Language                                 : Swedish
  476. Default                                  : No
  477. Forced                                   : No
  478. Text #34
  479. ID                                       : 36
  480. Format                                   : UTF-8
  481. Codec ID                                 : S_TEXT/UTF8
  482. Codec ID/Info                            : UTF-8 Plain Text
  483. Duration                                 : 1 h 25 min
  484. Bit rate                                 : 85 b/s
  485. Count of elements                        : 492
  486. Stream size                              : 53.4 KiB (0%)
  487. Title                                    : ?????
  488. Language                                 : Tamil
  489. Default                                  : No
  490. Forced                                   : No
  491. Text #35
  492. ID                                       : 37
  493. Format                                   : UTF-8
  494. Codec ID                                 : S_TEXT/UTF8
  495. Codec ID/Info                            : UTF-8 Plain Text
  496. Duration                                 : 1 h 25 min
  497. Bit rate                                 : 80 b/s
  498. Count of elements                        : 491
  499. Stream size                              : 50.4 KiB (0%)
  500. Title                                    : ??????
  501. Language                                 : Telugu
  502. Default                                  : No
  503. Forced                                   : No
  504. Text #36
  505. ID                                       : 38
  506. Format                                   : UTF-8
  507. Codec ID                                 : S_TEXT/UTF8
  508. Codec ID/Info                            : UTF-8 Plain Text
  509. Duration                                 : 1 h 25 min
  510. Bit rate                                 : 77 b/s
  511. Count of elements                        : 490
  512. Stream size                              : 48.7 KiB (0%)
  513. Title                                    : ???
  514. Language                                 : Thai
  515. Default                                  : No
  516. Forced                                   : No
  517. Text #37
  518. ID                                       : 39
  519. Format                                   : UTF-8
  520. Codec ID                                 : S_TEXT/UTF8
  521. Codec ID/Info                            : UTF-8 Plain Text
  522. Duration                                 : 1 h 25 min
  523. Bit rate                                 : 29 b/s
  524. Count of elements                        : 488
  525. Stream size                              : 18.5 KiB (0%)
  526. Title                                    : Türk?e
  527. Language                                 : Turkish
  528. Default                                  : No
  529. Forced                                   : No
  530. Text #38
  531. ID                                       : 40
  532. Format                                   : UTF-8
  533. Codec ID                                 : S_TEXT/UTF8
  534. Codec ID/Info                            : UTF-8 Plain Text
  535. Duration                                 : 1 h 25 min
  536. Bit rate                                 : 47 b/s
  537. Count of elements                        : 493
  538. Stream size                              : 29.9 KiB (0%)
  539. Title                                    : укра?нська
  540. Language                                 : Ukrainian
  541. Default                                  : No
  542. Forced                                   : No
  543. Text #39
  544. ID                                       : 41
  545. Format                                   : UTF-8
  546. Codec ID                                 : S_TEXT/UTF8
  547. Codec ID/Info                            : UTF-8 Plain Text
  548. Duration                                 : 1 h 25 min
  549. Bit rate                                 : 38 b/s
  550. Count of elements                        : 491
  551. Stream size                              : 24.2 KiB (0%)
  552. Title                                    : Ti?ng Vi?t
  553. Language                                 : Vietnamese
  554. Default                                  : No
  555. Forced                                   : No
  556. Text #40
  557. ID                                       : 42
  558. Format                                   : UTF-8
  559. Codec ID                                 : S_TEXT/UTF8
  560. Codec ID/Info                            : UTF-8 Plain Text
  561. Duration                                 : 1 h 25 min
  562. Bit rate                                 : 27 b/s
  563. Count of elements                        : 493
  564. Stream size                              : 17.5 KiB (0%)
  565. Title                                    : 廣東話
  566. Language                                 : Chinese
  567. Default                                  : No
  568. Forced                                   : No
  569. Text #41
  570. ID                                       : 43
  571. Format                                   : UTF-8
  572. Codec ID                                 : S_TEXT/UTF8
  573. Codec ID/Info                            : UTF-8 Plain Text
  574. Duration                                 : 1 h 25 min
  575. Bit rate                                 : 25 b/s
  576. Count of elements                        : 493
  577. Stream size                              : 16.2 KiB (0%)
  578. Title                                    : 中文(繁體)
  579. Language                                 : Chinese
  580. Default                                  : No
  581. Forced                                   : No
  582. Text #42
  583. ID                                       : 44
  584. Format                                   : UTF-8
  585. Codec ID                                 : S_TEXT/UTF8
  586. Codec ID/Info                            : UTF-8 Plain Text
  587. Duration                                 : 1 h 25 min
  588. Bit rate                                 : 26 b/s
  589. Count of elements                        : 491
  590. Stream size                              : 16.6 KiB (0%)
  591. Title                                    : 中文(简体)
  592. Language                                 : Chinese
  593. Default                                  : No
  594. Forced                                   : No
复制代码



                                       
                                       

                                       
                                       
                                       




回复

使用道具 举报

发表于 2021-1-3 20:39:41 | 显示全部楼层
谢谢楼主分享!
回复 支持 反对

使用道具 举报

发表于 2021-1-4 01:12:08 | 显示全部楼层
谢谢分享谢谢
回复 支持 反对

使用道具 举报

发表于 2021-1-4 11:53:11 | 显示全部楼层
音乐短片啊,多谢。
回复 支持 反对

使用道具 举报

发表于 2021-1-4 15:03:36 | 显示全部楼层
楼主发贴辛苦了,谢谢楼主分享!我觉得蓝光电影网是注册对了!
回复 支持 反对

使用道具 举报

发表于 2021-1-6 09:11:52 | 显示全部楼层
楼主发贴辛苦了,谢谢楼主分享!我觉得蓝光电影网是注册对了!
回复 支持 反对

使用道具 举报

懒得打字嘛,点击右侧快捷回复 【右侧内容,后台自定义】
您需要登录后才可以回帖 登录 | 立即加入

本版积分规则

现在加入蓝光电影网,注册一个账号
上个主题 下个主题 快速回复 收藏帖子 返回列表 客服中心 搜索

手机版|小黑屋| 蓝光电影网 |网站地图 

Copyright © 2015-2019 Comsenz Inc.  Template by 蓝光电影论坛 All Rights Reserved.

Powered by 蓝光电影网 X3.4

特别声明:本站所有资源均由网上收集而来,版权归原影音公司所有,如果侵犯了你的权益,请通知我们,我们会及时删除侵权内容.

快速回复 返回顶部 返回列表