找回密码

蓝光电影网

查看: 2003|回复: 41

[2160p-WEB] 黑神驹/黑骏马 Black.Beauty.2020.2160p.WEB-DL.DDP5.1.Atmos.DV.x265-MZABI 17.07GB

[复制链接]

 成长值: 17745

发表于 2020-12-29 21:53:40 | 显示全部楼层 |阅读模式
黑神驹/黑骏马 Black.Beauty.2020.2160p.WEB-DL.DDP5.1.Atmos.DV.x265-MZABI 17.07GB-1.jpg


◎译  名 黑神驹/黑骏马
◎片  名 Black Beauty
◎年  代 2020
◎产  地 美国,英国,南非,德国,法国
◎类  别 剧情
◎语  言 英语
◎上映日期 2020-11-27(美国网络)
◎IMDb评分  6.3/10 from 1447 users
◎IMDb链接  https://www.imdb.com/title/tt8484160/
◎豆瓣评分 7.1/10 from 472 users
◎豆瓣链接 https://movie.douban.com/subject/33437777/
◎片  长 110分钟
◎导  演 阿什利·阿维斯 Ashley Avis
◎编  剧 阿什利·阿维斯 Ashley Avis / 安娜·瑟维尔 Anna Sewell
◎主  演 凯特·温丝莱特 Kate Winslet
       麦肯吉·弗依 Mackenzie Foy
       伊恩·格雷 Iain Glen
       卡拉姆·林奇 Calam Lynch
       克莱尔·弗兰妮 Claire Forlani
       Fern Deacon
       马特·里皮 Matt Rippy
       比约恩·施泰因巴赫 Bjorn Steinbach
       帕特里克·利斯特 Patrick Lyster
       哈基姆·凯-卡西姆 Hakeem Kae-Kazim
       亚历克斯·安洛斯 Alex Anlos
       大卫·杜卡斯 David Dukas
       达伦-迈耶 Darron Meyer
       德翁·洛茨 Deon Lotz
       阿什利·泰勒 Ashley Taylor
       阿维纳·亚伯拉罕 Avianah Abrahams
       马克·埃尔德金 Mark Elderkin
       彼得·巴特勒 Peter Butler
◎标  签 动物 | 美国 | 剧情 | 2020 | 凯特·温丝莱特 | 美国电影 | 麦肯吉 | 电影
◎简  介


  影片由阿什利·阿维斯自编自导,故事基于安娜·休厄尔1877年完成的同名畅销小说改编。原小说以“黑神驹”的视角进行第一人称表达,描绘出一部属于“黑神驹”的自传体回忆录。影片将着重描绘17岁女孩乔(弗依饰)与“黑神驹”(温斯莱特配音)间深厚的情感纽带,是“黑神驹”使乔走出了父母离世的精神创伤。
  1. Video
  2. ID                                       : 1
  3. Format                                   : HEVC
  4. Format/Info                              : High Efficiency Video Coding
  5. Format profile                           : Main [email protected]@Main
  6. HDR format                               : Dolby Vision, Version 1.0, dvhe.05.06, BL+RPU
  7. Codec ID                                 : dvhe
  8. Codec ID/Info                            : High Efficiency Video Coding with Dolby Vision
  9. Duration                                 : 1 h 48 min
  10. Bit rate                                 : 21.8 Mb/s
  11. Width                                    : 3 840 pixels
  12. Height                                   : 2 160 pixels
  13. Display aspect ratio                     : 16:9
  14. Frame rate mode                          : Constant
  15. Frame rate                               : 23.976 (24000/1001/189150) FPS
  16. Color space                              : YUV
  17. Chroma subsampling                       : 4:2:0 (Type 0)
  18. Bit depth                                : 10 bits
  19. Bits/(Pixel*Frame)                       : 0.109
  20. Stream size                              : 16.5 GiB (97%)
  21. Default                                  : Yes
  22. Alternate group                          : 1
  23. Encoded date                             : UTC 2020-12-28 12:38:05
  24. Tagged date                              : UTC 2020-12-28 16:19:18
  25. Color range                              : Full
  26. Codec configuration box                  : hvcC+dvcC

  27. Audio
  28. ID                                       : 2
  29. Format                                   : E-AC-3 JOC
  30. Format/Info                              : Enhanced AC-3 with Joint Object Coding
  31. Commercial name                          : Dolby Digital Plus with Dolby Atmos
  32. Codec ID                                 : ac-3
  33. Duration                                 : 1 h 48 min
  34. Bit rate mode                            : Constant
  35. Bit rate                                 : 768 kb/s
  36. Maximum bit rate                         : 811 kb/s
  37. Channel(s)                               : 6 channels
  38. Channel layout                           : L R C LFE Ls Rs
  39. Sampling rate                            : 48.0 kHz
  40. Frame rate                               : 31.250 FPS (1536 SPF)
  41. Compression mode                         : Lossy
  42. Stream size                              : 596 MiB (3%)
  43. Language                                 : English
  44. Service kind                             : Complete Main
  45. Default                                  : Yes
  46. Alternate group                          : 2
  47. Encoded date                             : UTC 2020-12-28 12:38:05
  48. Tagged date                              : UTC 2020-12-28 16:19:18
  49. Complexity index                         : Not present / 16
  50. Number of dynamic objects                : 15
  51. Bed channel count                        : 1 channel
  52. Bed channel configuration                : LFE

  53. Text #1
  54. ID                                       : 3
  55. Format                                   : Timed Text
  56. Codec ID                                 : tx3g
  57. Duration                                 : 1 h 39 min
  58. Bit rate mode                            : Variable
  59. Bit rate                                 : 63 b/s
  60. Stream size                              : 45.8 KiB (0%)
  61. Title                                    : English
  62. Language                                 : English
  63. Forced                                   : No
  64. Encoded date                             : UTC 2020-12-28 16:19:16
  65. Tagged date                              : UTC 2020-12-28 16:19:18

  66. Text #2
  67. ID                                       : 4
  68. Format                                   : Timed Text
  69. Codec ID                                 : tx3g
  70. Duration                                 : 1 h 39 min
  71. Bit rate mode                            : Variable
  72. Bit rate                                 : 75 b/s
  73. Stream size                              : 54.9 KiB (0%)
  74. Title                                    : English [SDH]
  75. Language                                 : English
  76. Forced                                   : No
  77. Encoded date                             : UTC 2020-12-28 16:19:16
  78. Tagged date                              : UTC 2020-12-28 16:19:18

  79. Text #3
  80. ID                                       : 5
  81. Format                                   : Timed Text
  82. Codec ID                                 : tx3g
  83. Duration                                 : 1 h 48 min
  84. Bit rate mode                            : Variable
  85. Bit rate                                 : 56 b/s
  86. Stream size                              : 44.2 KiB (0%)
  87. Title                                    : Brazilian Portuguese
  88. Language                                 : Portuguese
  89. Forced                                   : No
  90. Encoded date                             : UTC 2020-12-28 16:19:16
  91. Tagged date                              : UTC 2020-12-28 16:19:18

  92. Text #4
  93. ID                                       : 6
  94. Format                                   : Timed Text
  95. Codec ID                                 : tx3g
  96. Duration                                 : 1 h 48 min
  97. Bit rate mode                            : Variable
  98. Bit rate                                 : 58 b/s
  99. Stream size                              : 45.7 KiB (0%)
  100. Title                                    : Danish
  101. Language                                 : Danish
  102. Forced                                   : No
  103. Encoded date                             : UTC 2020-12-28 16:19:16
  104. Tagged date                              : UTC 2020-12-28 16:19:18

  105. Text #5
  106. ID                                       : 7
  107. Format                                   : Timed Text
  108. Codec ID                                 : tx3g
  109. Duration                                 : 1 h 48 min
  110. Bit rate mode                            : Variable
  111. Bit rate                                 : 58 b/s
  112. Stream size                              : 46.4 KiB (0%)
  113. Title                                    : German
  114. Language                                 : German
  115. Forced                                   : No
  116. Encoded date                             : UTC 2020-12-28 16:19:16
  117. Tagged date                              : UTC 2020-12-28 16:19:18

  118. Text #6
  119. ID                                       : 8
  120. Format                                   : Timed Text
  121. Codec ID                                 : tx3g
  122. Duration                                 : 1 h 48 min
  123. Bit rate mode                            : Variable
  124. Bit rate                                 : 52 b/s
  125. Stream size                              : 41.1 KiB (0%)
  126. Title                                    : European Spanish
  127. Language                                 : Spanish
  128. Forced                                   : No
  129. Encoded date                             : UTC 2020-12-28 16:19:17
  130. Tagged date                              : UTC 2020-12-28 16:19:18

  131. Text #7
  132. ID                                       : 9
  133. Format                                   : Timed Text
  134. Codec ID                                 : tx3g
  135. Duration                                 : 1 h 48 min
  136. Bit rate mode                            : Variable
  137. Bit rate                                 : 51 b/s
  138. Stream size                              : 40.6 KiB (0%)
  139. Title                                    : Finnish
  140. Language                                 : Finnish
  141. Forced                                   : No
  142. Encoded date                             : UTC 2020-12-28 16:19:17
  143. Tagged date                              : UTC 2020-12-28 16:19:18

  144. Text #8
  145. ID                                       : 10
  146. Format                                   : Timed Text
  147. Codec ID                                 : tx3g
  148. Duration                                 : 1 h 48 min
  149. Bit rate mode                            : Variable
  150. Bit rate                                 : 57 b/s
  151. Stream size                              : 45.4 KiB (0%)
  152. Title                                    : French
  153. Language                                 : French
  154. Forced                                   : No
  155. Encoded date                             : UTC 2020-12-28 16:19:17
  156. Tagged date                              : UTC 2020-12-28 16:19:18

  157. Text #9
  158. ID                                       : 11
  159. Format                                   : Timed Text
  160. Codec ID                                 : tx3g
  161. Duration                                 : 1 h 48 min
  162. Bit rate mode                            : Variable
  163. Bit rate                                 : 54 b/s
  164. Stream size                              : 43.1 KiB (0%)
  165. Title                                    : Italian
  166. Language                                 : Italian
  167. Forced                                   : No
  168. Encoded date                             : UTC 2020-12-28 16:19:17
  169. Tagged date                              : UTC 2020-12-28 16:19:18

  170. Text #10
  171. ID                                       : 12
  172. Format                                   : Timed Text
  173. Codec ID                                 : tx3g
  174. Duration                                 : 1 h 48 min
  175. Bit rate mode                            : Variable
  176. Bit rate                                 : 55 b/s
  177. Stream size                              : 43.7 KiB (0%)
  178. Title                                    : Dutch
  179. Language                                 : Dutch
  180. Forced                                   : No
  181. Encoded date                             : UTC 2020-12-28 16:19:17
  182. Tagged date                              : UTC 2020-12-28 16:19:18

  183. Text #11
  184. ID                                       : 13
  185. Format                                   : Timed Text
  186. Codec ID                                 : tx3g
  187. Duration                                 : 1 h 48 min
  188. Bit rate mode                            : Variable
  189. Bit rate                                 : 57 b/s
  190. Stream size                              : 45.6 KiB (0%)
  191. Title                                    : Norwegian
  192. Language                                 : Norwegian
  193. Forced                                   : No
  194. Encoded date                             : UTC 2020-12-28 16:19:17
  195. Tagged date                              : UTC 2020-12-28 16:19:18

  196. Text #12
  197. ID                                       : 14
  198. Format                                   : Timed Text
  199. Codec ID                                 : tx3g
  200. Duration                                 : 1 h 48 min
  201. Bit rate mode                            : Variable
  202. Bit rate                                 : 56 b/s
  203. Stream size                              : 44.2 KiB (0%)
  204. Title                                    : Polish
  205. Language                                 : Polish
  206. Forced                                   : No
  207. Encoded date                             : UTC 2020-12-28 16:19:17
  208. Tagged date                              : UTC 2020-12-28 16:19:18

  209. Text #13
  210. ID                                       : 15
  211. Format                                   : Timed Text
  212. Codec ID                                 : tx3g
  213. Duration                                 : 1 h 48 min
  214. Bit rate mode                            : Variable
  215. Bit rate                                 : 55 b/s
  216. Stream size                              : 43.8 KiB (0%)
  217. Title                                    : Portuguese
  218. Language                                 : Portuguese
  219. Forced                                   : No
  220. Encoded date                             : UTC 2020-12-28 16:19:17
  221. Tagged date                              : UTC 2020-12-28 16:19:18

  222. Text #14
  223. ID                                       : 16
  224. Format                                   : Timed Text
  225. Codec ID                                 : tx3g
  226. Duration                                 : 1 h 48 min
  227. Bit rate mode                            : Variable
  228. Bit rate                                 : 58 b/s
  229. Stream size                              : 45.7 KiB (0%)
  230. Title                                    : Spanish
  231. Language                                 : Spanish
  232. Forced                                   : No
  233. Encoded date                             : UTC 2020-12-28 16:19:18
  234. Tagged date                              : UTC 2020-12-28 16:19:18

  235. Text #15
  236. ID                                       : 17
  237. Format                                   : Timed Text
  238. Codec ID                                 : tx3g
  239. Duration                                 : 1 h 48 min
  240. Bit rate mode                            : Variable
  241. Bit rate                                 : 58 b/s
  242. Stream size                              : 45.9 KiB (0%)
  243. Title                                    : Swedish
  244. Language                                 : Swedish
  245. Forced                                   : No
  246. Encoded date                             : UTC 2020-12-28 16:19:18
  247. Tagged date                              : UTC 2020-12-28 16:19:18
复制代码



                                       
                                       

                                       
                                       
                                       




回复

使用道具 举报

发表于 2020-12-30 15:03:47 | 显示全部楼层
楼主发贴辛苦了,谢谢楼主分享!我觉得蓝光电影网是注册对了!
回复 支持 2 反对 0

使用道具 举报

发表于 2020-12-30 16:31:03 | 显示全部楼层
楼主发贴辛苦了,谢谢楼主分享!我觉得蓝光电影网是注册对了!
回复 支持 2 反对 0

使用道具 举报

发表于 2020-12-30 17:08:08 | 显示全部楼层
厉害了 我的歌
回复 支持 2 反对 0

使用道具 举报

发表于 2020-12-30 19:11:52 | 显示全部楼层
谢谢楼主分享
回复 支持 2 反对 0

使用道具 举报

 成长值: 6730

发表于 2020-12-29 22:26:59 | 显示全部楼层
太好啦&萬分感謝版主的無私發佈分享%
回复 支持 1 反对 0

使用道具 举报

发表于 2020-12-29 23:50:08 | 显示全部楼层
楼主发贴辛苦了,谢谢楼主分享!我觉得蓝光电影网是注册对了!
回复 支持 反对

使用道具 举报

发表于 2020-12-29 23:58:43 | 显示全部楼层
谢谢谢谢看看
回复 支持 反对

使用道具 举报

发表于 2020-12-30 01:01:48 | 显示全部楼层
谢谢楼主分享
回复 支持 反对

使用道具 举报

发表于 2020-12-30 01:18:47 | 显示全部楼层
楼主发贴辛苦了,谢谢楼主分享!我觉得蓝光电影网是注册对了!
回复 支持 反对

使用道具 举报

 成长值: 320

发表于 2020-12-30 01:29:59 | 显示全部楼层

这个帖子不回对不起自己!我想我是一天也不能离开蓝光电影网
回复 支持 反对

使用道具 举报

发表于 2020-12-30 08:42:17 | 显示全部楼层

楼主太厉害了!楼主,电影应该很好看我觉得蓝光电影网真是个好地方!
回复 支持 反对

使用道具 举报

发表于 2020-12-30 08:54:33 | 显示全部楼层
楼主发贴辛苦了,谢谢楼主分享!我觉得蓝光电影网是注册对了!
回复 支持 反对

使用道具 举报

发表于 2020-12-30 10:58:38 | 显示全部楼层
谢谢谢谢看看
回复 支持 反对

使用道具 举报

懒得打字嘛,点击右侧快捷回复 【右侧内容,后台自定义】
您需要登录后才可以回帖 登录 | 立即加入

本版积分规则

现在加入蓝光电影网,注册一个账号
上个主题 下个主题 快速回复 收藏帖子 返回列表 客服中心 搜索

手机版|小黑屋| 蓝光电影网 |网站地图 

Copyright © 2015-2019 Comsenz Inc.  Template by 蓝光电影论坛 All Rights Reserved.

Powered by 蓝光电影网 X3.4

特别声明:本站所有资源均由网上收集而来,版权归原影音公司所有,如果侵犯了你的权益,请通知我们,我们会及时删除侵权内容.

快速回复 返回顶部 返回列表