找回密码

蓝光电影网

查看: 2294|回复: 51

[2160p-WEB] 黑神驹/黑骏马 Black.Beauty.2020.2160p.WEB.h265-KOGi 15.40GB

  [复制链接]

 成长值: 17850

发表于 2020-12-22 00:55:20 | 显示全部楼层 |阅读模式
黑神驹/黑骏马 Black.Beauty.2020.2160p.WEB.h265-KOGi 15.40GB-1.jpg


◎译  名 黑神驹/黑骏马
◎片  名 Black Beauty
◎年  代 2020
◎产  地 美国,英国,南非,德国,法国
◎类  别 剧情
◎语  言 英语
◎上映日期 2020-11-27(美国网络)
◎IMDb评分  6.3/10 from 1259 users
◎IMDb链接  https://www.imdb.com/title/tt8484160/
◎豆瓣评分 7.1/10 from 365 users
◎豆瓣链接 https://movie.douban.com/subject/33437777/
◎片  长 110分钟
◎导  演 阿什利·阿维斯 Ashley Avis
◎编  剧 阿什利·阿维斯 Ashley Avis / 安娜·瑟维尔 Anna Sewell
◎主  演 凯特·温丝莱特 Kate Winslet
       麦肯吉·弗依 Mackenzie Foy
       伊恩·格雷 Iain Glen
       卡拉姆·林奇 Calam Lynch
       克莱尔·弗兰妮 Claire Forlani
       Fern Deacon
       马特·里皮 Matt Rippy
       比约恩·施泰因巴赫 Bjorn Steinbach
       帕特里克·利斯特 Patrick Lyster
       哈基姆·凯-卡西姆 Hakeem Kae-Kazim
       亚历克斯·安洛斯 Alex Anlos
       大卫·杜卡斯 David Dukas
       达伦-迈耶 Darron Meyer
       德翁·洛茨 Deon Lotz
       阿什利·泰勒 Ashley Taylor
       阿维纳·亚伯拉罕 Avianah Abrahams
       马克·埃尔德金 Mark Elderkin
       彼得·巴特勒 Peter Butler
◎标  签 动物 | 美国 | 剧情 | 凯特·温丝莱特 | 2020 | 美国电影 | 麦肯吉 | 电影
◎简  介


  影片由阿什利·阿维斯自编自导,故事基于安娜·休厄尔1877年完成的同名畅销小说改编。原小说以“黑神驹”的视角进行第一人称表达,描绘出一部属于“黑神驹”的自传体回忆录。影片将着重描绘17岁女孩乔(弗依饰)与“黑神驹”(温斯莱特配音)间深厚的情感纽带,是“黑神驹”使乔走出了父母离世的精神创伤。
  1. Video
  2. ID                                       : 1
  3. Format                                   : HEVC
  4. Format/Info                              : High Efficiency Video Coding
  5. Format profile                           : [email protected]@High
  6. Codec ID                                 : V_MPEGH/ISO/HEVC
  7. Duration                                 : 1 h 48 min
  8. Bit rate                                 : 19.4 Mb/s
  9. Width                                    : 3 840 pixels
  10. Height                                   : 2 160 pixels
  11. Display aspect ratio                     : 16:9
  12. Frame rate mode                          : Variable
  13. Frame rate                               : 23.976 (24000/1001/189150) FPS
  14. Color space                              : YUV
  15. Chroma subsampling                       : 4:2:0
  16. Bit depth                                : 8 bits
  17. Bits/(Pixel*Frame)                       : 0.097
  18. Stream size                              : 14.7 GiB (96%)
  19. Writing library                          : x265 3.4:[Linux][GCC 7.5.0][64 bit] 8bit+10bit+12bit
  20. Encoding settings                        : cpuid=1111039 / frame-threads=1 / wpp / no-pmode / no-pme / no-psnr / no-ssim / log-level=2 / input-csp=1 / input-res=3840x2160 / interlace=0 / total-frames=0 / level-idc=50 / high-tier=1 / uhd-bd=0 / ref=2 / no-allow-non-conformance / repeat-headers / annexb / no-aud / no-hrd / info / hash=0 / no-temporal-layers / no-open-gop / min-keyint=48 / keyint=48 / gop-lookahead=0 / bframes=4 / b-adapt=0 / b-pyramid / bframe-bias=0 / rc-lookahead=48 / lookahead-slices=8 / scenecut=0 / hist-scenecut=0 / radl=0 / no-splice / no-intra-refresh / ctu=32 / min-cu-size=8 / no-rect / no-amp / max-tu-size=16 / tu-inter-depth=2 / tu-intra-depth=2 / limit-tu=0 / rdoq-level=1 / dynamic-rd=0.00 / no-ssim-rd / signhide / no-tskip / nr-intra=0 / nr-inter=0 / no-constrained-intra / no-strong-intra-smoothing / max-merge=3 / limit-refs=1 / no-limit-modes / me=1 / subme=2 / merange=44 / temporal-mvp / no-frame-dup / no-hme / weightp / no-weightb / no-analyze-src-pics / deblock=0:0 / no-sao / no-sao-non-deblock / rd=4 / selective-sao=0 / early-skip / rskip / no-fast-intra / no-tskip-fast / no-cu-lossless / b-intra / no-splitrd-skip / rdpenalty=1 / psy-rd=1.60 / psy-rdoq=5.00 / no-rd-refine / no-lossless / cbqpoffs=0 / crqpoffs=0 / rc=abr / bitrate=20000 / qcomp=0.75 / qpstep=4 / stats-write=0 / stats-read=0 / vbv-maxrate=24000 / vbv-bufsize=40000 / vbv-init=0.9 / ipratio=1.40 / pbratio=1.30 / aq-mode=3 / aq-strength=1.00 / no-cutree / zone-count=0 / no-strict-cbr / qg-size=32 / no-rc-grain / qpmax=69 / qpmin=0 / no-const-vbv / sar=1 / overscan=0 / videoformat=5 / range=0 / colorprim=1 / transfer=1 / colormatrix=1 / chromaloc=0 / display-window=0 / cll=0,0 / min-luma=0 / max-luma=255 / log2-max-poc-lsb=8 / vui-timing-info / vui-hrd-info / slices=1 / no-opt-qp-pps / no-opt-ref-list-length-pps / no-multi-pass-opt-rps / scenecut-bias=0.00 / hist-threshold=0.01 / no-opt-cu-delta-qp / no-aq-motion / no-hdr10 / no-hdr10-opt / no-dhdr10-opt / no-idr-recovery-sei / analysis-reuse-level=0 / analysis-save-reuse-level=0 / analysis-load-reuse-level=0 / scale-factor=0 / refine-intra=0 / refine-inter=0 / refine-mv=1 / refine-ctu-distortion=0 / no-limit-sao / ctu-info=0 / no-lowpass-dct / refine-analysis-type=0 / copy-pic=1 / max-ausize-factor=1.0 / no-dynamic-refine / no-single-sei / no-hevc-aq / no-svt / no-field / qp-adaptation-range=1.00 / no-scenecut-aware-qpconformance-window-offsets / right=0 / bottom=0
  21. Language                                 : English
  22. Default                                  : Yes
  23. Forced                                   : No
  24. Color range                              : Limited
  25. Color primaries                          : BT.709
  26. Transfer characteristics                 : BT.709
  27. Matrix coefficients                      : BT.709

  28. Audio
  29. ID                                       : 2
  30. Format                                   : E-AC-3 JOC
  31. Format/Info                              : Enhanced AC-3 with Joint Object Coding
  32. Commercial name                          : Dolby Digital Plus with Dolby Atmos
  33. Codec ID                                 : A_EAC3
  34. Duration                                 : 1 h 48 min
  35. Bit rate mode                            : Constant
  36. Bit rate                                 : 768 kb/s
  37. Channel(s)                               : 6 channels
  38. Channel layout                           : L R C LFE Ls Rs
  39. Sampling rate                            : 48.0 kHz
  40. Frame rate                               : 31.250 FPS (1536 SPF)
  41. Compression mode                         : Lossy
  42. Stream size                              : 596 MiB (4%)
  43. Language                                 : English
  44. Service kind                             : Complete Main
  45. Default                                  : Yes
  46. Forced                                   : No
  47. Complexity index                         : 16
  48. Number of dynamic objects                : 15
  49. Bed channel count                        : 1 channel
  50. Bed channel configuration                : LFE

  51. Text #1
  52. ID                                       : 3
  53. Format                                   : UTF-8
  54. Codec ID                                 : S_TEXT/UTF8
  55. Codec ID/Info                            : UTF-8 Plain Text
  56. Duration                                 : 1 h 38 min
  57. Bit rate                                 : 73 b/s
  58. Count of elements                        : 1509
  59. Stream size                              : 53.4 KiB (0%)
  60. Title                                    : English (SDH)
  61. Language                                 : English
  62. Default                                  : No
  63. Forced                                   : No

  64. Text #2
  65. ID                                       : 4
  66. Format                                   : UTF-8
  67. Codec ID                                 : S_TEXT/UTF8
  68. Codec ID/Info                            : UTF-8 Plain Text
  69. Duration                                 : 1 h 47 min
  70. Bit rate                                 : 57 b/s
  71. Count of elements                        : 1262
  72. Stream size                              : 45.1 KiB (0%)
  73. Title                                    : Dansk
  74. Language                                 : Danish
  75. Default                                  : No
  76. Forced                                   : No

  77. Text #3
  78. ID                                       : 5
  79. Format                                   : UTF-8
  80. Codec ID                                 : S_TEXT/UTF8
  81. Codec ID/Info                            : UTF-8 Plain Text
  82. Duration                                 : 1 h 47 min
  83. Bit rate                                 : 58 b/s
  84. Count of elements                        : 1255
  85. Stream size                              : 46.1 KiB (0%)
  86. Title                                    : Deutsch
  87. Language                                 : German
  88. Default                                  : No
  89. Forced                                   : No

  90. Text #4
  91. ID                                       : 6
  92. Format                                   : UTF-8
  93. Codec ID                                 : S_TEXT/UTF8
  94. Codec ID/Info                            : UTF-8 Plain Text
  95. Duration                                 : 1 h 47 min
  96. Bit rate                                 : 51 b/s
  97. Count of elements                        : 1253
  98. Stream size                              : 40.2 KiB (0%)
  99. Title                                    : Espa?ol
  100. Language                                 : Spanish
  101. Default                                  : No
  102. Forced                                   : No

  103. Text #5
  104. ID                                       : 7
  105. Format                                   : UTF-8
  106. Codec ID                                 : S_TEXT/UTF8
  107. Codec ID/Info                            : UTF-8 Plain Text
  108. Duration                                 : 1 h 47 min
  109. Bit rate                                 : 57 b/s
  110. Count of elements                        : 1260
  111. Stream size                              : 45.1 KiB (0%)
  112. Title                                    : Espa?ol (Latinoamericano)
  113. Language                                 : Spanish
  114. Default                                  : No
  115. Forced                                   : No

  116. Text #6
  117. ID                                       : 8
  118. Format                                   : UTF-8
  119. Codec ID                                 : S_TEXT/UTF8
  120. Codec ID/Info                            : UTF-8 Plain Text
  121. Duration                                 : 1 h 47 min
  122. Bit rate                                 : 50 b/s
  123. Count of elements                        : 1255
  124. Stream size                              : 39.5 KiB (0%)
  125. Title                                    : Suomi
  126. Language                                 : Finnish
  127. Default                                  : No
  128. Forced                                   : No

  129. Text #7
  130. ID                                       : 9
  131. Format                                   : UTF-8
  132. Codec ID                                 : S_TEXT/UTF8
  133. Codec ID/Info                            : UTF-8 Plain Text
  134. Duration                                 : 1 h 47 min
  135. Bit rate                                 : 57 b/s
  136. Count of elements                        : 1239
  137. Stream size                              : 45.0 KiB (0%)
  138. Title                                    : Fran?ais
  139. Language                                 : French
  140. Default                                  : No
  141. Forced                                   : No

  142. Text #8
  143. ID                                       : 10
  144. Format                                   : UTF-8
  145. Codec ID                                 : S_TEXT/UTF8
  146. Codec ID/Info                            : UTF-8 Plain Text
  147. Duration                                 : 1 h 47 min
  148. Bit rate                                 : 53 b/s
  149. Count of elements                        : 1266
  150. Stream size                              : 41.7 KiB (0%)
  151. Title                                    : Indonesian
  152. Language                                 : Indonesian
  153. Default                                  : No
  154. Forced                                   : No

  155. Text #9
  156. ID                                       : 11
  157. Format                                   : UTF-8
  158. Codec ID                                 : S_TEXT/UTF8
  159. Codec ID/Info                            : UTF-8 Plain Text
  160. Duration                                 : 1 h 47 min
  161. Bit rate                                 : 53 b/s
  162. Count of elements                        : 1263
  163. Stream size                              : 42.3 KiB (0%)
  164. Title                                    : Italiano
  165. Language                                 : Italian
  166. Default                                  : No
  167. Forced                                   : No

  168. Text #10
  169. ID                                       : 12
  170. Format                                   : UTF-8
  171. Codec ID                                 : S_TEXT/UTF8
  172. Codec ID/Info                            : UTF-8 Plain Text
  173. Duration                                 : 1 h 47 min
  174. Bit rate                                 : 50 b/s
  175. Count of elements                        : 1103
  176. Stream size                              : 39.9 KiB (0%)
  177. Title                                    : Nederlands
  178. Language                                 : Dutch
  179. Default                                  : No
  180. Forced                                   : No

  181. Text #11
  182. ID                                       : 13
  183. Format                                   : UTF-8
  184. Codec ID                                 : S_TEXT/UTF8
  185. Codec ID/Info                            : UTF-8 Plain Text
  186. Duration                                 : 1 h 47 min
  187. Bit rate                                 : 57 b/s
  188. Count of elements                        : 1264
  189. Stream size                              : 45.3 KiB (0%)
  190. Title                                    : Norsk
  191. Language                                 : Norwegian
  192. Default                                  : No
  193. Forced                                   : No

  194. Text #12
  195. ID                                       : 14
  196. Format                                   : UTF-8
  197. Codec ID                                 : S_TEXT/UTF8
  198. Codec ID/Info                            : UTF-8 Plain Text
  199. Duration                                 : 1 h 47 min
  200. Bit rate                                 : 55 b/s
  201. Count of elements                        : 1263
  202. Stream size                              : 43.4 KiB (0%)
  203. Title                                    : Polski
  204. Language                                 : Polish
  205. Default                                  : No
  206. Forced                                   : No

  207. Text #13
  208. ID                                       : 15
  209. Format                                   : UTF-8
  210. Codec ID                                 : S_TEXT/UTF8
  211. Codec ID/Info                            : UTF-8 Plain Text
  212. Duration                                 : 1 h 47 min
  213. Bit rate                                 : 54 b/s
  214. Count of elements                        : 1263
  215. Stream size                              : 43.0 KiB (0%)
  216. Title                                    : Português
  217. Language                                 : Portuguese
  218. Default                                  : No
  219. Forced                                   : No

  220. Text #14
  221. ID                                       : 16
  222. Format                                   : UTF-8
  223. Codec ID                                 : S_TEXT/UTF8
  224. Codec ID/Info                            : UTF-8 Plain Text
  225. Duration                                 : 1 h 47 min
  226. Bit rate                                 : 55 b/s
  227. Count of elements                        : 1258
  228. Stream size                              : 43.4 KiB (0%)
  229. Title                                    : Português (Brasil)
  230. Language                                 : Portuguese
  231. Default                                  : No
  232. Forced                                   : No

  233. Text #15
  234. ID                                       : 17
  235. Format                                   : UTF-8
  236. Codec ID                                 : S_TEXT/UTF8
  237. Codec ID/Info                            : UTF-8 Plain Text
  238. Duration                                 : 1 h 47 min
  239. Bit rate                                 : 57 b/s
  240. Count of elements                        : 1265
  241. Stream size                              : 45.2 KiB (0%)
  242. Title                                    : Svenska
  243. Language                                 : Swedish
  244. Default                                  : No
  245. Forced                                   : No
复制代码



                                       
                                       

                                       
                                       
                                       




回复

使用道具 举报

发表于 2020-12-25 17:23:05 | 显示全部楼层

谢谢楼主无私分享。
回复 支持 1 反对 0

使用道具 举报

 成长值: 30

发表于 2020-12-25 18:07:34 | 显示全部楼层
谢谢分享  好东西  收藏了
回复 支持 1 反对 0

使用道具 举报

发表于 2020-12-22 17:59:02 | 显示全部楼层
准备好纸巾 记得擦手 【 p 9 9  丶 f u n 】
回复 支持 1 反对 0

使用道具 举报

 成长值: 6835

发表于 2020-12-22 07:52:08 | 显示全部楼层
太好啦&萬分感謝版主的無私發佈分享%
回复 支持 反对

使用道具 举报

发表于 2020-12-22 08:03:57 | 显示全部楼层
不错,收下了。
回复 支持 反对

使用道具 举报

发表于 2020-12-22 08:13:31 | 显示全部楼层
楼主发贴辛苦了,谢谢楼主分享!我觉得蓝光电影网是注册对了!
回复 支持 反对

使用道具 举报

发表于 2020-12-22 10:00:06 | 显示全部楼层
楼主发贴辛苦了,谢谢楼主分享!我觉得蓝光电影网是注册对了!
回复 支持 反对

使用道具 举报

发表于 2020-12-22 10:54:49 | 显示全部楼层

这东西我收了!谢谢楼主!蓝光电影网真好!
回复 支持 反对

使用道具 举报

发表于 2020-12-22 11:00:10 | 显示全部楼层
资源很棒!谢谢发布
回复 支持 反对

使用道具 举报

发表于 2020-12-22 11:36:18 | 显示全部楼层
萬分感謝版主
回复 支持 反对

使用道具 举报

发表于 2020-12-22 11:51:20 | 显示全部楼层
谢谢楼主分享
回复 支持 反对

使用道具 举报

发表于 2020-12-22 11:59:35 | 显示全部楼层
楼主发贴辛苦了,谢谢楼主分享!我觉得蓝光电影网是注册对了!
回复 支持 反对

使用道具 举报

懒得打字嘛,点击右侧快捷回复 【右侧内容,后台自定义】
您需要登录后才可以回帖 登录 | 立即加入

本版积分规则

现在加入蓝光电影网,注册一个账号
上个主题 下个主题 快速回复 收藏帖子 返回列表 客服中心 搜索

手机版|小黑屋| 蓝光电影网 |网站地图 

Copyright © 2015-2019 Comsenz Inc.  Template by 蓝光电影论坛 All Rights Reserved.

Powered by 蓝光电影网 X3.4

特别声明:本站所有资源均由网上收集而来,版权归原影音公司所有,如果侵犯了你的权益,请通知我们,我们会及时删除侵权内容.

快速回复 返回顶部 返回列表