找回密码

蓝光电影网

查看: 257|回复: 11

韩赛尔与格蕾特:女巫猎人/格林双侠:猎巫世纪 Hansel.and.Gretel.Witch.Hunters.2013.2160p.BluRay.x265.10bit.SDR.TrueHD.5.1-SWTYBLZ 21.22GB

[复制链接]
  • TA的每日心情
    开心
    昨天 09:07
  • 签到天数: 23 天

    [LV.4]偶尔看看III

     成长值: 18115

    发表于 2018-10-11 17:45:44 | 显示全部楼层 |阅读模式

    马上注册,获取最新影视资讯,享用更多功能,让你轻松玩转蓝光电影网。

    您需要 登录 才可以下载或查看,没有帐号?立即加入

    x

    韩赛尔与格蕾特:女巫猎人/格林双侠:猎巫世纪 Hansel.and.Gretel.Witch.Hunters.2013.2160p.BluRay.x265.10bit.SDR.TrueHD.5.1-SWTYBLZ 21.22GB-1.jpg
    ◎译  名 韩赛尔与格蕾特:女巫猎人/格林双侠:猎巫世纪(港)/女巫猎人(台)/汉斯和格莱泰:女巫猎人/女巫猎手
    ◎片  名 Hansel and Gretel: Witch Hunters
    ◎年  代 2013
    ◎产  地 德国/美国
    ◎类  别 动作/恐怖/奇幻
    ◎语  言 英语
    ◎上映日期 2013-01-25(美国)
    ◎IMDb评分  6.1/10 from 177,956 users
    ◎IMDb链接  http://www.imdb.com/title/tt1428538/
    ◎豆瓣评分 6.0/10 from 17,427 users
    ◎豆瓣链接 https://movie.douban.com/subject/3718323/
    ◎片  长 88分钟/98分钟(未分级版)
    ◎导  演 托米·维尔科拉 Tommy Wirkola
    ◎主  演 杰瑞米·雷纳 Jeremy Renner
          杰玛·阿特登 Gemma Arterton
          法米克·詹森 Famke Janssen
          托马斯·曼 Thomas Mann
          彼得·斯特曼 Peter Stormare
          菲拉·维塔拉 Pihla Viitala
          德里克·梅耶斯 Derek Mears
          罗宾·阿特金·唐斯 Robin Atkin Downes
          英格丽德·波尔索·贝达尔 Ingrid Bols? Berdal
          乔安娜·库里格 Joanna Kulig
          比约恩·桑德奎斯特 Bj?rn Sundquist
          赖纳·博克 Rainer Bock
          托马斯·沙夫 Thomas Scharff
          凯瑟琳·库内尔 Kathrin Kühnel
          塞德里克·伊奇 Cedric Eich
          佐伊·贝尔 Zoe Bell
          莫妮卡·甘德顿 Monique Ganderton
          弗里茨罗斯 Fritz Roth

    ◎简  介

      在童年时代便消灭了糖果屋女巫的孤儿兄妹韩赛尔(杰瑞米·雷纳 Jeremy Renner 饰)与格蕾特(杰玛·阿特登 Gemma Arterton 饰),多年来成为邪恶女巫的最大克星。在帮助小镇奥古斯伯格寻找失踪的孩子以及隐藏女巫之时,兄妹二人发现三天后即将出现“血月”(月蚀),这对女巫们来说是无比重要和神圣的时刻。两兄妹迅速投入行动,而讨厌他们俩的警长也招来一伙人马追查女巫们的行踪。未过多久,女巫头目(法米克·詹森 Famke Janssen 饰)率领手下袭击小镇,与兄妹二人展开正面冲突。激战过后,格蕾特遭到重创,韩赛尔也随着女巫消失下落不明。
      正邪的较量渐次升级,兄妹俩在这一过程中也渐渐知晓关于他们童年以及父母背后的秘密……
    • Video
    • ID                                       : 1
    • Format                                   : HEVC
    • Format/Info                              : High Efficiency Video Coding
    • Format profile                           : Main [email protected]@High
    • Codec ID                                 : V_MPEGH/ISO/HEVC
    • Duration                                 : 1 h 27 min
    • Bit rate                                 : 29.9 Mb/s
    • Width                                    : 3 840 pixels
    • Height                                   : 1 600 pixels
    • Display aspect ratio                     : 2.40:1
    • Frame rate mode                          : Constant
    • Frame rate                               : 23.976 (24000/1001) FPS
    • Color space                              : YUV
    • Chroma subsampling                       : 4:2:0
    • Bit depth                                : 10 bits
    • Bits/(Pixel*Frame)                       : 0.203
    • Stream size                              : 18.4 GiB (87%)
    • Title                                    : Hansel.and.Gretel.Witch.Hunters.2013.2160p.BluRay.x265.10bit.SDR.TrueHD.5.1-SWTYBLZ
    • Writing library                          : x265 2.8+54-79c76e42cb28:[Windows][GCC 7.3.1][64 bit] 10bit
    • Encoding settings                        : cpuid=1111039 / frame-threads=16 / numa-pools=16,16 / wpp / no-pmode / no-pme / no-psnr / no-ssim / log-level=2 / input-csp=1 / input-res=3840x1600 / interlace=0 / total-frames=0 / level-idc=51 / high-tier=1 / uhd-bd=0 / ref=3 / no-allow-non-conformance / repeat-headers / annexb / aud / hrd / info / hash=0 / no-temporal-layers / no-open-gop / min-keyint=1 / keyint=24 / gop-lookahead=0 / bframes=4 / b-adapt=2 / b-pyramid / bframe-bias=0 / rc-lookahead=25 / lookahead-slices=4 / scenecut=40 / radl=0 / no-intra-refresh / ctu=64 / min-cu-size=8 / no-rect / no-amp / max-tu-size=32 / tu-inter-depth=1 / tu-intra-depth=1 / limit-tu=0 / rdoq-level=0 / dynamic-rd=0.00 / no-ssim-rd / signhide / no-tskip / nr-intra=0 / nr-inter=0 / no-constrained-intra / strong-intra-smoothing / max-merge=2 / limit-refs=3 / no-limit-modes / me=1 / subme=2 / merange=57 / temporal-mvp / weightp / no-weightb / no-analyze-src-pics / deblock=0:0 / no-sao / no-sao-non-deblock / rd=3 / no-early-skip / rskip / no-fast-intra / no-tskip-fast / no-cu-lossless / no-b-intra / no-splitrd-skip / rdpenalty=0 / psy-rd=2.00 / psy-rdoq=0.00 / no-rd-refine / no-lossless / cbqpoffs=0 / crqpoffs=0 / rc=crf / crf=16.0 / qcomp=0.60 / qpstep=4 / stats-write=0 / stats-read=0 / vbv-maxrate=160000 / vbv-bufsize=160000 / vbv-init=0.9 / crf-max=0.0 / crf-min=0.0 / ipratio=1.40 / pbratio=1.30 / aq-mode=1 / aq-strength=1.00 / cutree / zone-count=0 / no-strict-cbr / qg-size=32 / no-rc-grain / qpmax=69 / qpmin=0 / no-const-vbv / sar=1 / overscan=0 / videoformat=5 / range=0 / colorprim=2 / transfer=2 / colormatrix=2 / chromaloc=0 / display-window=0 / max-cll=0,0 / min-luma=0 / max-luma=1023 / log2-max-poc-lsb=8 / vui-timing-info / vui-hrd-info / slices=1 / opt-qp-pps / opt-ref-list-length-pps / no-multi-pass-opt-rps / scenecut-bias=0.05 / no-opt-cu-delta-qp / no-aq-motion / no-hdr / no-hdr-opt / no-dhdr10-opt / no-idr-recovery-sei / analysis-reuse-level=5 / scale-factor=0 / refine-intra=0 / refine-inter=0 / refine-mv=0 / no-limit-sao / ctu-info=0 / no-lowpass-dct / refine-mv-type=0 / copy-pic=1 / max-ausize-factor=1.0 / no-dynamic-refine / no-single-sei
    • Default                                  : Yes
    • Forced                                   : No
    • Audio #1
    • ID                                       : 2
    • Format                                   : MLP FBA
    • Format/Info                              : Meridian Lossless Packing FBA
    • Commercial name                          : Dolby TrueHD
    • Codec ID                                 : A_TRUEHD
    • Duration                                 : 1 h 27 min
    • Bit rate mode                            : Variable
    • Bit rate                                 : 3 526 kb/s
    • Maximum bit rate                         : 4 860 kb/s
    • Channel(s)                               : 6 channels
    • Channel layout                           : L R C LFE Ls Rs
    • Sampling rate                            : 48.0 kHz
    • Frame rate                               : 1 200.000 FPS (40 SPF)
    • Compression mode                         : Lossless
    • Stream size                              : 2.17 GiB (10%)
    • Title                                    : Hansel.and.Gretel.Witch.Hunters.2013.2160p.BluRay.x265.10bit.SDR.TrueHD.5.1-SWTYBLZ
    • Language                                 : English
    • Default                                  : Yes
    • Forced                                   : No
    • Audio #2
    • ID                                       : 3
    • Format                                   : AC-3
    • Format/Info                              : Audio Coding 3
    • Commercial name                          : Dolby Digital
    • Codec ID                                 : A_AC3
    • Duration                                 : 1 h 27 min
    • Bit rate mode                            : Constant
    • Bit rate                                 : 640 kb/s
    • Channel(s)                               : 6 channels
    • Channel layout                           : L R C LFE Ls Rs
    • Sampling rate                            : 48.0 kHz
    • Frame rate                               : 31.250 FPS (1536 SPF)
    • Bit depth                                : 16 bits
    • Compression mode                         : Lossy
    • Stream size                              : 403 MiB (2%)
    • Title                                    : Hansel.and.Gretel.Witch.Hunters.2013.2160p.BluRay.x265.10bit.SDR.TrueHD.5.1-SWTYBLZ
    • Language                                 : English
    • Service kind                             : Complete Main
    • Default                                  : No
    • Forced                                   : No
    • Text #1
    • ID                                       : 4
    • Format                                   : UTF-8
    • Codec ID                                 : S_TEXT/UTF8
    • Codec ID/Info                            : UTF-8 Plain Text
    • Duration                                 : 1 h 19 min
    • Bit rate                                 : 35 b/s
    • Count of elements                        : 795
    • Stream size                              : 20.6 KiB (0%)
    • Title                                    : English-SRT
    • Language                                 : English
    • Default                                  : Yes
    • Forced                                   : No
    • Text #2
    • ID                                       : 5
    • Format                                   : UTF-8
    • Codec ID                                 : S_TEXT/UTF8
    • Codec ID/Info                            : UTF-8 Plain Text
    • Duration                                 : 1 h 19 min
    • Bit rate                                 : 35 b/s
    • Count of elements                        : 805
    • Stream size                              : 20.8 KiB (0%)
    • Title                                    : English-SDH-SRT
    • Language                                 : English
    • Default                                  : No
    • Forced                                   : No
    • Text #3
    • ID                                       : 6
    • Format                                   : PGS
    • Muxing mode                              : zlib
    • Codec ID                                 : S_HDMV/PGS
    • Codec ID/Info                            : Picture based subtitle format used on BDs/HD-DVDs
    • Duration                                 : 1 h 19 min
    • Bit rate                                 : 21.5 kb/s
    • Count of elements                        : 1590
    • Stream size                              : 12.3 MiB (0%)
    • Title                                    : English-PGS
    • Language                                 : English
    • Default                                  : No
    • Forced                                   : No
    • Text #4
    • ID                                       : 7
    • Format                                   : PGS
    • Muxing mode                              : zlib
    • Codec ID                                 : S_HDMV/PGS
    • Codec ID/Info                            : Picture based subtitle format used on BDs/HD-DVDs
    • Duration                                 : 1 h 21 min
    • Bit rate                                 : 26.9 kb/s
    • Count of elements                        : 2086
    • Stream size                              : 15.7 MiB (0%)
    • Title                                    : English-SDH-PGS
    • Language                                 : English
    • Default                                  : No
    • Forced                                   : No
    • Text #5
    • ID                                       : 8
    • Format                                   : PGS
    • Muxing mode                              : zlib
    • Codec ID                                 : S_HDMV/PGS
    • Codec ID/Info                            : Picture based subtitle format used on BDs/HD-DVDs
    • Duration                                 : 1 h 26 min
    • Bit rate                                 : 9 898 b/s
    • Count of elements                        : 1472
    • Stream size                              : 6.11 MiB (0%)
    • Title                                    : Arabic-PGS
    • Language                                 : Arabic
    • Default                                  : No
    • Forced                                   : No
    • Text #6
    • ID                                       : 9
    • Format                                   : PGS
    • Muxing mode                              : zlib
    • Codec ID                                 : S_HDMV/PGS
    • Codec ID/Info                            : Picture based subtitle format used on BDs/HD-DVDs
    • Duration                                 : 1 h 26 min
    • Bit rate                                 : 23.6 kb/s
    • Count of elements                        : 1618
    • Stream size                              : 14.6 MiB (0%)
    • Title                                    : Malay-PGS
    • Language                                 : Malay
    • Default                                  : No
    • Forced                                   : No
    • Text #7
    • ID                                       : 10
    • Format                                   : PGS
    • Muxing mode                              : zlib
    • Codec ID                                 : S_HDMV/PGS
    • Codec ID/Info                            : Picture based subtitle format used on BDs/HD-DVDs
    • Duration                                 : 1 h 26 min
    • Bit rate                                 : 14.3 kb/s
    • Count of elements                        : 1476
    • Stream size                              : 8.85 MiB (0%)
    • Title                                    : Chinese-PGS
    • Language                                 : Chinese
    • Default                                  : No
    • Forced                                   : No
    • Text #8
    • ID                                       : 11
    • Format                                   : PGS
    • Muxing mode                              : zlib
    • Codec ID                                 : S_HDMV/PGS
    • Codec ID/Info                            : Picture based subtitle format used on BDs/HD-DVDs
    • Duration                                 : 1 h 26 min
    • Bit rate                                 : 17.0 kb/s
    • Count of elements                        : 1476
    • Stream size                              : 10.5 MiB (0%)
    • Title                                    : Czech-PGS
    • Language                                 : Czech
    • Default                                  : No
    • Forced                                   : No
    • Text #9
    • ID                                       : 12
    • Format                                   : PGS
    • Muxing mode                              : zlib
    • Codec ID                                 : S_HDMV/PGS
    • Codec ID/Info                            : Picture based subtitle format used on BDs/HD-DVDs
    • Duration                                 : 1 h 26 min
    • Bit rate                                 : 21.9 kb/s
    • Count of elements                        : 1620
    • Stream size                              : 13.5 MiB (0%)
    • Title                                    : German-PGS
    • Language                                 : German
    • Default                                  : No
    • Forced                                   : No
    • Text #10
    • ID                                       : 13
    • Format                                   : PGS
    • Muxing mode                              : zlib
    • Codec ID                                 : S_HDMV/PGS
    • Codec ID/Info                            : Picture based subtitle format used on BDs/HD-DVDs
    • Duration                                 : 1 h 26 min
    • Bit rate                                 : 19.8 kb/s
    • Count of elements                        : 1472
    • Stream size                              : 12.2 MiB (0%)
    • Title                                    : Greek-PGS
    • Language                                 : Greek
    • Default                                  : No
    • Forced                                   : No
    • Text #11
    • ID                                       : 14
    • Format                                   : PGS
    • Muxing mode                              : zlib
    • Codec ID                                 : S_HDMV/PGS
    • Codec ID/Info                            : Picture based subtitle format used on BDs/HD-DVDs
    • Duration                                 : 1 h 26 min
    • Bit rate                                 : 20.1 kb/s
    • Count of elements                        : 1500
    • Stream size                              : 12.4 MiB (0%)
    • Title                                    : Spanish-PGS
    • Language                                 : Spanish
    • Default                                  : No
    • Forced                                   : No
    • Text #12
    • ID                                       : 15
    • Format                                   : PGS
    • Muxing mode                              : zlib
    • Codec ID                                 : S_HDMV/PGS
    • Codec ID/Info                            : Picture based subtitle format used on BDs/HD-DVDs
    • Duration                                 : 1 h 19 min
    • Bit rate                                 : 20.2 kb/s
    • Count of elements                        : 1458
    • Stream size                              : 11.5 MiB (0%)
    • Title                                    : Spanish-PGS
    • Language                                 : Spanish
    • Default                                  : No
    • Forced                                   : No
    • Text #13
    • ID                                       : 16
    • Format                                   : PGS
    • Muxing mode                              : zlib
    • Codec ID                                 : S_HDMV/PGS
    • Codec ID/Info                            : Picture based subtitle format used on BDs/HD-DVDs
    • Duration                                 : 1 h 26 min
    • Bit rate                                 : 16.8 kb/s
    • Count of elements                        : 1512
    • Stream size                              : 10.4 MiB (0%)
    • Title                                    : French-PGS
    • Language                                 : French
    • Default                                  : No
    • Forced                                   : No
    • Text #14
    • ID                                       : 17
    • Format                                   : PGS
    • Muxing mode                              : zlib
    • Codec ID                                 : S_HDMV/PGS
    • Codec ID/Info                            : Picture based subtitle format used on BDs/HD-DVDs
    • Duration                                 : 1 h 19 min
    • Bit rate                                 : 22.2 kb/s
    • Count of elements                        : 1618
    • Stream size                              : 12.6 MiB (0%)
    • Title                                    : French-PGS
    • Language                                 : French
    • Default                                  : No
    • Forced                                   : No
    • Text #15
    • ID                                       : 18
    • Format                                   : PGS
    • Muxing mode                              : zlib
    • Codec ID                                 : S_HDMV/PGS
    • Codec ID/Info                            : Picture based subtitle format used on BDs/HD-DVDs
    • Duration                                 : 1 h 26 min
    • Bit rate                                 : 31.8 kb/s
    • Count of elements                        : 2170
    • Stream size                              : 19.7 MiB (0%)
    • Title                                    : Hindi-PGS
    • Language                                 : Hindi
    • Default                                  : No
    • Forced                                   : No
    • Text #16
    • ID                                       : 19
    • Format                                   : PGS
    • Muxing mode                              : zlib
    • Codec ID                                 : S_HDMV/PGS
    • Codec ID/Info                            : Picture based subtitle format used on BDs/HD-DVDs
    • Duration                                 : 1 h 26 min
    • Bit rate                                 : 19.1 kb/s
    • Count of elements                        : 1472
    • Stream size                              : 11.8 MiB (0%)
    • Title                                    : Icelandic-PGS
    • Language                                 : Icelandic
    • Default                                  : No
    • Forced                                   : No
    • Text #17
    • ID                                       : 20
    • Format                                   : PGS
    • Muxing mode                              : zlib
    • Codec ID                                 : S_HDMV/PGS
    • Codec ID/Info                            : Picture based subtitle format used on BDs/HD-DVDs
    • Duration                                 : 1 h 26 min
    • Bit rate                                 : 19.9 kb/s
    • Count of elements                        : 1620
    • Stream size                              : 12.3 MiB (0%)
    • Title                                    : Italian-PGS
    • Language                                 : Italian
    • Default                                  : No
    • Forced                                   : No
    • Text #18
    • ID                                       : 21
    • Format                                   : PGS
    • Muxing mode                              : zlib
    • Codec ID                                 : S_HDMV/PGS
    • Codec ID/Info                            : Picture based subtitle format used on BDs/HD-DVDs
    • Duration                                 : 1 h 19 min
    • Bit rate                                 : 17.8 kb/s
    • Count of elements                        : 1498
    • Stream size                              : 10.1 MiB (0%)
    • Title                                    : Japanese-PGS
    • Language                                 : Japanese
    • Default                                  : No
    • Forced                                   : No
    • Text #19
    • ID                                       : 22
    • Format                                   : PGS
    • Muxing mode                              : zlib
    • Codec ID                                 : S_HDMV/PGS
    • Codec ID/Info                            : Picture based subtitle format used on BDs/HD-DVDs
    • Duration                                 : 1 h 26 min
    • Bit rate                                 : 12.2 kb/s
    • Count of elements                        : 1476
    • Stream size                              : 7.56 MiB (0%)
    • Title                                    : Korean-PGS
    • Language                                 : Korean
    • Default                                  : No
    • Forced                                   : No
    • Text #20
    • ID                                       : 23
    • Format                                   : PGS
    • Muxing mode                              : zlib
    • Codec ID                                 : S_HDMV/PGS
    • Codec ID/Info                            : Picture based subtitle format used on BDs/HD-DVDs
    • Duration                                 : 1 h 26 min
    • Bit rate                                 : 20.5 kb/s
    • Count of elements                        : 1620
    • Stream size                              : 12.6 MiB (0%)
    • Title                                    : Hungarian-PGS
    • Language                                 : Hungarian
    • Default                                  : No
    • Forced                                   : No
    • Text #21
    • ID                                       : 24
    • Format                                   : PGS
    • Muxing mode                              : zlib
    • Codec ID                                 : S_HDMV/PGS
    • Codec ID/Info                            : Picture based subtitle format used on BDs/HD-DVDs
    • Duration                                 : 1 h 26 min
    • Bit rate                                 : 15.6 kb/s
    • Count of elements                        : 1498
    • Stream size                              : 9.67 MiB (0%)
    • Title                                    : Chinese-PGS
    • Language                                 : Chinese
    • Default                                  : No
    • Forced                                   : No
    • Text #22
    • ID                                       : 25
    • Format                                   : PGS
    • Muxing mode                              : zlib
    • Codec ID                                 : S_HDMV/PGS
    • Codec ID/Info                            : Picture based subtitle format used on BDs/HD-DVDs
    • Duration                                 : 1 h 26 min
    • Bit rate                                 : 17.6 kb/s
    • Count of elements                        : 1190
    • Stream size                              : 10.9 MiB (0%)
    • Title                                    : Dutch-PGS
    • Language                                 : Dutch
    • Default                                  : No
    • Forced                                   : No
    • Text #23
    • ID                                       : 26
    • Format                                   : PGS
    • Muxing mode                              : zlib
    • Codec ID                                 : S_HDMV/PGS
    • Codec ID/Info                            : Picture based subtitle format used on BDs/HD-DVDs
    • Duration                                 : 1 h 26 min
    • Bit rate                                 : 17.9 kb/s
    • Count of elements                        : 1464
    • Stream size                              : 11.1 MiB (0%)
    • Title                                    : Polish-PGS
    • Language                                 : Polish
    • Default                                  : No
    • Forced                                   : No
    • Text #24
    • ID                                       : 27
    • Format                                   : PGS
    • Muxing mode                              : zlib
    • Codec ID                                 : S_HDMV/PGS
    • Codec ID/Info                            : Picture based subtitle format used on BDs/HD-DVDs
    • Duration                                 : 1 h 19 min
    • Bit rate                                 : 19.5 kb/s
    • Count of elements                        : 1466
    • Stream size                              : 11.1 MiB (0%)
    • Title                                    : Portuguese-PGS
    • Language                                 : Portuguese
    • Default                                  : No
    • Forced                                   : No
    • Text #25
    • ID                                       : 28
    • Format                                   : PGS
    • Muxing mode                              : zlib
    • Codec ID                                 : S_HDMV/PGS
    • Codec ID/Info                            : Picture based subtitle format used on BDs/HD-DVDs
    • Duration                                 : 1 h 26 min
    • Bit rate                                 : 18.8 kb/s
    • Count of elements                        : 1406
    • Stream size                              : 11.6 MiB (0%)
    • Title                                    : Portuguese-PGS
    • Language                                 : Portuguese
    • Default                                  : No
    • Forced                                   : No
    • Text #26
    • ID                                       : 29
    • Format                                   : PGS
    • Muxing mode                              : zlib
    • Codec ID                                 : S_HDMV/PGS
    • Codec ID/Info                            : Picture based subtitle format used on BDs/HD-DVDs
    • Duration                                 : 1 h 26 min
    • Bit rate                                 : 19.2 kb/s
    • Count of elements                        : 1620
    • Stream size                              : 11.9 MiB (0%)
    • Title                                    : Russian-PGS
    • Language                                 : Russian
    • Default                                  : No
    • Forced                                   : No
    • Text #27
    • ID                                       : 30
    • Format                                   : PGS
    • Muxing mode                              : zlib
    • Codec ID                                 : S_HDMV/PGS
    • Codec ID/Info                            : Picture based subtitle format used on BDs/HD-DVDs
    • Duration                                 : 1 h 26 min
    • Bit rate                                 : 16.9 kb/s
    • Count of elements                        : 1470
    • Stream size                              : 10.4 MiB (0%)
    • Title                                    : Romanian-PGS
    • Language                                 : rom
    • Default                                  : No
    • Forced                                   : No
    • Text #28
    • ID                                       : 31
    • Format                                   : PGS
    • Muxing mode                              : zlib
    • Codec ID                                 : S_HDMV/PGS
    • Codec ID/Info                            : Picture based subtitle format used on BDs/HD-DVDs
    • Duration                                 : 1 h 26 min
    • Bit rate                                 : 16.9 kb/s
    • Count of elements                        : 1476
    • Stream size                              : 10.4 MiB (0%)
    • Title                                    : Slovak-PGS
    • Language                                 : Slovak
    • Default                                  : No
    • Forced                                   : No
    • Text #29
    • ID                                       : 32
    • Format                                   : PGS
    • Muxing mode                              : zlib
    • Codec ID                                 : S_HDMV/PGS
    • Codec ID/Info                            : Picture based subtitle format used on BDs/HD-DVDs
    • Duration                                 : 1 h 26 min
    • Bit rate                                 : 14.8 kb/s
    • Count of elements                        : 1476
    • Stream size                              : 9.14 MiB (0%)
    • Title                                    : Thai-PGS
    • Language                                 : Thai
    • Default                                  : No
    • Forced                                   : No
    • Text #30
    • ID                                       : 33
    • Format                                   : PGS
    • Muxing mode                              : zlib
    • Codec ID                                 : S_HDMV/PGS
    • Codec ID/Info                            : Picture based subtitle format used on BDs/HD-DVDs
    • Duration                                 : 1 h 26 min
    • Bit rate                                 : 19.0 kb/s
    • Count of elements                        : 1476
    • Stream size                              : 11.7 MiB (0%)
    • Title                                    : Turkish-PGS
    • Language                                 : Turkish
    • Default                                  : No
    • Forced                                   : No
    • Text #31
    • ID                                       : 34
    • Format                                   : PGS
    • Muxing mode                              : zlib
    • Codec ID                                 : S_HDMV/PGS
    • Codec ID/Info                            : Picture based subtitle format used on BDs/HD-DVDs
    • Duration                                 : 2 min 28 s
    • Bit rate                                 : 12.6 kb/s
    • Count of elements                        : 26
    • Stream size                              : 228 KiB (0%)
    • Title                                    : Japanese-PGS
    • Language                                 : Japanese
    • Default                                  : No
    • Forced                                   : No
    • Menu
    • 00:00:00.000                             : :Chapter 1
    • 00:08:57.828                             : :Chapter 2
    • 00:15:58.791                             : :Chapter 3
    • 00:24:08.113                             : :Chapter 4
    • 00:32:18.937                             : :Chapter 5
    • 00:40:13.869                             : :Chapter 6
    • 00:46:46.637                             : :Chapter 7
    • 00:52:23.098                             : :Chapter 8
    • 01:00:21.034                             : :Chapter 9
    • 01:05:06.652                             : :Chapter 10
    • 01:12:50.657                             : :Chapter 11
    • 01:19:02.863                             : :Chapter 12

    复制代码

    韩赛尔与格蕾特:女巫猎人/格林双侠:猎巫世纪 Hansel.and.Gretel.Witch.Hunters.2013.2160p.BluRay.x265.10bit.SDR.TrueHD.5.1-SWTYBLZ 21.22GB-2.png 韩赛尔与格蕾特:女巫猎人/格林双侠:猎巫世纪 Hansel.and.Gretel.Witch.Hunters.2013.2160p.BluRay.x265.10bit.SDR.TrueHD.5.1-SWTYBLZ 21.22GB-3.png 韩赛尔与格蕾特:女巫猎人/格林双侠:猎巫世纪 Hansel.and.Gretel.Witch.Hunters.2013.2160p.BluRay.x265.10bit.SDR.TrueHD.5.1-SWTYBLZ 21.22GB-4.png 韩赛尔与格蕾特:女巫猎人/格林双侠:猎巫世纪 Hansel.and.Gretel.Witch.Hunters.2013.2160p.BluRay.x265.10bit.SDR.TrueHD.5.1-SWTYBLZ 21.22GB-5.png 韩赛尔与格蕾特:女巫猎人/格林双侠:猎巫世纪 Hansel.and.Gretel.Witch.Hunters.2013.2160p.BluRay.x265.10bit.SDR.TrueHD.5.1-SWTYBLZ 21.22GB-6.png 韩赛尔与格蕾特:女巫猎人/格林双侠:猎巫世纪 Hansel.and.Gretel.Witch.Hunters.2013.2160p.BluRay.x265.10bit.SDR.TrueHD.5.1-SWTYBLZ 21.22GB-7.png 韩赛尔与格蕾特:女巫猎人/格林双侠:猎巫世纪 Hansel.and.Gretel.Witch.Hunters.2013.2160p.BluRay.x265.10bit.SDR.TrueHD.5.1-SWTYBLZ 21.22GB-8.png





    Hansel.and.Gretel.Witch.Hunters.2013.2160p.BluRay.x265.10bit.SDR.TrueHD.5.1-SWTY.torrent (53.71 KB, 下载次数: 29)
    [发帖际遇]: 蓝光 乐于助人,奖励 3 蓝光币. 幸运榜 / 衰神榜
    开通VIP免费下载本站所有资源---点这里
    新手必看:资源下载、资源播放、字幕使用、等常见问题---点这里
    回复

    使用道具 举报

  • TA的每日心情
    开心
    前天 15:10
  • 签到天数: 15 天

    [LV.4]偶尔看看III

    发表于 2018-10-11 20:24:04 | 显示全部楼层
    真是难得给力的资源啊 谢谢楼主分享
    [发帖际遇]: btfans 发帖时在路边捡到 2 蓝光币,偷偷放进了口袋. 幸运榜 / 衰神榜
    开通VIP免费下载本站所有资源---点这里
    新手必看:资源下载、资源播放、字幕使用、等常见问题---点这里
    回复 支持 反对

    使用道具 举报

    该用户从未签到

    发表于 2018-10-11 22:27:26 | 显示全部楼层
    谢谢楼主分享
    开通VIP免费下载本站所有资源---点这里
    新手必看:资源下载、资源播放、字幕使用、等常见问题---点这里
    回复 支持 反对

    使用道具 举报

  • TA的每日心情
    开心
    1 小时前
  • 签到天数: 14 天

    [LV.3]偶尔看看II

    发表于 2018-10-12 09:07:19 | 显示全部楼层

    强烈支持楼主ing……
    [发帖际遇]: 变成天使の魔 乐于助人,奖励 1 蓝光币. 幸运榜 / 衰神榜
    开通VIP免费下载本站所有资源---点这里
    新手必看:资源下载、资源播放、字幕使用、等常见问题---点这里
    回复 支持 反对

    使用道具 举报

  • TA的每日心情
    开心
    昨天 10:07
  • 签到天数: 12 天

    [LV.3]偶尔看看II

    发表于 2018-10-12 09:22:11 | 显示全部楼层
    看到这帖子真是高兴!
    开通VIP免费下载本站所有资源---点这里
    新手必看:资源下载、资源播放、字幕使用、等常见问题---点这里
    回复 支持 反对

    使用道具 举报

    该用户从未签到

    发表于 2018-10-12 11:09:35 | 显示全部楼层
    强烈支持楼主ing……
    开通VIP免费下载本站所有资源---点这里
    新手必看:资源下载、资源播放、字幕使用、等常见问题---点这里
    回复 支持 反对

    使用道具 举报

  • TA的每日心情
    擦汗
    昨天 07:59
  • 签到天数: 21 天

    [LV.4]偶尔看看III

    发表于 2018-10-12 13:11:46 | 显示全部楼层
    强烈支持楼主ing……
    [发帖际遇]: chyunping 乐于助人,奖励 3 蓝光币. 幸运榜 / 衰神榜
    开通VIP免费下载本站所有资源---点这里
    新手必看:资源下载、资源播放、字幕使用、等常见问题---点这里
    回复 支持 反对

    使用道具 举报

  • TA的每日心情
    开心
    昨天 17:05
  • 签到天数: 1 天

    [LV.1]初来乍到

    发表于 2018-10-12 13:21:43 | 显示全部楼层
    看到这帖子真是高兴!
    开通VIP免费下载本站所有资源---点这里
    新手必看:资源下载、资源播放、字幕使用、等常见问题---点这里
    回复 支持 反对

    使用道具 举报

    该用户从未签到

    发表于 2018-10-25 20:56:35 | 显示全部楼层
    激动人心,无法言表!
    开通VIP免费下载本站所有资源---点这里
    新手必看:资源下载、资源播放、字幕使用、等常见问题---点这里
    回复 支持 反对

    使用道具 举报

  • TA的每日心情
    开心
    昨天 11:11
  • 签到天数: 21 天

    [LV.4]偶尔看看III

    发表于 2018-11-7 11:25:03 | 显示全部楼层
    看到这帖子真是高兴!
    [发帖际遇]: 一个袋子砸在了 zhoudh 头上,zhoudh 赚了 3 蓝光币. 幸运榜 / 衰神榜
    开通VIP免费下载本站所有资源---点这里
    新手必看:资源下载、资源播放、字幕使用、等常见问题---点这里
    回复 支持 反对

    使用道具 举报

    懒得打字嘛,点击右侧快捷回复 【右侧内容,后台自定义】
    您需要登录后才可以回帖 登录 | 立即加入

    本版积分规则

    现在加入蓝光电影网,注册一个账号

    QQ| 手机版|小黑屋| 蓝光电影网 |网站地图

    Copyright © 20013-2018 Comsenz Inc.  Template by 蓝光电影论坛 All Rights Reserved.

    Powered by 高清电影网 X3.4
    特别声明:本站所有资源均由网上收集而来,版权归原影音公司所有,如果侵犯了你的权益,请通知我们,我们会及时删除侵权内容.

    快速回复 返回顶部 返回列表