找回密码

蓝光电影网

查看: 3872|回复: 76

[动作] 高地行动 High.Ground.2020.1080p.BluRay.x264.DTS-HD.MA.5.1-FGT 9.84GB

  [复制链接]

 成长值: 17850

发表于 2020-12-5 22:47:28 | 显示全部楼层 |阅读模式


◎译  名 高地行动
◎片  名 High Ground
◎年  代 2020
◎产  地 澳大利亚
◎类  别 动作 / 惊悚 / 历史 / 西部
◎语  言 英语,雍古语
◎上映日期 2020-02-23(柏林电影节) / 2020-07-09(澳大利亚)
◎IMDb评分  6.3/10 from 174 users
◎IMDb链接  https://www.imdb.com/title/tt9286908/
◎豆瓣评分 /10 from 0 users
◎豆瓣链接 https://movie.douban.com/subject/34955339/
◎片  长 104分钟
◎导  演 斯蒂芬·麦克斯韦·约翰逊 Stephen Maxwell Johnson
◎编  剧 克里斯·阿纳斯塔西亚德斯 Chris Anastassiades
◎主  演 西蒙·贝克 Simon Baker
       卡兰·马尔韦 Callan Mulvey
       杰克·汤普森 Jack Thompson
       凯伦·皮斯托里斯 Caren Pistorius
       瑞安·柯尔 Ryan Corr
       约翰·布鲁普顿 John Brumpton
       大卫·菲尔德 David Field
       安迪·麦克菲 Andy McPhee
       亚伦·佩德森 Aaron Pedersen
◎标  签 西部 | 澳大利亚 | 2020 | P-BerlinD特别展映 | Berlin特别展映
◎简  介


  1919. After fighting in WWI as a sniper Travis, now a Policeman in the vast empty spaces of northern Australia, loses control of an operation that results in the massacre of an Indigenous tribe. After his superiors insist on burying the truth Travis leaves in disgust, only to be forced back twelve years later to hunt down Baywara, an Aboriginal warrior whose attacks on new-settlers are causing havoc. When Travis recruits mission-raised Gutjuk, the only known massacre-survivor as his Tracker, the truth of the past is revealed and Travis becomes the hunted.
  1. Video
  2. ID                                       : 1
  3. Format                                   : AVC
  4. Format/Info                              : Advanced Video Codec
  5. Format profile                           : [email protected]
  6. Format settings                          : CABAC / 4 Ref Frames
  7. Format settings, CABAC                   : Yes
  8. Format settings, Reference frames        : 4 frames
  9. Codec ID                                 : V_MPEG4/ISO/AVC
  10. Duration                                 : 1 h 44 min
  11. Bit rate                                 : 11.5 Mb/s
  12. Width                                    : 1 788 pixels
  13. Height                                   : 1 080 pixels
  14. Display aspect ratio                     : 5:3
  15. Frame rate mode                          : Constant
  16. Frame rate                               : 24.000 FPS
  17. Color space                              : YUV
  18. Chroma subsampling                       : 4:2:0
  19. Bit depth                                : 8 bits
  20. Scan type                                : Progressive
  21. Bits/(Pixel*Frame)                       : 0.248
  22. Stream size                              : 8.39 GiB (85%)
  23. Title                                    : High.Ground.2020.1080p.BluRay.x264.DTS-HD.MA.5.1-FGT
  24. Writing library                          : x264 core 148 r2748 97eaef2
  25. Encoding settings                        : cabac=1 / ref=4 / deblock=1:-2:-2 / analyse=0x3:0x113 / me=umh / subme=9 / psy=1 / psy_rd=1.00:0.15 / mixed_ref=1 / me_range=16 / chroma_me=1 / trellis=2 / 8x8dct=1 / cqm=0 / deadzone=21,11 / fast_pskip=1 / chroma_qp_offset=-3 / threads=72 / lookahead_threads=3 / sliced_threads=0 / nr=0 / decimate=1 / interlaced=0 / bluray_compat=0 / constrained_intra=0 / bframes=3 / b_pyramid=2 / b_adapt=1 / b_bias=0 / direct=3 / weightb=1 / open_gop=0 / weightp=2 / keyint=250 / keyint_min=25 / scenecut=40 / intra_refresh=0 / rc_lookahead=50 / rc=2pass / mbtree=1 / bitrate=11500 / ratetol=1.0 / qcomp=0.60 / qpmin=0 / qpmax=69 / qpstep=4 / cplxblur=20.0 / qblur=0.5 / vbv_maxrate=31250 / vbv_bufsize=31250 / nal_hrd=none / filler=0 / ip_ratio=1.40 / aq=1:1.00
  26. Language                                 : English
  27. Default                                  : Yes
  28. Forced                                   : No
  29. Audio
  30. ID                                       : 2
  31. ID in the original source medium         : 4353 (0x1101)
  32. Format                                   : DTS XLL
  33. Format/Info                              : Digital Theater Systems
  34. Commercial name                          : DTS-HD Master Audio
  35. Codec ID                                 : A_DTS
  36. Duration                                 : 1 h 44 min
  37. Bit rate mode                            : Variable
  38. Bit rate                                 : 1 983 kb/s
  39. Channel(s)                               : 6 channels
  40. Channel layout                           : C L R Ls Rs LFE
  41. Sampling rate                            : 48.0 kHz
  42. Frame rate                               : 93.750 FPS (512 SPF)
  43. Bit depth                                : 16 bits
  44. Compression mode                         : Lossless
  45. Stream size                              : 1.45 GiB (15%)
  46. Title                                    : High.Ground.2020.1080p.BluRay.x264.DTS-HD.MA.5.1-FGT
  47. Language                                 : English
  48. Default                                  : Yes
  49. Forced                                   : No
  50. Original source medium                   : Blu-ray
  51. Text #1
  52. ID                                       : 3
  53. Format                                   : UTF-8
  54. Codec ID                                 : S_TEXT/UTF8
  55. Codec ID/Info                            : UTF-8 Plain Text
  56. Duration                                 : 1 h 24 min
  57. Bit rate                                 : 8 b/s
  58. Count of elements                        : 207
  59. Stream size                              : 5.12 KiB (0%)
  60. Title                                    : English-FORCED-SRT
  61. Language                                 : English
  62. Default                                  : Yes
  63. Forced                                   : Yes
  64. Text #2
  65. ID                                       : 4
  66. ID in the original source medium         : 4610 (0x1202)
  67. Format                                   : PGS
  68. Muxing mode                              : zlib
  69. Codec ID                                 : S_HDMV/PGS
  70. Codec ID/Info                            : Picture based subtitle format used on BDs/HD-DVDs
  71. Duration                                 : 1 h 24 min
  72. Bit rate                                 : 5 694 b/s
  73. Count of elements                        : 413
  74. Stream size                              : 3.43 MiB (0%)
  75. Title                                    : English-FORCED-PGS
  76. Language                                 : English
  77. Default                                  : No
  78. Forced                                   : No
  79. Original source medium                   : Blu-ray
  80. Menu
  81. 00:00:00.000                             : en:Chapter 01
  82. 00:02:20.000                             : en:Chapter 02
  83. 00:06:05.083                             : en:Chapter 03
  84. 00:14:14.625                             : en:Chapter 04
  85. 00:20:32.916                             : en:Chapter 05
  86. 00:26:07.791                             : en:Chapter 06
  87. 00:37:07.291                             : en:Chapter 07
  88. 00:49:56.333                             : en:Chapter 08
  89. 00:58:27.750                             : en:Chapter 09
  90. 01:08:08.416                             : en:Chapter 10
  91. 01:20:08.583                             : en:Chapter 11
  92. 01:35:24.791                             : en:Chapter 12
复制代码






                                       
                                       

                                       
                                       
                                       




回复

使用道具 举报

发表于 2020-12-5 23:33:09 | 显示全部楼层

这个帖子不回对不起自己!我想我是一天也不能离开蓝光电影网
回复 支持 反对

使用道具 举报

发表于 2020-12-5 23:57:34 | 显示全部楼层
楼主发贴辛苦了,谢谢楼主分享!我觉得蓝光电影网是注册对了!
回复 支持 反对

使用道具 举报

发表于 2020-12-6 00:16:14 | 显示全部楼层
Thanks for sharing
回复 支持 反对

使用道具 举报

发表于 2020-12-6 01:08:56 | 显示全部楼层
谢谢分享谢谢
回复 支持 反对

使用道具 举报

发表于 2020-12-6 10:03:50 | 显示全部楼层
好片,不是很惊悚
回复 支持 反对

使用道具 举报

发表于 2020-12-6 10:23:01 | 显示全部楼层
这么珍贵的资源不收藏可惜了啊
回复 支持 反对

使用道具 举报

 成长值: 910

发表于 2020-12-6 10:23:05 | 显示全部楼层

这东西我收了!谢谢楼主!蓝光电影网真好!
回复 支持 反对

使用道具 举报

 成长值: 985

发表于 2020-12-6 11:12:23 | 显示全部楼层
非常喜欢西部电影,希望尽快出蓝光版本
回复 支持 反对

使用道具 举报

 成长值: 6520

发表于 2020-12-6 11:13:07 | 显示全部楼层
谢谢楼主无私分享。
回复 支持 反对

使用道具 举报

懒得打字嘛,点击右侧快捷回复 【右侧内容,后台自定义】
您需要登录后才可以回帖 登录 | 立即加入

本版积分规则

现在加入蓝光电影网,注册一个账号
上个主题 下个主题 快速回复 收藏帖子 返回列表 客服中心 搜索

手机版|小黑屋| 蓝光电影网 |网站地图 

Copyright © 2015-2019 Comsenz Inc.  Template by 蓝光电影论坛 All Rights Reserved.

Powered by 蓝光电影网 X3.4

特别声明:本站所有资源均由网上收集而来,版权归原影音公司所有,如果侵犯了你的权益,请通知我们,我们会及时删除侵权内容.

快速回复 返回顶部 返回列表