找回密码

蓝光电影网

查看: 1857|回复: 90

阿尔忒弥斯酒店/绝命酒店 Hotel.Artemis.2018.2160p.BluRay.x264.8bit.SDR.DTS-HD.MA.5.1-SWTYBLZ 28.94GB

  [复制链接]
  • TA的每日心情
    开心
    昨天 09:07
  • 签到天数: 23 天

    [LV.4]偶尔看看III

     成长值: 18115

    发表于 2018-10-8 00:13:25 | 显示全部楼层 |阅读模式

    马上注册,获取最新影视资讯,享用更多功能,让你轻松玩转蓝光电影网。

    您需要 登录 才可以下载或查看,没有帐号?立即加入

    x

    阿尔忒弥斯酒店/绝命酒店 Hotel.Artemis.2018.2160p.BluRay.x264.8bit.SDR.DTS-HD.MA.5.1-SWTYBLZ 28.94GB-1.jpg
    ◎译  名 阿尔忒弥斯酒店/绝命酒店(港)
    ◎片  名 Hotel Artemis
    ◎年  代 2018
    ◎产  地 美国/英国
    ◎类  别 动作/犯罪/惊悚
    ◎语  言 英语
    ◎上映日期 2018-06-08(美国)
    ◎IMDb评分  6.1/10 from 11,059 users
    ◎IMDb链接  http://www.imdb.com/title/tt5834262/
    ◎豆瓣评分 5.8/10 from 748 users
    ◎豆瓣链接 https://movie.douban.com/subject/26925532/
    ◎片  长 93分钟
    ◎导  演 德鲁·皮尔斯 Drew Pearce
    ◎主  演 朱迪·福斯特 Jodie Foster
          斯特林·K·布朗 Sterling K. Brown
          索菲亚·波多拉 Sofia Boutella
          杰夫·高布伦 Jeff Goldblum
          布莱恩·泰里·亨利 Brian Tyree Henry
          珍妮·斯蕾特 Jenny Slate
          扎克瑞·昆图 Zachary Quinto
          查理·戴 Charlie Day
          戴夫·巴蒂斯塔 Dave Bautista
          肯尼斯·崔 Kenneth Choi
          乔希·蒂尔曼 Josh Tillman
          伊万·琼斯 Evan Jones
          内森·戴维斯 Nathan Davis Jr.
          拉美西斯·希梅内斯 Ramses Jimenez
          安杰拉·斯普林克尔 Angela Sprinkle
          巴尔迪普·辛格 Baldeep Singh
          布兰顿·莫拉莱斯 Brandon Morales
          坦纳·吉尔 Tanner Gill

    ◎简  介

      影片由德鲁·皮尔斯执导,朱迪·福斯特主演,戴夫·巴蒂斯塔、索菲亚·波多拉出演。在近未来洛杉矶一家专门为罪犯疗伤的医院,福斯特饰演的护士在工作中偶然发现一名举止怪异的病人,与此同时其他病患却接连死于非命 ...
    • Video
    • ID                                       : 1
    • Format                                   : AVC
    • Format/Info                              : Advanced Video Codec
    • Format profile                           : [email protected]
    • Format settings                          : CABAC / 5 Ref Frames
    • Format settings, CABAC                   : Yes
    • Format settings, RefFrames               : 5 frames
    • Codec ID                                 : V_MPEG4/ISO/AVC
    • Duration                                 : 1 h 33 min
    • Bit rate                                 : 39.7 Mb/s
    • Width                                    : 3 840 pixels
    • Height                                   : 1 600 pixels
    • Display aspect ratio                     : 2.40:1
    • Frame rate mode                          : Constant
    • Frame rate                               : 23.976 (24000/1001) FPS
    • Color space                              : YUV
    • Chroma subsampling                       : 4:2:0
    • Bit depth                                : 8 bits
    • Scan type                                : Progressive
    • Bits/(Pixel*Frame)                       : 0.269
    • Stream size                              : 26.0 GiB (90%)
    • Title                                    : Hotel.Artemis.2018.2160p.BluRay.x264.8bit.SDR.DTS-HD.MA.5.1-SWTYBLZ
    • Writing library                          : x264 core 155 r2901 7d0ff22
    • Encoding settings                        : cabac=1 / ref=5 / deblock=1:-1:-1 / analyse=0x3:0x113 / me=umh / subme=10 / psy=1 / psy_rd=1.00:0.15 / mixed_ref=1 / me_range=48 / chroma_me=1 / trellis=2 / 8x8dct=1 / cqm=0 / deadzone=21,11 / fast_pskip=1 / chroma_qp_offset=-3 / threads=48 / lookahead_threads=4 / sliced_threads=0 / nr=0 / decimate=0 / interlaced=0 / bluray_compat=0 / constrained_intra=0 / bframes=3 / b_pyramid=2 / b_adapt=2 / b_bias=0 / direct=3 / weightb=1 / open_gop=0 / weightp=2 / keyint=250 / keyint_min=23 / scenecut=40 / intra_refresh=0 / rc_lookahead=50 / rc=crf / mbtree=1 / crf=18.0 / qcomp=0.60 / qpmin=0 / qpmax=69 / qpstep=4 / ip_ratio=1.40 / aq=1:1.00
    • Language                                 : English
    • Default                                  : Yes
    • Forced                                   : No
    • Audio #1
    • ID                                       : 2
    • Format                                   : DTS XLL
    • Format/Info                              : Digital Theater Systems
    • Commercial name                          : DTS-HD Master Audio
    • Codec ID                                 : A_DTS
    • Duration                                 : 1 h 33 min
    • Bit rate mode                            : Variable
    • Bit rate                                 : 3 588 kb/s
    • Channel(s)                               : 6 channels
    • Channel layout                           : C L R Ls Rs LFE
    • Sampling rate                            : 48.0 kHz
    • Frame rate                               : 93.750 FPS (512 SPF)
    • Bit depth                                : 24 bits
    • Compression mode                         : Lossless
    • Stream size                              : 2.35 GiB (8%)
    • Title                                    : Hotel.Artemis.2018.2160p.BluRay.x264.8bit.SDR.DTS-HD.MA.5.1-SWTYBLZ
    • Language                                 : English
    • Default                                  : Yes
    • Forced                                   : No
    • Audio #2
    • ID                                       : 3
    • Format                                   : AC-3
    • Format/Info                              : Audio Coding 3
    • Commercial name                          : Dolby Digital
    • Codec ID                                 : A_AC3
    • Duration                                 : 1 h 33 min
    • Bit rate mode                            : Constant
    • Bit rate                                 : 640 kb/s
    • Channel(s)                               : 6 channels
    • Channel layout                           : L R C LFE Ls Rs
    • Sampling rate                            : 48.0 kHz
    • Frame rate                               : 31.250 FPS (1536 SPF)
    • Bit depth                                : 16 bits
    • Compression mode                         : Lossy
    • Stream size                              : 429 MiB (1%)
    • Title                                    : Hotel.Artemis.2018.2160p.BluRay.x264.8bit.SDR.DTS-HD.MA.5.1-SWTYBLZ
    • Language                                 : English
    • Service kind                             : Complete Main
    • Default                                  : No
    • Forced                                   : No
    • Text #1
    • ID                                       : 4
    • Format                                   : UTF-8
    • Codec ID                                 : S_TEXT/UTF8
    • Codec ID/Info                            : UTF-8 Plain Text
    • Duration                                 : 1 h 29 min
    • Bit rate                                 : 69 b/s
    • Count of elements                        : 1454
    • Stream size                              : 45.8 KiB (0%)
    • Title                                    : English-SRT
    • Language                                 : English
    • Default                                  : Yes
    • Forced                                   : No
    • Text #2
    • ID                                       : 5
    • Format                                   : PGS
    • Muxing mode                              : zlib
    • Codec ID                                 : S_HDMV/PGS
    • Codec ID/Info                            : Picture based subtitle format used on BDs/HD-DVDs
    • Duration                                 : 1 h 33 min
    • Bit rate                                 : 52.5 kb/s
    • Count of elements                        : 3356
    • Stream size                              : 35.2 MiB (0%)
    • Title                                    : English-PGS
    • Language                                 : English
    • Default                                  : No
    • Forced                                   : No
    • Text #3
    • ID                                       : 6
    • Format                                   : PGS
    • Muxing mode                              : zlib
    • Codec ID                                 : S_HDMV/PGS
    • Codec ID/Info                            : Picture based subtitle format used on BDs/HD-DVDs
    • Duration                                 : 1 h 25 min
    • Bit rate                                 : 43.5 kb/s
    • Count of elements                        : 2378
    • Stream size                              : 26.5 MiB (0%)
    • Title                                    : Spanish-PGS
    • Language                                 : Spanish
    • Default                                  : No
    • Forced                                   : No
    • Menu
    • 00:00:00.000                             : :Chapter 1
    • 00:05:09.684                             : :Chapter 2
    • 00:13:06.076                             : :Chapter 3
    • 00:17:40.309                             : :Chapter 4
    • 00:22:09.619                             : :Chapter 5
    • 00:28:00.095                             : :Chapter 6
    • 00:33:35.054                             : :Chapter 7
    • 00:38:58.502                             : :Chapter 8
    • 00:42:21.872                             : :Chapter 9
    • 00:46:53.018                             : :Chapter 10
    • 00:52:45.871                             : :Chapter 11
    • 00:56:43.566                             : :Chapter 12
    • 01:00:13.651                             : :Chapter 13
    • 01:04:05.258                             : :Chapter 14
    • 01:08:45.287                             : :Chapter 15
    • 01:13:52.719                             : :Chapter 16
    • 01:18:17.693                             : :Chapter 17
    • 01:24:49.751                             : :Chapter 18

    复制代码

    阿尔忒弥斯酒店/绝命酒店 Hotel.Artemis.2018.2160p.BluRay.x264.8bit.SDR.DTS-HD.MA.5.1-SWTYBLZ 28.94GB-2.png 阿尔忒弥斯酒店/绝命酒店 Hotel.Artemis.2018.2160p.BluRay.x264.8bit.SDR.DTS-HD.MA.5.1-SWTYBLZ 28.94GB-3.png 阿尔忒弥斯酒店/绝命酒店 Hotel.Artemis.2018.2160p.BluRay.x264.8bit.SDR.DTS-HD.MA.5.1-SWTYBLZ 28.94GB-4.png 阿尔忒弥斯酒店/绝命酒店 Hotel.Artemis.2018.2160p.BluRay.x264.8bit.SDR.DTS-HD.MA.5.1-SWTYBLZ 28.94GB-5.png 阿尔忒弥斯酒店/绝命酒店 Hotel.Artemis.2018.2160p.BluRay.x264.8bit.SDR.DTS-HD.MA.5.1-SWTYBLZ 28.94GB-6.png 阿尔忒弥斯酒店/绝命酒店 Hotel.Artemis.2018.2160p.BluRay.x264.8bit.SDR.DTS-HD.MA.5.1-SWTYBLZ 28.94GB-7.png





    Hotel.Artemis.2018.2160p.BluRay.x264.8bit.SDR.DTS-HD.MA.5.1-SWTYBLZ.torrent (72.97 KB, 下载次数: 137)
    [发帖际遇]: 蓝光 乐于助人,奖励 1 蓝光币. 幸运榜 / 衰神榜
    开通VIP免费下载本站所有资源---点这里
    新手必看:资源下载、资源播放、字幕使用、等常见问题---点这里
    回复

    使用道具 举报

  • TA的每日心情
    奋斗
    3 天前
  • 签到天数: 17 天

    [LV.4]偶尔看看III

    已抛锚 成长值: 200

    发表于 2018-10-8 06:44:45 | 显示全部楼层
    看到这帖子真是高兴!
    [发帖际遇]: 一个袋子砸在了 原罪沉沦 头上,原罪沉沦 赚了 3 蓝光币. 幸运榜 / 衰神榜
    开通VIP免费下载本站所有资源---点这里
    新手必看:资源下载、资源播放、字幕使用、等常见问题---点这里
    回复 支持 反对

    使用道具 举报

  • TA的每日心情

    昨天 14:37
  • 签到天数: 20 天

    [LV.4]偶尔看看III

    发表于 2018-10-8 06:55:37 | 显示全部楼层
    恐怖片啊,让松驰的神经紧张一下。
    开通VIP免费下载本站所有资源---点这里
    新手必看:资源下载、资源播放、字幕使用、等常见问题---点这里
    回复 支持 反对

    使用道具 举报

  • TA的每日心情
    无聊
    4 天前
  • 签到天数: 3 天

    [LV.2]偶尔看看I

    发表于 2018-10-8 07:42:38 | 显示全部楼层
    看到这帖子真是高兴!
    [发帖际遇]: 北风级 发帖时在路边捡到 3 蓝光币,偷偷放进了口袋. 幸运榜 / 衰神榜
    开通VIP免费下载本站所有资源---点这里
    新手必看:资源下载、资源播放、字幕使用、等常见问题---点这里
    回复 支持 反对

    使用道具 举报

    该用户从未签到

     成长值: 1675

    发表于 2018-10-8 08:42:01 | 显示全部楼层
    谢谢分享
    [发帖际遇]: 智能影院 发帖时在路边捡到 1 蓝光币,偷偷放进了口袋. 幸运榜 / 衰神榜
    开通VIP免费下载本站所有资源---点这里
    新手必看:资源下载、资源播放、字幕使用、等常见问题---点这里
    回复

    使用道具 举报

  • TA的每日心情
    开心
    6 天前
  • 签到天数: 7 天

    [LV.3]偶尔看看II

    发表于 2018-10-8 09:04:24 | 显示全部楼层
    我只是路过打酱油的。
    [发帖际遇]: xiaonux 乐于助人,奖励 3 蓝光币. 幸运榜 / 衰神榜
    开通VIP免费下载本站所有资源---点这里
    新手必看:资源下载、资源播放、字幕使用、等常见问题---点这里
    回复 支持 反对

    使用道具 举报

  • TA的每日心情
    开心
    昨天 05:23
  • 签到天数: 25 天

    [LV.4]偶尔看看III

    发表于 2018-10-8 09:09:16 | 显示全部楼层
    强烈支持楼主ing……
    [发帖际遇]: whtg2 发帖时在路边捡到 1 蓝光币,偷偷放进了口袋. 幸运榜 / 衰神榜
    开通VIP免费下载本站所有资源---点这里
    新手必看:资源下载、资源播放、字幕使用、等常见问题---点这里
    回复 支持 反对

    使用道具 举报

    该用户从未签到

    发表于 2018-10-8 09:41:27 | 显示全部楼层
    以暴制暴!!!!!!
    开通VIP免费下载本站所有资源---点这里
    新手必看:资源下载、资源播放、字幕使用、等常见问题---点这里
    回复

    使用道具 举报

  • TA的每日心情
    开心
    5 天前
  • 签到天数: 4 天

    [LV.2]偶尔看看I

    发表于 2018-10-8 09:57:53 | 显示全部楼层
    看到这帖子真是高兴!
    开通VIP免费下载本站所有资源---点这里
    新手必看:资源下载、资源播放、字幕使用、等常见问题---点这里
    回复 支持 反对

    使用道具 举报

    该用户从未签到

    发表于 2018-10-8 10:55:59 | 显示全部楼层
    恐怖片不敢看呀
    [发帖际遇]: JackSparrow 乐于助人,奖励 3 蓝光币. 幸运榜 / 衰神榜
    开通VIP免费下载本站所有资源---点这里
    新手必看:资源下载、资源播放、字幕使用、等常见问题---点这里
    回复 支持 反对

    使用道具 举报

    懒得打字嘛,点击右侧快捷回复 【右侧内容,后台自定义】
    您需要登录后才可以回帖 登录 | 立即加入

    本版积分规则

    现在加入蓝光电影网,注册一个账号

    QQ| 手机版|小黑屋| 蓝光电影网 |网站地图

    Copyright © 20013-2018 Comsenz Inc.  Template by 蓝光电影论坛 All Rights Reserved.

    Powered by 高清电影网 X3.4
    特别声明:本站所有资源均由网上收集而来,版权归原影音公司所有,如果侵犯了你的权益,请通知我们,我们会及时删除侵权内容.

    快速回复 返回顶部 返回列表