找回密码

蓝光电影网

查看: 1504|回复: 46
打印 上一主题 下一主题

[REMUX.HEVC] 末日崩塌 San.Andreas.2015.2160p.BluRay.REMUX.HEVC.DTS-HD.MA.TrueHD.7.1.Atmos-FGT 58GB

[复制链接]

 成长值: 28825

跳转到指定楼层
1#


译  名 末日崩塌/加州大地震(台)/圣安地列斯

片  名 San Andreas

年  代 2015

产  地 美国/澳大利亚

类  别 动作/冒险/灾难

语  言 英语

上映日期 2015-05-29(美国)/2015-06-02(中国大陆)

IMDb评分  6.1/10 from 168,498 users

IMDb链接  http://www.imdb.com/title/tt2126355/

豆瓣评分 7.0/10 from 90,495 users

豆瓣链接 https://movie.douban.com/subject/25786077/

片  长 114分钟

导  演 布拉德·佩顿 Brad Peyton

主  演 道恩·强森 Dwayne Johnson

      亚历珊德拉·达达里奥 Alexandra Daddario

      卡拉·古奇诺 Carla Gugino

      雨果·约翰斯通-伯特 Hugo Johnstone-Burt

      雅奇·潘嘉比 Archie Panjabi

      科尔顿·海恩斯 Colton Haynes

      艾恩·格拉法德 Ioan Gruffudd

      保罗·吉亚玛提 Paul Giamatti

      凯莉·米洛 Kylie Minogue

      李威尹 Will Yun Lee

      瓦内萨·罗斯 Vanessa Ross

      马特·杰拉德 Matt Gerald

      阿特·帕金森 Art Parkinson

      罗宾·阿特金·唐斯 Robin Atkin Downes

      艾伦D·柏温 Alan D. Purwin

      亚历克·乌特戈夫 Alec Utgoff

      摩根·格莉芬 Morgan Griffin

      杰米斯·巴特勒 Jaymes Butler

      艾伦·波普尔顿 Allan Poppleton




简  介




  前美国大兵雷蒙德·盖恩斯(道恩·强森 Dwayne Johnson 饰)在结束硝烟战火的生涯后,而今成为洛杉矶消防局的直升机救援人员。虽然工作中全力以赴,受人敬仰,值得信赖,这些却都无法挽回他失败的婚姻。某次短暂休假后,雷重返岗位,这时在内华达州南部发生了百年不遇的大地震,胡佛水坝在强震中被彻底摧毁。未过多久,又一轮强震从旧金山袭向了洛杉矶,雷在直升机上目睹了繁华城市转眼变成废墟的可怕一幕。

  此时他的妻子艾玛(卡拉·古奇诺 Carla Gugino 饰)和女儿布蕾克(亚历珊德拉·达达里奥 Alexandra Daddario 饰)此时分处两座城市,为了拯救最爱的两个人,他只身一人,勇往直前,与地震展开争分夺秒的赛跑……




获奖情况




  第14届美国视觉效果协会奖  (2016)

  最佳特效电影视觉效果(提名)

  最佳真人电影模拟动画效果(提名)

  最佳电影视觉效果合成(提名)




  第17届美国青少年选择奖  (2015)

  最佳动作片(提名)

  最佳动作片女演员(提名) 亚历珊德拉·达达里奥

  最佳暑期电影男演员(提名) 道恩·强森




  第2届豆瓣电影年度榜单  (2015)

  6月最受关注电影(提名)





  1. Video
  2. ID                                       : 1
  3. Format                                   : HEVC
  4. Format/Info                              : High Efficiency Video Coding
  5. Format profile                           : Main High@L4@High
  6. Codec ID                                 : V_MPEGH/ISO/HEVC
  7. Duration                                 : 1 h 54 min
  8. Bit rate                                 : 54.0 Mb/s
  9. Width                                    : 3 840 pixels
  10. Height                                   : 2 160 pixels
  11. Display aspect ratio                     : 16:9
  12. Frame rate mode                          : Constant
  13. Frame rate                               : 23.976 (24000/1001) FPS
  14. Color space                              : YUV
  15. Chroma subsampling                       : 4:2:0 (Type 2)
  16. Bit depth                                : 10 bits
  17. Bits/(Pixel*Frame)                       : 0.272
  18. Stream size                              : 43.2 GiB (74%)
  19. Title                                    : San.Andreas.2015.2160p.BluRay.REMUX.HEVC.DTS-HD.MA.TrueHD.7.1.Atmos-FGT
  20. Writing library                          : ATEME Titan KFE 3.7.3 (4.7.3.1001)
  21. Language                                 : English
  22. Default                                  : Yes
  23. Forced                                   : No
  24. Color range                              : Limited
  25. Color primaries                          : BT.2020
  26. Transfer characteristics                 : PQ
  27. Matrix coefficients                      : BT.2020 non-constant
  28. Mastering display color primaries        : R: x=0.680000 y=0.320000, G: x=0.265000 y=0.690000, B: x=0.150000 y=0.060000, White point: x=0.312700 y=0.329000
  29. Mastering display luminance              : min: 0.0050 cd/m2, max: 4000.0000 cd/m2

  30. Audio #1
  31. ID                                       : 2
  32. Format                                   : TrueHD
  33. Format profile                           : TrueHD+Atmos / TrueHD
  34. Codec ID                                 : A_TRUEHD
  35. Duration                                 : 1 h 54 min
  36. Bit rate mode                            : Variable
  37. Bit rate                                 : 5 240 kb/s
  38. Maximum bit rate                         : 8 760 kb/s
  39. Channel(s)                               : Object Based / 8 channels
  40. Channel positions                        : Object Based / Front: L C R, Side: L R, Back: L R, LFE
  41. Sampling rate                            :  / 48.0 kHz
  42. Frame rate                               : 1 200.000 FPS (40 SPF)
  43. Compression mode                         : Lossless
  44. Stream size                              : 4.19 GiB (7%)
  45. Title                                    : San.Andreas.2015.2160p.BluRay.REMUX.HEVC.DTS-HD.MA.TrueHD.7.1.Atmos-FGT
  46. Language                                 : English
  47. Default                                  : Yes
  48. Forced                                   : No

  49. Audio #2
  50. ID                                       : 3
  51. Format                                   : DTS
  52. Format/Info                              : Digital Theater Systems
  53. Format profile                           : MA / Core
  54. Codec ID                                 : A_DTS
  55. Duration                                 : 1 h 54 min
  56. Bit rate mode                            : Variable / Constant
  57. Bit rate                                 : 4 431 kb/s / 1 509 kb/s
  58. Channel(s)                               : 8 channels / 6 channels
  59. Channel positions                        : Front: L C R, Side: L R, Back: L R, LFE / Front: L C R, Side: L R, LFE
  60. Sampling rate                            : 48.0 kHz
  61. Frame rate                               : 93.750 FPS (512 SPF)
  62. Bit depth                                : 24 bits
  63. Compression mode                         : Lossless / Lossy
  64. Stream size                              : 3.54 GiB (6%)
  65. Title                                    : San.Andreas.2015.2160p.BluRay.REMUX.HEVC.DTS-HD.MA.TrueHD.7.1.Atmos-FGT
  66. Language                                 : English
  67. Default                                  : No
  68. Forced                                   : No

  69. Audio #3
  70. ID                                       : 4
  71. Format                                   : AC-3
  72. Format/Info                              : Audio Coding 3
  73. Codec ID                                 : A_AC3
  74. Duration                                 : 1 h 54 min
  75. Bit rate mode                            : Constant
  76. Bit rate                                 : 384 kb/s
  77. Channel(s)                               : 6 channels
  78. Channel positions                        : Front: L C R, Side: L R, LFE
  79. Sampling rate                            : 48.0 kHz
  80. Frame rate                               : 31.250 FPS (1536 SPF)
  81. Bit depth                                : 16 bits
  82. Compression mode                         : Lossy
  83. Stream size                              : 314 MiB (1%)
  84. Title                                    : San.Andreas.2015.2160p.BluRay.REMUX.HEVC.DTS-HD.MA.TrueHD.7.1.Atmos-FGT
  85. Language                                 : English
  86. Service kind                             : Complete Main
  87. Default                                  : No
  88. Forced                                   : No

  89. Audio #4
  90. ID                                       : 5
  91. Format                                   : AC-3
  92. Format/Info                              : Audio Coding 3
  93. Codec ID                                 : A_AC3
  94. Duration                                 : 1 h 54 min
  95. Bit rate mode                            : Constant
  96. Bit rate                                 : 448 kb/s
  97. Channel(s)                               : 6 channels
  98. Channel positions                        : Front: L C R, Side: L R, LFE
  99. Sampling rate                            : 48.0 kHz
  100. Frame rate                               : 31.250 FPS (1536 SPF)
  101. Bit depth                                : 16 bits
  102. Compression mode                         : Lossy
  103. Stream size                              : 367 MiB (1%)
  104. Title                                    : San.Andreas.2015.2160p.BluRay.REMUX.HEVC.DTS-HD.MA.TrueHD.7.1.Atmos-FGT
  105. Language                                 : English
  106. Service kind                             : Complete Main
  107. Default                                  : No
  108. Forced                                   : No

  109. Audio #5
  110. ID                                       : 6
  111. Format                                   : AC-3
  112. Format/Info                              : Audio Coding 3
  113. Codec ID                                 : A_AC3
  114. Duration                                 : 1 h 54 min
  115. Bit rate mode                            : Constant
  116. Bit rate                                 : 448 kb/s
  117. Channel(s)                               : 6 channels
  118. Channel positions                        : Front: L C R, Side: L R, LFE
  119. Sampling rate                            : 48.0 kHz
  120. Frame rate                               : 31.250 FPS (1536 SPF)
  121. Bit depth                                : 16 bits
  122. Compression mode                         : Lossy
  123. Stream size                              : 367 MiB (1%)
  124. Title                                    : San.Andreas.2015.2160p.BluRay.REMUX.HEVC.DTS-HD.MA.TrueHD.7.1.Atmos-FGT
  125. Language                                 : French
  126. Service kind                             : Complete Main
  127. Default                                  : No
  128. Forced                                   : No

  129. Audio #6
  130. ID                                       : 7
  131. Format                                   : TrueHD
  132. Format profile                           : TrueHD+Atmos / TrueHD
  133. Codec ID                                 : A_TRUEHD
  134. Duration                                 : 1 h 54 min
  135. Bit rate mode                            : Variable
  136. Bit rate                                 : 5 306 kb/s
  137. Maximum bit rate                         : 8 757 kb/s
  138. Channel(s)                               : Object Based / 8 channels
  139. Channel positions                        : Object Based / Front: L C R, Side: L R, Back: L R, LFE
  140. Sampling rate                            :  / 48.0 kHz
  141. Frame rate                               : 1 200.000 FPS (40 SPF)
  142. Compression mode                         : Lossless
  143. Stream size                              : 4.24 GiB (7%)
  144. Title                                    : San.Andreas.2015.2160p.BluRay.REMUX.HEVC.DTS-HD.MA.TrueHD.7.1.Atmos-FGT
  145. Language                                 : German
  146. Default                                  : No
  147. Forced                                   : No

  148. Audio #7
  149. ID                                       : 8
  150. Format                                   : AC-3
  151. Format/Info                              : Audio Coding 3
  152. Codec ID                                 : A_AC3
  153. Duration                                 : 1 h 54 min
  154. Bit rate mode                            : Constant
  155. Bit rate                                 : 384 kb/s
  156. Channel(s)                               : 6 channels
  157. Channel positions                        : Front: L C R, Side: L R, LFE
  158. Sampling rate                            : 48.0 kHz
  159. Frame rate                               : 31.250 FPS (1536 SPF)
  160. Bit depth                                : 16 bits
  161. Compression mode                         : Lossy
  162. Stream size                              : 314 MiB (1%)
  163. Title                                    : San.Andreas.2015.2160p.BluRay.REMUX.HEVC.DTS-HD.MA.TrueHD.7.1.Atmos-FGT
  164. Language                                 : German
  165. Service kind                             : Complete Main
  166. Default                                  : No
  167. Forced                                   : No

  168. Audio #8
  169. ID                                       : 9
  170. Format                                   : AC-3
  171. Format/Info                              : Audio Coding 3
  172. Codec ID                                 : A_AC3
  173. Duration                                 : 1 h 54 min
  174. Bit rate mode                            : Constant
  175. Bit rate                                 : 448 kb/s
  176. Channel(s)                               : 6 channels
  177. Channel positions                        : Front: L C R, Side: L R, LFE
  178. Sampling rate                            : 48.0 kHz
  179. Frame rate                               : 31.250 FPS (1536 SPF)
  180. Bit depth                                : 16 bits
  181. Compression mode                         : Lossy
  182. Stream size                              : 367 MiB (1%)
  183. Title                                    : San.Andreas.2015.2160p.BluRay.REMUX.HEVC.DTS-HD.MA.TrueHD.7.1.Atmos-FGT
  184. Language                                 : Spanish
  185. Service kind                             : Complete Main
  186. Default                                  : No
  187. Forced                                   : No

  188. Audio #9
  189. ID                                       : 10
  190. Format                                   : AC-3
  191. Format/Info                              : Audio Coding 3
  192. Codec ID                                 : A_AC3
  193. Duration                                 : 1 h 54 min
  194. Bit rate mode                            : Constant
  195. Bit rate                                 : 448 kb/s
  196. Channel(s)                               : 6 channels
  197. Channel positions                        : Front: L C R, Side: L R, LFE
  198. Sampling rate                            : 48.0 kHz
  199. Frame rate                               : 31.250 FPS (1536 SPF)
  200. Bit depth                                : 16 bits
  201. Compression mode                         : Lossy
  202. Stream size                              : 367 MiB (1%)
  203. Title                                    : San.Andreas.2015.2160p.BluRay.REMUX.HEVC.DTS-HD.MA.TrueHD.7.1.Atmos-FGT
  204. Language                                 : Portuguese
  205. Service kind                             : Complete Main
  206. Default                                  : No
  207. Forced                                   : No

  208. Audio #10
  209. ID                                       : 11
  210. Format                                   : AC-3
  211. Format/Info                              : Audio Coding 3
  212. Codec ID                                 : A_AC3
  213. Duration                                 : 1 h 54 min
  214. Bit rate mode                            : Constant
  215. Bit rate                                 : 448 kb/s
  216. Channel(s)                               : 6 channels
  217. Channel positions                        : Front: L C R, Side: L R, LFE
  218. Sampling rate                            : 48.0 kHz
  219. Frame rate                               : 31.250 FPS (1536 SPF)
  220. Bit depth                                : 16 bits
  221. Compression mode                         : Lossy
  222. Stream size                              : 367 MiB (1%)
  223. Title                                    : San.Andreas.2015.2160p.BluRay.REMUX.HEVC.DTS-HD.MA.TrueHD.7.1.Atmos-FGT
  224. Language                                 : English
  225. Service kind                             : Complete Main
  226. Default                                  : No
  227. Forced                                   : No

  228. Audio #11
  229. ID                                       : 12
  230. Format                                   : AC-3
  231. Format/Info                              : Audio Coding 3
  232. Codec ID                                 : A_AC3
  233. Duration                                 : 1 h 54 min
  234. Bit rate mode                            : Constant
  235. Bit rate                                 : 448 kb/s
  236. Channel(s)                               : 6 channels
  237. Channel positions                        : Front: L C R, Side: L R, LFE
  238. Sampling rate                            : 48.0 kHz
  239. Frame rate                               : 31.250 FPS (1536 SPF)
  240. Bit depth                                : 16 bits
  241. Compression mode                         : Lossy
  242. Stream size                              : 367 MiB (1%)
  243. Title                                    : San.Andreas.2015.2160p.BluRay.REMUX.HEVC.DTS-HD.MA.TrueHD.7.1.Atmos-FGT
  244. Language                                 : Japanese
  245. Service kind                             : Complete Main
  246. Default                                  : No
  247. Forced                                   : No

  248. Text #1
  249. ID                                       : 13
  250. Format                                   : PGS
  251. Muxing mode                              : zlib
  252. Codec ID                                 : S_HDMV/PGS
  253. Codec ID/Info                            : Picture based subtitle format used on BDs/HD-DVDs
  254. Duration                                 : 1 h 52 min
  255. Bit rate                                 : 27.3 kb/s
  256. Count of elements                        : 2978
  257. Stream size                              : 22.1 MiB (0%)
  258. Title                                    : English_PGS
  259. Language                                 : English
  260. Default                                  : Yes
  261. Forced                                   : No

  262. Text #2
  263. ID                                       : 14
  264. Format                                   : PGS
  265. Muxing mode                              : zlib
  266. Codec ID                                 : S_HDMV/PGS
  267. Codec ID/Info                            : Picture based subtitle format used on BDs/HD-DVDs
  268. Duration                                 : 1 h 53 min
  269. Bit rate                                 : 17.2 kb/s
  270. Count of elements                        : 1982
  271. Stream size                              : 13.9 MiB (0%)
  272. Title                                    : French-PGS
  273. Language                                 : French
  274. Default                                  : No
  275. Forced                                   : No

  276. Text #3
  277. ID                                       : 15
  278. Format                                   : PGS
  279. Muxing mode                              : zlib
  280. Codec ID                                 : S_HDMV/PGS
  281. Codec ID/Info                            : Picture based subtitle format used on BDs/HD-DVDs
  282. Duration                                 : 1 h 53 min
  283. Bit rate                                 : 31.4 kb/s
  284. Count of elements                        : 2996
  285. Stream size                              : 25.4 MiB (0%)
  286. Title                                    : German-PGS
  287. Language                                 : German
  288. Default                                  : No
  289. Forced                                   : No

  290. Text #4
  291. ID                                       : 16
  292. Format                                   : PGS
  293. Muxing mode                              : zlib
  294. Codec ID                                 : S_HDMV/PGS
  295. Codec ID/Info                            : Picture based subtitle format used on BDs/HD-DVDs
  296. Duration                                 : 1 h 53 min
  297. Bit rate                                 : 22.7 kb/s
  298. Count of elements                        : 2500
  299. Stream size                              : 18.4 MiB (0%)
  300. Title                                    : Spanish-PGS
  301. Language                                 : Spanish
  302. Default                                  : No
  303. Forced                                   : No

  304. Text #5
  305. ID                                       : 17
  306. Format                                   : PGS
  307. Muxing mode                              : zlib
  308. Codec ID                                 : S_HDMV/PGS
  309. Codec ID/Info                            : Picture based subtitle format used on BDs/HD-DVDs
  310. Duration                                 : 1 h 53 min
  311. Bit rate                                 : 22.3 kb/s
  312. Count of elements                        : 2502
  313. Stream size                              : 18.1 MiB (0%)
  314. Title                                    : Portuguese-PGS
  315. Language                                 : Portuguese
  316. Default                                  : No
  317. Forced                                   : No

  318. Text #6
  319. ID                                       : 18
  320. Format                                   : PGS
  321. Muxing mode                              : zlib
  322. Codec ID                                 : S_HDMV/PGS
  323. Codec ID/Info                            : Picture based subtitle format used on BDs/HD-DVDs
  324. Duration                                 : 1 h 53 min
  325. Bit rate                                 : 143 b/s
  326. Count of elements                        : 16
  327. Stream size                              : 119 KiB (0%)
  328. Title                                    : German-FORCED-PGS
  329. Language                                 : German
  330. Default                                  : No
  331. Forced                                   : No

  332. Text #7
  333. ID                                       : 19
  334. Format                                   : PGS
  335. Muxing mode                              : zlib
  336. Codec ID                                 : S_HDMV/PGS
  337. Codec ID/Info                            : Picture based subtitle format used on BDs/HD-DVDs
  338. Duration                                 : 1 h 52 min
  339. Bit rate                                 : 314 b/s
  340. Count of elements                        : 32
  341. Stream size                              : 260 KiB (0%)
  342. Title                                    : Spanish-FORCED-PGS
  343. Language                                 : Spanish
  344. Default                                  : No
  345. Forced                                   : No

  346. Text #8
  347. ID                                       : 20
  348. Format                                   : PGS
  349. Muxing mode                              : zlib
  350. Codec ID                                 : S_HDMV/PGS
  351. Codec ID/Info                            : Picture based subtitle format used on BDs/HD-DVDs
  352. Duration                                 : 1 h 40 min
  353. Bit rate                                 : 195 b/s
  354. Count of elements                        : 18
  355. Stream size                              : 144 KiB (0%)
  356. Title                                    : Portuguese-FORCED-PGS
  357. Language                                 : Portuguese
  358. Default                                  : No
  359. Forced                                   : No

  360. Text #9
  361. ID                                       : 21
  362. Format                                   : PGS
  363. Muxing mode                              : zlib
  364. Codec ID                                 : S_HDMV/PGS
  365. Codec ID/Info                            : Picture based subtitle format used on BDs/HD-DVDs
  366. Duration                                 : 1 h 45 min
  367. Bit rate                                 : 16.5 kb/s
  368. Count of elements                        : 2279
  369. Stream size                              : 12.4 MiB (0%)
  370. Title                                    : Japanese-PGS
  371. Language                                 : Japanese
  372. Default                                  : No
  373. Forced                                   : No

  374. Menu
  375. 00:00:00.000                             : en:Chapter 1
  376. 00:09:29.944                             : en:Chapter 2
  377. 00:18:47.209                             : en:Chapter 3
  378. 00:30:10.099                             : en:Chapter 4
  379. 00:40:08.823                             : en:Chapter 5
  380. 00:50:18.098                             : en:Chapter 6
  381. 00:59:44.497                             : en:Chapter 7
  382. 01:11:27.366                             : en:Chapter 8
  383. 01:19:43.612                             : en:Chapter 9
  384. 01:30:40.810                             : en:Chapter 10
  385. 01:39:56.490                             : en:Chapter 11
  386. 01:47:10.924                             : en:Chapter 12
复制代码













分享到:  QQ好友和群QQ好友和群
收藏收藏1
回复

使用道具 举报

推荐
发表于 3 天前 | 只看该作者
楼主太厉害了!楼主,电影应该很好看我觉得蓝光电影网真是个好地方!
回复 支持 1 反对 0

使用道具 举报

推荐
发表于 3 天前 | 只看该作者
楼主发贴辛苦了,谢谢楼主分享!我觉得蓝光电影网是注册对了!
回复 支持 1 反对 0

使用道具 举报

推荐
发表于 3 天前 | 只看该作者
电影应该很好看
回复 支持 1 反对 0

使用道具 举报

推荐
发表于 3 天前 | 只看该作者
楼主发贴辛苦了,谢谢楼主分享!我觉得蓝光电影网是注册对了!
回复 支持 1 反对 0

使用道具 举报

 成长值: 5890

6#
发表于 4 天前 | 只看该作者
太好啦&萬分感謝版主的無私發佈分享%
回复 支持 反对

使用道具 举报

7#
发表于 4 天前 | 只看该作者

楼主太厉害了!楼主,电影应该很好看我觉得蓝光电影网真是个好地方!
回复 支持 反对

使用道具 举报

8#
发表于 4 天前 | 只看该作者
蓝光电影网真是个好地方!
回复 支持 反对

使用道具 举报

 成长值: 60

9#
发表于 4 天前 | 只看该作者
没有一部能下载成功的
回复 支持 反对

使用道具 举报

10#
发表于 4 天前 | 只看该作者
楼主发贴辛苦了,谢谢楼主分享!我觉得蓝光电影网是注册对了!
回复 支持 反对

使用道具 举报

11#
发表于 4 天前 | 只看该作者

这东西我收了!谢谢楼主!蓝光电影网真好!
回复 支持 反对

使用道具 举报

12#
发表于 3 天前 | 只看该作者
楼主发贴辛苦了,谢谢楼主分享!我觉得蓝光电影网是注册对了!
回复 支持 反对

使用道具 举报

13#
发表于 3 天前 | 只看该作者
楼主发贴辛苦了,谢谢楼主分享!我觉得蓝光电影网是注册对了!
回复 支持 反对

使用道具 举报

14#
发表于 3 天前 | 只看该作者
不错,收下了。
回复 支持 反对

使用道具 举报

懒得打字嘛,点击右侧快捷回复 【右侧内容,后台自定义】
您需要登录后才可以回帖 登录 | 立即加入

本版积分规则

现在加入蓝光电影网,注册一个账号
上个主题 下个主题 快速回复 收藏帖子 返回列表 客服中心 搜索

手机版|小黑屋| 蓝光电影网 |网站地图 

Copyright © 2015-2019 Comsenz Inc.  Template by 蓝光电影论坛 All Rights Reserved.

Powered by 蓝光电影网 X3.4

特别声明:本站所有资源均由网上收集而来,版权归原影音公司所有,如果侵犯了你的权益,请通知我们,我们会及时删除侵权内容.

快速回复 返回顶部 返回列表