找回密码

蓝光电影网

查看: 280|回复: 5

[REMUX.HEVC] 西部世界 第一季/西方极乐园 Westworld.S03.2160p.BluRay.REMUX.HEVC.DTS-HD.MA.TrueHD.7.1.Atmos-FGT 215.03GB

[复制链接]

 成长值: 16965

发表于 2020-11-21 01:19:57 | 显示全部楼层 |阅读模式


◎译  名 西部世界 第一季/西方极乐园
◎片  名 Westworld Season 1
◎年  代 2016
◎产  地 美国
◎类  别 科幻 / 西部
◎语  言 英语
◎上映日期 2016-10-02(美国)
◎IMDb评分  8.7/10 from 417626 users
◎IMDb链接  https://www.imdb.com/title/tt0475784/
◎豆瓣评分 8.9/10 from 238353 users
◎豆瓣链接 https://movie.douban.com/subject/2338055/
◎集  数 10
◎片  长 60分钟
◎导  演 乔纳森·诺兰 Jonathan Nolan / 强尼·坎贝尔 Jonny Campbell / 理查德·J·刘易斯 Richard J. Lewis / 米歇尔·麦克拉伦 Michelle MacLaren / 尼尔·马歇尔 Neil Marshall / 文森佐·纳塔利 Vincenzo Natali / 弗雷德·托耶 Fred Toye / 斯蒂芬·威廉姆斯 Stephen Williams
◎编  剧 乔纳森·诺兰 Jonathan Nolan / 丽莎·乔伊 Lisa Joy / 迈克尔·克莱顿 Michael Crichton / 爱德·布鲁贝克 Ed Brubaker / 多米尼克·米切尔 Dominic Mitchell / 哈莉·韦格林·格罗斯 Halley Wegryn Gross / 游朝凯 Charles Yu / 丹·迪茨 Dan Dietz / 凯茜·林根费尔特 Kath Lingenfelter / 丹尼尔·T·汤姆森 Daniel T. Thomsen
◎主  演 埃文·蕾切尔·伍德 Evan Rachel Wood
       安东尼·霍普金斯 Anthony Hopkins
       艾德·哈里斯 Ed Harris
       坦迪·牛顿 Thandie Newton
       杰弗里·怀特 Jeffrey Wright
       吉米·辛普森 Jimmi Simpson
       詹姆斯·麦斯登 James Marsden
       本·巴恩斯 Ben Barnes
       英格丽德·波尔索·贝达尔 Ingrid Bols? Berdal
       卢克·海姆斯沃斯 Luke Hemsworth
       西瑟·巴比特·科努德森 Sidse Babett Knudsen
       安吉拉·萨拉弗安 Angela Sarafyan
       珊农·沃德华德 Shannon Woodward
       西蒙·夸特曼 Simon Quarterman
       小克利夫顿·克林斯 Clifton Collins Jr.
       罗德里戈·桑托罗 Rodrigo Santoro
       奥利弗·贝尔 Oliver Bell
       莱昂纳多·吴 Leonardo Nam
       詹姆斯·兰德里·赫伯特 James Landry Hébert
       路易斯·赫特哈姆 Louis Herthum
       杰弗里·丹尼尔·菲利普斯 Jeffrey Daniel Phillips
       泰莎·汤普森 Tessa Thompson
       米兰达·奥图 Miranda Otto
       库里·格拉汉姆 Currie Graham
       凯尔·柏海莫 Kyle Bornheimer
       凯姬·迈克拉瑞 Kiki McCleary
       奥利维亚·梅 Olivia May
       杰姬·摩尔 Jackie Moore
       妲露拉·莱莉 Talulah Riley
       史蒂文·奥格 Steven Ogg
       罗比·史密斯 Robby Smith
       乔什·克拉克 Josh Clark
       梅森·麦卡利 Mason McCulley
       布兰登·范弗利特 Brandon Van Vliet
       莉娜·乔格斯 Lena Georgas
       吉米·索瑞茜莉 Jamie Soricelli
       布拉德福德·塔图姆 Bradford Tatum
       妮娅·金斯利 Nia Kingsley
       韦德·威廉姆斯 Wade Williams
       迈克尔·凯斯 Michael Keyes
       迪兰·科宁 Dylan Kenin
       丽丽·博尔丹 Lili Bordán
       安德鲁·康斯坦丁尼 Andrew Constantini
       达瑞尔·切尔尼 Darrel Cherney
       卡尔·L·桑德斯 Karl L. Sanders
       莉莉·西蒙斯 Lili Simmons
       博亚娜·诺瓦科维奇 Bojana Novakovi?
       米奇·西罗亚 Micky Shiloah
◎标  签 科幻 | 美剧 | 人工智能 | HBO | 人性 | 美国 | 西部 | 悬疑
◎简  介


  故事设定在未来世界,在一个庞大的高科技成人主题乐园中,有着拟真人的机器“接待员”能让游客享尽情欲、暴力等欲望的放纵,主要叙述被称为“西部世界”的未来主题公园。它提供给游客杀戮与性欲的满足。
  
  但是在这世界下,各种暗流涌动。部分机器人出现自我觉醒,发现了自己只是作为故事角色的存在,并且想摆脱乐园对其的控制;乐园的管理层害怕乐园的创造者控制着乐园的一切而试图夺其控制权,而乐园创造者则不会善罢甘休并且探寻其伙伴创造者曾经留下的谜团;而买下乐园的一名高管试图重新发现当年的旅程留下的谜团。
◎获奖情况
  第74届金球奖 ?(2017)
  电视类最佳剧情类剧集(提名)
  电视类剧情类剧集最佳女主角(提名) 埃文·蕾切尔·伍德
  电视类最佳女配角(提名) 坦迪·牛顿
  
  第69届黄金时段艾美奖 ?(2017)
  剧情类最佳剧集(提名)
  剧情类最佳男主角(提名) 安东尼·霍普金斯
  剧情类最佳女主角(提名) 埃文·蕾切尔·伍德
  剧情类最佳男配角(提名) 杰弗里·怀特
  剧情类最佳女配角(提名) 坦迪·牛顿
  剧情类最佳编剧(提名)
  
  第69届美国导演工会奖 ?(2017)
  最佳剧情类剧集导演(提名) 乔纳森·诺兰
  
  第23届美国演员工会奖 ?(2017)
  电视奖剧情类剧集最佳女演员(提名) 坦迪·牛顿
  电视奖剧情类剧集最佳群戏(提名)
  剧集最佳特技群戏(提名)
  
  第69届美国编剧工会奖 ?(2017)
  电视奖剧情类剧集最佳剧本(提名)
  电视奖最佳新剧剧本(提名)
  
  第28届美国制片人工会奖 ?(2017)
  最佳剧情类剧集制片人奖(提名)
  
  第31届美国摄影协会奖 ?(2017)
  电视电影/迷你剧最佳摄影(提名)
  
  第67届美国剪辑工会奖 ?(2017)
  一小时非商业电视最佳剪辑(提名)
  
  第21届美国艺术指导工会奖 ?(2017)
  电视奖最佳1小时历史剧/幻想类单镜头剧集艺术指导
  
  第19届美国服装设计工会奖 ?(2017)
  年代剧集最佳服装设计(提名)
  
  第15届美国视觉效果协会奖 ?(2017)
  最佳广播节目视觉效果(提名)
  
  第53届美国声音效果协会奖 ?(2017)
  1小时剧集最佳音效(提名)
  
  第7届美国评论家选择电视奖 ?(2017)
  剧情类最佳剧集(提名)
  剧情类最佳女主角 埃文·蕾切尔·伍德
  剧情类最佳女配角 坦迪·牛顿
  
  第3届豆瓣电影年度榜单 ?(2016)
  评分最高的英美剧(新剧)(提名)
  1. Video
  2. ID                                       : 1
  3. ID in the original source medium         : 4113 (0x1011)
  4. Format                                   : HEVC
  5. Format/Info                              : High Efficiency Video Coding
  6. Format profile                           : Main [email protected]@High
  7. HDR format                               : SMPTE ST 2086, HDR10 compatible
  8. Codec ID                                 : V_MPEGH/ISO/HEVC
  9. Duration                                 : 1 h 15 min
  10. Bit rate                                 : 63.7 Mb/s
  11. Width                                    : 3 840 pixels
  12. Height                                   : 2 160 pixels
  13. Display aspect ratio                     : 16:9
  14. Frame rate mode                          : Constant
  15. Frame rate                               : 23.976 (24000/1001/189150) FPS
  16. Color space                              : YUV
  17. Chroma subsampling                       : 4:2:0 (Type 2)
  18. Bit depth                                : 10 bits
  19. Bits/(Pixel*Frame)                       : 0.320
  20. Stream size                              : 33.8 GiB (89%)
  21. Title                                    : Westworld.S03E08.Crisis.Theory.2160p.BluRay.REMUX.HEVC.DTS-HD.MA.TrueHD.7.1.Atmos-FGT
  22. Language                                 : English
  23. Default                                  : No
  24. Forced                                   : No
  25. Color range                              : Limited
  26. Color primaries                          : BT.2020
  27. Transfer characteristics                 : PQ
  28. Matrix coefficients                      : BT.2020 non-constant
  29. Mastering display color primaries        : Display P3
  30. Mastering display luminance              : min: 0.0050 cd/m2, max: 4000 cd/m2
  31. Maximum Content Light Level              : 1399 cd/m2
  32. Maximum Frame-Average Light Level        : 240 cd/m2
  33. Original source medium                   : Blu-ray
  34. Audio #1
  35. ID                                       : 2
  36. ID in the original source medium         : 4352 (0x1100)
  37. Format                                   : MLP FBA 16-ch
  38. Format/Info                              : Meridian Lossless Packing FBA with 16-channel presentation
  39. Commercial name                          : Dolby TrueHD with Dolby Atmos
  40. Codec ID                                 : A_TRUEHD
  41. Duration                                 : 1 h 15 min
  42. Bit rate mode                            : Variable
  43. Bit rate                                 : 2 752 kb/s
  44. Maximum bit rate                         : 4 284 kb/s
  45. Channel(s)                               : 8 channels
  46. Channel layout                           : L R C LFE Ls Rs Lb Rb
  47. Sampling rate                            : 48.0 kHz
  48. Frame rate                               : 1 200.000 FPS (40 SPF)
  49. Compression mode                         : Lossless
  50. Stream size                              : 1.46 GiB (4%)
  51. Title                                    : Westworld.S03E08.Crisis.Theory.2160p.BluRay.REMUX.HEVC.DTS-HD.MA.TrueHD.7.1.Atmos-FGT
  52. Language                                 : English
  53. Default                                  : Yes
  54. Forced                                   : No
  55. Original source medium                   : Blu-ray
  56. Number of dynamic objects                : 11
  57. Bed channel count                        : 1 channel
  58. Bed channel configuration                : LFE
  59. Audio #2
  60. ID                                       : 3
  61. Format                                   : DTS XLL
  62. Format/Info                              : Digital Theater Systems
  63. Commercial name                          : DTS-HD Master Audio
  64. Codec ID                                 : A_DTS
  65. Duration                                 : 1 h 15 min
  66. Bit rate mode                            : Variable
  67. Bit rate                                 : 3 066 kb/s
  68. Channel(s)                               : 8 channels
  69. Channel layout                           : C L R LFE Lb Rb Lss Rss
  70. Sampling rate                            : 48.0 kHz
  71. Frame rate                               : 93.750 FPS (512 SPF)
  72. Bit depth                                : 24 bits
  73. Compression mode                         : Lossless
  74. Stream size                              : 1.63 GiB (4%)
  75. Title                                    : Westworld.S03E08.Crisis.Theory.2160p.BluRay.REMUX.HEVC.DTS-HD.MA.TrueHD.7.1.Atmos-FGT
  76. Language                                 : English
  77. Default                                  : No
  78. Forced                                   : No
  79. Audio #3
  80. ID                                       : 4
  81. ID in the original source medium         : 4352 (0x1100)
  82. Format                                   : AC-3
  83. Format/Info                              : Audio Coding 3
  84. Commercial name                          : Dolby Digital
  85. Codec ID                                 : A_AC3
  86. Duration                                 : 1 h 15 min
  87. Bit rate mode                            : Constant
  88. Bit rate                                 : 448 kb/s
  89. Channel(s)                               : 6 channels
  90. Channel layout                           : L R C LFE Ls Rs
  91. Sampling rate                            : 48.0 kHz
  92. Frame rate                               : 31.250 FPS (1536 SPF)
  93. Compression mode                         : Lossy
  94. Stream size                              : 243 MiB (1%)
  95. Title                                    : Westworld.S03E08.Crisis.Theory.2160p.BluRay.REMUX.HEVC.DTS-HD.MA.TrueHD.7.1.Atmos-FGT
  96. Language                                 : English
  97. Service kind                             : Complete Main
  98. Default                                  : No
  99. Forced                                   : No
  100. Original source medium                   : Blu-ray
  101. Audio #4
  102. ID                                       : 5
  103. ID in the original source medium         : 4353 (0x1101)
  104. Format                                   : AC-3
  105. Format/Info                              : Audio Coding 3
  106. Commercial name                          : Dolby Digital
  107. Codec ID                                 : A_AC3
  108. Duration                                 : 1 h 15 min
  109. Bit rate mode                            : Constant
  110. Bit rate                                 : 640 kb/s
  111. Channel(s)                               : 6 channels
  112. Channel layout                           : L R C LFE Ls Rs
  113. Sampling rate                            : 48.0 kHz
  114. Frame rate                               : 31.250 FPS (1536 SPF)
  115. Compression mode                         : Lossy
  116. Stream size                              : 348 MiB (1%)
  117. Title                                    : Westworld.S03E08.Crisis.Theory.2160p.BluRay.REMUX.HEVC.DTS-HD.MA.TrueHD.7.1.Atmos-FGT
  118. Language                                 : French
  119. Service kind                             : Complete Main
  120. Default                                  : No
  121. Forced                                   : No
  122. Original source medium                   : Blu-ray
  123. Audio #5
  124. ID                                       : 6
  125. ID in the original source medium         : 4354 (0x1102)
  126. Format                                   : AC-3
  127. Format/Info                              : Audio Coding 3
  128. Commercial name                          : Dolby Digital
  129. Codec ID                                 : A_AC3
  130. Duration                                 : 1 h 15 min
  131. Bit rate mode                            : Constant
  132. Bit rate                                 : 640 kb/s
  133. Channel(s)                               : 6 channels
  134. Channel layout                           : L R C LFE Ls Rs
  135. Sampling rate                            : 48.0 kHz
  136. Frame rate                               : 31.250 FPS (1536 SPF)
  137. Compression mode                         : Lossy
  138. Stream size                              : 348 MiB (1%)
  139. Title                                    : Westworld.S03E08.Crisis.Theory.2160p.BluRay.REMUX.HEVC.DTS-HD.MA.TrueHD.7.1.Atmos-FGT
  140. Language                                 : German
  141. Service kind                             : Complete Main
  142. Default                                  : No
  143. Forced                                   : No
  144. Original source medium                   : Blu-ray
  145. Text #1
  146. ID                                       : 7
  147. Format                                   : UTF-8
  148. Codec ID                                 : S_TEXT/UTF8
  149. Codec ID/Info                            : UTF-8 Plain Text
  150. Duration                                 : 1 h 13 min
  151. Bit rate                                 : 39 b/s
  152. Count of elements                        : 731
  153. Stream size                              : 21.4 KiB (0%)
  154. Title                                    : English-SRT
  155. Language                                 : English
  156. Default                                  : Yes
  157. Forced                                   : No
  158. Text #2
  159. ID                                       : 8
  160. Format                                   : PGS
  161. Muxing mode                              : zlib
  162. Codec ID                                 : S_HDMV/PGS
  163. Codec ID/Info                            : Picture based subtitle format used on BDs/HD-DVDs
  164. Duration                                 : 1 h 15 min
  165. Bit rate                                 : 26.8 kb/s
  166. Count of elements                        : 1666
  167. Stream size                              : 14.5 MiB (0%)
  168. Title                                    : English-PGS
  169. Language                                 : English
  170. Default                                  : No
  171. Forced                                   : No
  172. Text #3
  173. ID                                       : 9
  174. Format                                   : PGS
  175. Muxing mode                              : zlib
  176. Codec ID                                 : S_HDMV/PGS
  177. Codec ID/Info                            : Picture based subtitle format used on BDs/HD-DVDs
  178. Duration                                 : 1 h 15 min
  179. Bit rate                                 : 18.6 kb/s
  180. Count of elements                        : 1499
  181. Stream size                              : 9.96 MiB (0%)
  182. Title                                    : Chinese-PGS
  183. Language                                 : Chinese
  184. Default                                  : No
  185. Forced                                   : No
  186. Text #4
  187. ID                                       : 10
  188. Format                                   : PGS
  189. Muxing mode                              : zlib
  190. Codec ID                                 : S_HDMV/PGS
  191. Codec ID/Info                            : Picture based subtitle format used on BDs/HD-DVDs
  192. Duration                                 : 1 h 14 min
  193. Bit rate                                 : 21.7 kb/s
  194. Count of elements                        : 1128
  195. Stream size                              : 11.5 MiB (0%)
  196. Title                                    : Danish-PGS
  197. Language                                 : Danish
  198. Default                                  : No
  199. Forced                                   : No
  200. Text #5
  201. ID                                       : 11
  202. Format                                   : PGS
  203. Muxing mode                              : zlib
  204. Codec ID                                 : S_HDMV/PGS
  205. Codec ID/Info                            : Picture based subtitle format used on BDs/HD-DVDs
  206. Duration                                 : 1 h 14 min
  207. Bit rate                                 : 24.6 kb/s
  208. Count of elements                        : 1466
  209. Stream size                              : 13.0 MiB (0%)
  210. Title                                    : Dutch-PGS
  211. Language                                 : Dutch
  212. Default                                  : No
  213. Forced                                   : No
  214. Text #6
  215. ID                                       : 12
  216. Format                                   : PGS
  217. Muxing mode                              : zlib
  218. Codec ID                                 : S_HDMV/PGS
  219. Codec ID/Info                            : Picture based subtitle format used on BDs/HD-DVDs
  220. Duration                                 : 1 h 14 min
  221. Bit rate                                 : 22.1 kb/s
  222. Count of elements                        : 1314
  223. Stream size                              : 11.7 MiB (0%)
  224. Title                                    : Finnish-PGS
  225. Language                                 : Finnish
  226. Default                                  : No
  227. Forced                                   : No
  228. Text #7
  229. ID                                       : 13
  230. Format                                   : PGS
  231. Muxing mode                              : zlib
  232. Codec ID                                 : S_HDMV/PGS
  233. Codec ID/Info                            : Picture based subtitle format used on BDs/HD-DVDs
  234. Duration                                 : 1 h 14 min
  235. Bit rate                                 : 21.9 kb/s
  236. Count of elements                        : 1498
  237. Stream size                              : 11.6 MiB (0%)
  238. Title                                    : French-PGS
  239. Language                                 : French
  240. Default                                  : No
  241. Forced                                   : No
  242. Text #8
  243. ID                                       : 14
  244. Format                                   : PGS
  245. Muxing mode                              : zlib
  246. Codec ID                                 : S_HDMV/PGS
  247. Codec ID/Info                            : Picture based subtitle format used on BDs/HD-DVDs
  248. Duration                                 : 1 h 15 min
  249. Bit rate                                 : 30.5 kb/s
  250. Count of elements                        : 1660
  251. Stream size                              : 16.5 MiB (0%)
  252. Title                                    : German-PGS
  253. Language                                 : German
  254. Default                                  : No
  255. Forced                                   : No
  256. Text #9
  257. ID                                       : 15
  258. Format                                   : PGS
  259. Muxing mode                              : zlib
  260. Codec ID                                 : S_HDMV/PGS
  261. Codec ID/Info                            : Picture based subtitle format used on BDs/HD-DVDs
  262. Duration                                 : 1 h 14 min
  263. Bit rate                                 : 22.2 kb/s
  264. Count of elements                        : 1486
  265. Stream size                              : 11.8 MiB (0%)
  266. Title                                    : Korean-PGS
  267. Language                                 : Korean
  268. Default                                  : No
  269. Forced                                   : No
  270. Text #10
  271. ID                                       : 16
  272. Format                                   : PGS
  273. Muxing mode                              : zlib
  274. Codec ID                                 : S_HDMV/PGS
  275. Codec ID/Info                            : Picture based subtitle format used on BDs/HD-DVDs
  276. Duration                                 : 1 h 14 min
  277. Bit rate                                 : 21.1 kb/s
  278. Count of elements                        : 1046
  279. Stream size                              : 11.2 MiB (0%)
  280. Title                                    : Norwegian-PGS
  281. Language                                 : Norwegian
  282. Default                                  : No
  283. Forced                                   : No
  284. Text #11
  285. ID                                       : 17
  286. Format                                   : PGS
  287. Muxing mode                              : zlib
  288. Codec ID                                 : S_HDMV/PGS
  289. Codec ID/Info                            : Picture based subtitle format used on BDs/HD-DVDs
  290. Duration                                 : 1 h 14 min
  291. Bit rate                                 : 25.2 kb/s
  292. Count of elements                        : 1478
  293. Stream size                              : 13.4 MiB (0%)
  294. Title                                    : Portuguese-PGS
  295. Language                                 : Portuguese
  296. Default                                  : No
  297. Forced                                   : No
  298. Text #12
  299. ID                                       : 18
  300. Format                                   : PGS
  301. Muxing mode                              : zlib
  302. Codec ID                                 : S_HDMV/PGS
  303. Codec ID/Info                            : Picture based subtitle format used on BDs/HD-DVDs
  304. Duration                                 : 1 h 14 min
  305. Bit rate                                 : 20.2 kb/s
  306. Count of elements                        : 1344
  307. Stream size                              : 10.7 MiB (0%)
  308. Title                                    : Spanish-PGS
  309. Language                                 : Spanish
  310. Default                                  : No
  311. Forced                                   : No
  312. Text #13
  313. ID                                       : 19
  314. Format                                   : PGS
  315. Muxing mode                              : zlib
  316. Codec ID                                 : S_HDMV/PGS
  317. Codec ID/Info                            : Picture based subtitle format used on BDs/HD-DVDs
  318. Duration                                 : 1 h 13 min
  319. Bit rate                                 : 23.9 kb/s
  320. Count of elements                        : 1508
  321. Stream size                              : 12.5 MiB (0%)
  322. Title                                    : Spanish-PGS
  323. Language                                 : Spanish
  324. Default                                  : No
  325. Forced                                   : No
  326. Text #14
  327. ID                                       : 20
  328. Format                                   : PGS
  329. Muxing mode                              : zlib
  330. Codec ID                                 : S_HDMV/PGS
  331. Codec ID/Info                            : Picture based subtitle format used on BDs/HD-DVDs
  332. Duration                                 : 1 h 14 min
  333. Bit rate                                 : 22.2 kb/s
  334. Count of elements                        : 1090
  335. Stream size                              : 11.8 MiB (0%)
  336. Title                                    : Swedish-PGS
  337. Language                                 : Swedish
  338. Default                                  : No
  339. Forced                                   : No
  340. Menu
  341. 00:00:00.000                             : en:Chapter 1
  342. 00:01:42.352                             : en:Chapter 2
  343. 00:08:26.798                             : en:Chapter 3
  344. 00:16:02.587                             : en:Chapter 4
  345. 00:19:30.419                             : en:Chapter 5
  346. 00:25:39.705                             : en:Chapter 6
  347. 00:34:47.502                             : en:Chapter 7
  348. 00:42:13.114                             : en:Chapter 8
  349. 00:49:40.769                             : en:Chapter 9
  350. 00:55:18.106                             : en:Chapter 10
  351. 01:01:45.827                             : en:Chapter 11
  352. 01:10:28.850                             : en:Chapter 12
复制代码



                                       
                                       

                                       
                                       
                                       




回复

使用道具 举报

 成长值: 4345

发表于 2020-11-21 12:33:29 | 显示全部楼层
谢谢版主发片
回复 支持 反对

使用道具 举报

发表于 2020-11-21 12:43:37 | 显示全部楼层
楼主发贴辛苦了,谢谢楼主分享!我觉得蓝光电影网是注册对了!
回复 支持 反对

使用道具 举报

发表于 2020-11-22 08:03:45 | 显示全部楼层

感谢楼主的无私分享!要想蓝光电影网好 就靠你我他
回复 支持 反对

使用道具 举报

 成长值: 5635

发表于 2020-11-22 14:16:26 | 显示全部楼层
谢谢楼主无私分享。
回复 支持 反对

使用道具 举报

 成长值: 5535

发表于 5 天前 | 显示全部楼层
下栽不了啊。
回复 支持 反对

使用道具 举报

懒得打字嘛,点击右侧快捷回复 【右侧内容,后台自定义】
您需要登录后才可以回帖 登录 | 立即加入

本版积分规则

现在加入蓝光电影网,注册一个账号
上个主题 下个主题 快速回复 收藏帖子 返回列表 客服中心 搜索

手机版|小黑屋| 蓝光电影网 |网站地图 

Copyright © 2015-2019 Comsenz Inc.  Template by 蓝光电影论坛 All Rights Reserved.

Powered by 蓝光电影网 X3.4

特别声明:本站所有资源均由网上收集而来,版权归原影音公司所有,如果侵犯了你的权益,请通知我们,我们会及时删除侵权内容.

快速回复 返回顶部 返回列表