找回密码

蓝光电影网

查看: 322|回复: 4

[10bit.SDR] 全面回忆/宇宙威龙 Total.Recall.1990.2160p.BluRay.x265.10bit.SDR.DTS-HD.MA.TrueHD.7.1.Atmos-SWTYBLZ 57.24GB

[复制链接]

 成长值: 16965

发表于 2020-11-21 01:20:04 | 显示全部楼层 |阅读模式


◎译  名 全面回忆/宇宙威龙(港)/魔鬼总动员(台)
◎片  名 Total Recall
◎年  代 1990
◎产  地 美国
◎类  别 动作 / 科幻 / 惊悚 / 冒险
◎语  言 英语
◎上映日期 1990-06-01(美国)
◎IMDb评分  7.5/10 from 298678 users
◎IMDb链接  https://www.imdb.com/title/tt0100802/
◎豆瓣评分 7.7/10 from 25182 users
◎豆瓣链接 https://movie.douban.com/subject/1295870/
◎片  长 113分钟
◎导  演 保罗·范霍文 Paul Verhoeven
◎编  剧 菲利普·K·迪克 Philip K. Dick / 罗纳德·舒塞特 Ronald Shusett / 丹·欧班农 Dan O'Bannon / Jon Povill / 加里·戈德曼 Gary Goldman
◎主  演 阿诺·施瓦辛格 Arnold Schwarzenegger
       雷切尔·蒂科汀 Rachel Ticotin
       莎朗·斯通 Sharon Stone
       罗尼·考克斯 Ronny Cox
       迈克尔·艾恩塞德 Michael Ironside
       马绍尔·贝尔 Marshall Bell
       梅尔约翰逊 Mel Johnson Jr.
       迈克尔切姆平 Michael Champion
       罗伊·布罗克斯史密斯 Roy Brocksmith
       雷·贝克 Ray Baker
       萝丝玛丽·邓斯莫尔 Rosemary Dunsmore
       戴维·奈尔 David Knell
       阿列卡夏罗宾逊 Alexia Robinson
       迪恩·诺里斯 Dean Norris
       马克卡尔顿 Mark Carlton
       黛比·李·卡林顿 Debbie Lee Carrington
       Lycia Naff
       罗伯特·康斯坦佐 Robert Costanzo
       Michael LaGuardia
       Priscilla Allen
       马克·阿莱莫 Marc Alaimo
       Michael Gregory
       户田惠子 Keiko Toda
       阿兰·格拉夫 Allan Graf
       鲍勃·祖迪克 Bob Tzudiker
       Erik Cord
       Bennie Moore
◎标  签 科幻 | 动作 | 施瓦辛格 | 美国 | 1990 | 美国电影 | ArnoldSchwarzenegger | 电影
◎简  介


  未来世界中,工程工人道格拉斯(Arnold Schwarzenegger 饰)被持续的梦境困扰,那是一系列发生在红色火星上的体验。道格拉斯在广告上发现了回忆旅行公司的介绍,虽然同事警告他这种虚拟旅行可能会危害人类的大脑,但比起亲自去一趟充斥着反政府武装的火星,回忆旅行公司确是一个不错的选择。道格拉斯如愿接受了回忆旅行的服务,但是虚拟记忆的过程突然出现错误,自此一系列不可思议的经历出现在道格拉斯的身上,先是妻子劳瑞(Sharon Stone 饰)向他发起攻击并承认自己是监视道格拉斯的间谍,后来有陌生人出现帮助他逃脱并指出他是火星独裁者针对反政府武装派出的特工,结果因为一名女子梅丽(Rachel Ticotin 饰)改变了立场……道格拉斯动身前往火星,那里有一切的谜底,或者一切又只是梦境一场?
◎获奖情况
  第63届奥斯卡金像奖 ?(1991)
  最佳音效剪辑(提名) 斯蒂芬·亨特·弗利克
  最佳音响(提名) 亚伦·罗琴?/?迈克尔·J·科胡特?/?尼尔森·斯托尔?/?卡洛斯·德拉里奥斯
  特别成就奖 蒂姆·麦加沃恩?/?埃里克·布雷维格?/?罗伯·博汀
  
  第14届日本电影学院奖 ?(1991)
  最佳外语片(提名)
  1. Video
  2. ID                                       : 1
  3. Format                                   : HEVC
  4. Format/Info                              : High Efficiency Video Coding
  5. Format profile                           : Main [email protected]@High
  6. Codec ID                                 : V_MPEGH/ISO/HEVC
  7. Duration                                 : 1 h 53 min
  8. Bit rate                                 : 64.2 Mb/s
  9. Width                                    : 3 840 pixels
  10. Height                                   : 2 076 pixels
  11. Display aspect ratio                     : 1.85:1
  12. Frame rate mode                          : Constant
  13. Frame rate                               : 24.000 FPS
  14. Color space                              : YUV
  15. Chroma subsampling                       : 4:2:0
  16. Bit depth                                : 10 bits
  17. Bits/(Pixel*Frame)                       : 0.336
  18. Stream size                              : 50.8 GiB (89%)
  19. Title                                    : Total.Recall.1990.2160p.BluRay.x265.10bit.SDR.DTS-HD.MA.TrueHD.7.1.Atmos-SWTYBLZ
  20. Writing library                          : x265 3.0ed72af837053:[Windows][GCC 8.2.0][64 bit] 10bit
  21. Encoding settings                        : cpuid=1111039 / frame-threads=6 / numa-pools=40 / wpp / no-pmode / no-pme / no-psnr / no-ssim / log-level=2 / input-csp=1 / input-res=3840x2076 / interlace=0 / total-frames=163121 / level-idc=51 / high-tier=1 / uhd-bd=0 / ref=3 / no-allow-non-conformance / repeat-headers / annexb / aud / hrd / info / hash=0 / no-temporal-layers / no-open-gop / min-keyint=1 / keyint=24 / gop-lookahead=0 / bframes=4 / b-adapt=2 / b-pyramid / bframe-bias=0 / rc-lookahead=25 / lookahead-slices=4 / scenecut=40 / radl=0 / no-splice / no-intra-refresh / ctu=64 / min-cu-size=8 / no-rect / no-amp / max-tu-size=32 / tu-inter-depth=1 / tu-intra-depth=1 / limit-tu=0 / rdoq-level=0 / dynamic-rd=0.00 / no-ssim-rd / signhide / no-tskip / nr-intra=0 / nr-inter=0 / no-constrained-intra / strong-intra-smoothing / max-merge=2 / limit-refs=3 / no-limit-modes / me=1 / subme=2 / merange=57 / temporal-mvp / weightp / no-weightb / no-analyze-src-pics / deblock=0:0 / no-sao / no-sao-non-deblock / rd=3 / no-early-skip / rskip / no-fast-intra / no-tskip-fast / no-cu-lossless / no-b-intra / no-splitrd-skip / rdpenalty=0 / psy-rd=2.00 / psy-rdoq=0.00 / no-rd-refine / no-lossless / cbqpoffs=0 / crqpoffs=0 / rc=crf / crf=20.0 / qcomp=0.60 / qpstep=4 / stats-write=0 / stats-read=0 / vbv-maxrate=160000 / vbv-bufsize=160000 / vbv-init=0.9 / crf-max=0.0 / crf-min=0.0 / ipratio=1.40 / pbratio=1.30 / aq-mode=1 / aq-strength=1.00 / cutree / zone-count=0 / no-strict-cbr / qg-size=32 / no-rc-grain / qpmax=69 / qpmin=0 / no-const-vbv / sar=1 / overscan=0 / videoformat=5 / range=0 / colorprim=2 / transfer=2 / colormatrix=2 / chromaloc=0 / display-window=0 / max-cll=0,0 / min-luma=0 / max-luma=1023 / log2-max-poc-lsb=8 / vui-timing-info / vui-hrd-info / slices=1 / opt-qp-pps / opt-ref-list-length-pps / no-multi-pass-opt-rps / scenecut-bias=0.05 / no-opt-cu-delta-qp / no-aq-motion / no-hdr / no-hdr-opt / no-dhdr10-opt / no-idr-recovery-sei / analysis-reuse-level=5 / scale-factor=0 / refine-intra=0 / refine-inter=0 / refine-mv=0 / refine-ctu-distortion=0 / no-limit-sao / ctu-info=0 / no-lowpass-dct / refine-analysis-type=0 / copy-pic=1 / max-ausize-factor=1.0 / no-dynamic-refine / no-single-sei / no-hevc-aq / qp-adaptation-range=1.00
  22. Default                                  : Yes
  23. Forced                                   : No
  24. Audio #1
  25. ID                                       : 2
  26. ID in the original source medium         : 4352 (0x1100)
  27. Format                                   : MLP FBA 16-ch
  28. Format/Info                              : Meridian Lossless Packing FBA with 16-channel presentation
  29. Commercial name                          : Dolby TrueHD with Dolby Atmos
  30. Codec ID                                 : A_TRUEHD
  31. Duration                                 : 1 h 53 min
  32. Bit rate mode                            : Variable
  33. Bit rate                                 : 3 464 kb/s
  34. Maximum bit rate                         : 5 412 kb/s
  35. Channel(s)                               : 8 channels
  36. Channel layout                           : L R C LFE Ls Rs Lb Rb
  37. Sampling rate                            : 48.0 kHz
  38. Frame rate                               : 1 200.000 FPS (40 SPF)
  39. Compression mode                         : Lossless
  40. Stream size                              : 2.74 GiB (5%)
  41. Title                                    : Total.Recall.1990.2160p.BluRay.x265.10bit.SDR.DTS-HD.MA.TrueHD.7.1.Atmos-SWTYBLZ
  42. Language                                 : English
  43. Default                                  : Yes
  44. Forced                                   : No
  45. Original source medium                   : Blu-ray
  46. Number of dynamic objects                : 11
  47. Bed channel count                        : 1 channel
  48. Bed channel configuration                : LFE
  49. Audio #2
  50. ID                                       : 3
  51. Format                                   : DTS XLL
  52. Format/Info                              : Digital Theater Systems
  53. Commercial name                          : DTS-HD Master Audio
  54. Codec ID                                 : A_DTS
  55. Duration                                 : 1 h 53 min
  56. Bit rate mode                            : Variable
  57. Bit rate                                 : 3 793 kb/s
  58. Channel(s)                               : 8 channels
  59. Channel layout                           : C L R LFE Lb Rb Lss Rss
  60. Sampling rate                            : 48.0 kHz
  61. Frame rate                               : 93.750 FPS (512 SPF)
  62. Bit depth                                : 24 bits
  63. Compression mode                         : Lossless
  64. Stream size                              : 3.00 GiB (5%)
  65. Title                                    : Total.Recall.1990.2160p.BluRay.x265.10bit.SDR.DTS-HD.MA.TrueHD.7.1.Atmos-SWTYBLZ
  66. Language                                 : English
  67. Default                                  : No
  68. Forced                                   : No
  69. Audio #3
  70. ID                                       : 4
  71. ID in the original source medium         : 4352 (0x1100)
  72. Format                                   : AC-3
  73. Format/Info                              : Audio Coding 3
  74. Commercial name                          : Dolby Digital
  75. Codec ID                                 : A_AC3
  76. Duration                                 : 1 h 53 min
  77. Bit rate mode                            : Constant
  78. Bit rate                                 : 384 kb/s
  79. Channel(s)                               : 6 channels
  80. Channel layout                           : L R C LFE Ls Rs
  81. Sampling rate                            : 48.0 kHz
  82. Frame rate                               : 31.250 FPS (1536 SPF)
  83. Compression mode                         : Lossy
  84. Stream size                              : 311 MiB (1%)
  85. Title                                    : Total.Recall.1990.2160p.BluRay.x265.10bit.SDR.DTS-HD.MA.TrueHD.7.1.Atmos-SWTYBLZ
  86. Language                                 : English
  87. Service kind                             : Complete Main
  88. Default                                  : No
  89. Forced                                   : No
  90. Original source medium                   : Blu-ray
  91. Text #1
  92. ID                                       : 5
  93. Format                                   : UTF-8
  94. Codec ID                                 : S_TEXT/UTF8
  95. Codec ID/Info                            : UTF-8 Plain Text
  96. Duration                                 : 1 h 45 min
  97. Bit rate                                 : 48 b/s
  98. Count of elements                        : 1071
  99. Stream size                              : 37.1 KiB (0%)
  100. Title                                    : English-SRT
  101. Language                                 : English
  102. Default                                  : Yes
  103. Forced                                   : No
  104. Text #2
  105. ID                                       : 6
  106. ID in the original source medium         : 4768 (0x12A0)
  107. Format                                   : PGS
  108. Muxing mode                              : zlib
  109. Codec ID                                 : S_HDMV/PGS
  110. Codec ID/Info                            : Picture based subtitle format used on BDs/HD-DVDs
  111. Duration                                 : 1 h 49 min
  112. Bit rate                                 : 24.4 kb/s
  113. Count of elements                        : 2216
  114. Stream size                              : 19.0 MiB (0%)
  115. Title                                    : French-PGS
  116. Language                                 : French
  117. Default                                  : No
  118. Forced                                   : No
  119. Original source medium                   : Blu-ray
  120. Text #3
  121. ID                                       : 7
  122. ID in the original source medium         : 4769 (0x12A1)
  123. Format                                   : PGS
  124. Muxing mode                              : zlib
  125. Codec ID                                 : S_HDMV/PGS
  126. Codec ID/Info                            : Picture based subtitle format used on BDs/HD-DVDs
  127. Duration                                 : 1 h 49 min
  128. Bit rate                                 : 28.1 kb/s
  129. Count of elements                        : 1776
  130. Stream size                              : 21.9 MiB (0%)
  131. Title                                    : German-PGS
  132. Language                                 : German
  133. Default                                  : No
  134. Forced                                   : No
  135. Original source medium                   : Blu-ray
  136. Text #4
  137. ID                                       : 8
  138. ID in the original source medium         : 4770 (0x12A2)
  139. Format                                   : PGS
  140. Muxing mode                              : zlib
  141. Codec ID                                 : S_HDMV/PGS
  142. Codec ID/Info                            : Picture based subtitle format used on BDs/HD-DVDs
  143. Duration                                 : 1 h 45 min
  144. Bit rate                                 : 30.4 kb/s
  145. Count of elements                        : 2274
  146. Stream size                              : 22.9 MiB (0%)
  147. Title                                    : English-PGS
  148. Language                                 : English
  149. Default                                  : No
  150. Forced                                   : No
  151. Original source medium                   : Blu-ray
  152. Menu
  153. 00:00:00.000                             : en:Chapter 01
  154. 00:05:50.541                             : en:Chapter 02
  155. 00:11:27.000                             : en:Chapter 03
  156. 00:18:13.916                             : en:Chapter 04
  157. 00:24:50.708                             : en:Chapter 05
  158. 00:29:37.625                             : en:Chapter 06
  159. 00:37:05.500                             : en:Chapter 07
  160. 00:43:12.000                             : en:Chapter 08
  161. 00:48:35.333                             : en:Chapter 09
  162. 00:55:02.000                             : en:Chapter 10
  163. 01:00:03.875                             : en:Chapter 11
  164. 01:15:21.000                             : en:Chapter 12
  165. 01:20:16.000                             : en:Chapter 13
  166. 01:27:07.000                             : en:Chapter 14
  167. 01:32:18.208                             : en:Chapter 15
  168. 01:39:52.708                             : en:Chapter 16
复制代码



                                       
                                       

                                       
                                       
                                       




回复

使用道具 举报

发表于 2020-11-21 22:45:08 | 显示全部楼层

我看不错噢 谢谢楼主!蓝光电影网越来越好!
回复 支持 反对

使用道具 举报

发表于 2020-11-22 18:19:50 | 显示全部楼层

我看不错噢 谢谢楼主!蓝光电影网越来越好!
回复 支持 反对

使用道具 举报

发表于 4 天前 | 显示全部楼层

这个帖子不回对不起自己!多谢楼主分享!
回复 支持 反对

使用道具 举报

发表于 7 小时前 | 显示全部楼层

其实我一直觉得楼主的品味不错!呵呵!蓝光电影网太棒了!
回复 支持 反对

使用道具 举报

懒得打字嘛,点击右侧快捷回复 【右侧内容,后台自定义】
您需要登录后才可以回帖 登录 | 立即加入

本版积分规则

现在加入蓝光电影网,注册一个账号
上个主题 下个主题 快速回复 收藏帖子 返回列表 客服中心 搜索

手机版|小黑屋| 蓝光电影网 |网站地图 

Copyright © 2015-2019 Comsenz Inc.  Template by 蓝光电影论坛 All Rights Reserved.

Powered by 蓝光电影网 X3.4

特别声明:本站所有资源均由网上收集而来,版权归原影音公司所有,如果侵犯了你的权益,请通知我们,我们会及时删除侵权内容.

快速回复 返回顶部 返回列表