找回密码

蓝光电影网

查看: 537|回复: 10

[2160p-WEB] 逃跑/疑·妈 Run.2020.2160p.HULU.WEBRip.x265.10bit.SDR.DDP5.1-CM 9.74GB

[复制链接]

 成长值: 16965

发表于 2020-11-21 01:20:02 | 显示全部楼层 |阅读模式


◎译  名 逃跑/疑·妈(港)/跑/逃(台)
◎片  名 Run
◎年  代 2020
◎产  地 美国
◎类  别 悬疑 / 惊悚 / 恐怖
◎语  言 英语
◎上映日期 2020-11-20(美国网络)
◎IMDb评分  7.8/10 from 97 users
◎IMDb链接  https://www.imdb.com/title/tt8633478/
◎豆瓣评分 /10 from 0 users
◎豆瓣链接 https://movie.douban.com/subject/30243396/
◎片  长 90分钟
◎导  演 阿尼什·查甘蒂 Aneesh Chaganty
◎编  剧 阿尼什·查甘蒂 Aneesh Chaganty / 赛弗·奥哈尼安 Sev Ohanian
◎主  演 莎拉·保罗森 Sarah Paulson
       基拉·艾伦 Kiera Allen
       帕特·希利 Pat Healy
       埃里克·阿塔瓦尔 Erik Athavale
       布拉德利·索茨基 Bradley Sawatzky
       奥娜莉·艾姆斯 Onalee Ames
       德里克·詹姆斯·特拉普 Derek James Trapp
◎标  签 惊悚 | 悬疑 | 恐怖 | 美国 | 莎拉·保罗森 | 2020 | 犯罪 | 美国电影
◎简  介


  该片讲述莎拉饰演的母亲独自抚养着女儿(帕特饰),当女儿得知了母亲罪恶的秘密,她们的生活开始瓦解。
  1. Video
  2. ID                                       : 1
  3. Format                                   : HEVC
  4. Format/Info                              : High Efficiency Video Coding
  5. Format profile                           : Main [email protected]@Main
  6. Codec ID                                 : V_MPEGH/ISO/HEVC
  7. Duration                                 : 1 h 29 min
  8. Bit rate                                 : 15.3 Mb/s
  9. Width                                    : 3 840 pixels
  10. Height                                   : 2 160 pixels
  11. Display aspect ratio                     : 16:9
  12. Frame rate mode                          : Constant
  13. Frame rate                               : 23.976 (24000/1001/189150) FPS
  14. Color space                              : YUV
  15. Chroma subsampling                       : 4:2:0
  16. Bit depth                                : 10 bits
  17. Bits/(Pixel*Frame)                       : 0.077
  18. Stream size                              : 9.58 GiB (98%)
  19. Default                                  : Yes
  20. Forced                                   : No
  21. Audio
  22. ID                                       : 2
  23. Format                                   : E-AC-3
  24. Format/Info                              : Enhanced AC-3
  25. Commercial name                          : Dolby Digital Plus
  26. Codec ID                                 : A_EAC3
  27. Duration                                 : 1 h 29 min
  28. Bit rate mode                            : Constant
  29. Bit rate                                 : 256 kb/s
  30. Channel(s)                               : 6 channels
  31. Channel layout                           : L R C LFE Ls Rs
  32. Sampling rate                            : 48.0 kHz
  33. Frame rate                               : 31.250 FPS (1536 SPF)
  34. Compression mode                         : Lossy
  35. Stream size                              : 164 MiB (2%)
  36. Title                                    : English
  37. Language                                 : English
  38. Service kind                             : Complete Main
  39. Default                                  : No
  40. Forced                                   : No
  41. Text #1
  42. ID                                       : 3
  43. Format                                   : UTF-8
  44. Codec ID                                 : S_TEXT/UTF8
  45. Codec ID/Info                            : UTF-8 Plain Text
  46. Duration                                 : 1 h 24 min
  47. Bit rate                                 : 27 b/s
  48. Count of elements                        : 645
  49. Stream size                              : 17.1 KiB (0%)
  50. Title                                    : English
  51. Language                                 : English
  52. Default                                  : No
  53. Forced                                   : No
  54. Text #2
  55. ID                                       : 4
  56. Format                                   : UTF-8
  57. Codec ID                                 : S_TEXT/UTF8
  58. Codec ID/Info                            : UTF-8 Plain Text
  59. Duration                                 : 1 h 24 min
  60. Bit rate                                 : 28 b/s
  61. Count of elements                        : 705
  62. Stream size                              : 17.4 KiB (0%)
  63. Title                                    : Spanish
  64. Language                                 : Spanish
  65. Default                                  : No
  66. Forced                                   : No
复制代码



                                       
                                       

                                       
                                       
                                       




回复

使用道具 举报

发表于 2020-11-21 06:48:55 | 显示全部楼层

感谢楼主的无私分享!要想蓝光电影网好 就靠你我他
回复 支持 反对

使用道具 举报

发表于 2020-11-21 10:22:58 | 显示全部楼层
楼主发贴辛苦了,谢谢楼主分享!我觉得蓝光电影网是注册对了!
回复 支持 反对

使用道具 举报

发表于 2020-11-21 18:48:09 | 显示全部楼层
逃跑/疑·妈(港)/跑/逃(台)
回复 支持 反对

使用道具 举报

发表于 2020-11-22 10:52:02 | 显示全部楼层
楼主发贴辛苦了,谢谢楼主分享!我觉得蓝光电影网是注册对了!
回复 支持 反对

使用道具 举报

发表于 6 天前 | 显示全部楼层

楼主发贴辛苦了,谢谢楼主分享!
回复 支持 反对

使用道具 举报

发表于 6 天前 | 显示全部楼层

楼主发贴辛苦了,谢谢楼主分享!我觉得蓝光电影网是注册对了!
回复 支持 反对

使用道具 举报

发表于 6 天前 来自手机 | 显示全部楼层
楼主发贴辛苦了,谢谢楼主分享!
回复 支持 反对

使用道具 举报

发表于 3 天前 | 显示全部楼层

楼主太厉害了!楼主,电影应该很好看我觉得蓝光电影网真是个好地方!
回复 支持 反对

使用道具 举报

发表于 3 天前 | 显示全部楼层

我看不错噢 谢谢楼主!蓝光电影网越来越好!
回复 支持 反对

使用道具 举报

懒得打字嘛,点击右侧快捷回复 【右侧内容,后台自定义】
您需要登录后才可以回帖 登录 | 立即加入

本版积分规则

现在加入蓝光电影网,注册一个账号
上个主题 下个主题 快速回复 收藏帖子 返回列表 客服中心 搜索

手机版|小黑屋| 蓝光电影网 |网站地图 

Copyright © 2015-2019 Comsenz Inc.  Template by 蓝光电影论坛 All Rights Reserved.

Powered by 蓝光电影网 X3.4

特别声明:本站所有资源均由网上收集而来,版权归原影音公司所有,如果侵犯了你的权益,请通知我们,我们会及时删除侵权内容.

快速回复 返回顶部 返回列表