找回密码

蓝光电影网

查看: 250|回复: 3

[10bit.SDR] 冲突/急先锋横扫罪恶城 Serpico.1973.2160p.BluRay.x265.10bit.SDR.DTS-HD.MA.5.1-SWTYBLZ 50.31GB

[复制链接]

 成长值: 16965

发表于 2020-11-20 00:11:35 | 显示全部楼层 |阅读模式


◎译  名 冲突/急先锋横扫罪恶城/谢皮科
◎片  名 Serpico
◎年  代 1973
◎产  地 意大利,美国
◎类  别 剧情 / 传记 / 犯罪
◎语  言 英语,西班牙语,意大利语
◎上映日期 1973-12-05
◎IMDb评分  7.7/10 from 108127 users
◎IMDb链接  https://www.imdb.com/title/tt0070666/
◎豆瓣评分 7.7/10 from 2435 users
◎豆瓣链接 https://movie.douban.com/subject/1292857/
◎片  长 130 分钟
◎导  演 西德尼·吕美特 Sidney Lumet
◎编  剧 瓦尔度·绍特 Waldo Salt / 诺曼·韦克斯勒 Norman Wexler
◎主  演 阿尔·帕西诺 Al Pacino
       约翰·兰道夫 John Randolph
       杰克·基欧 Jack Kehoe
       比夫·麦奎尔 Biff McGuire
       艾伦·瑞奇 Allan Rich
◎标  签 阿尔·帕西诺 | 美国 | 犯罪 | AlPacino | 1973 | 美国电影 | SidneyLumet | 剧情
◎简  介


  法兰克是一个年轻而富有理想的警察,他从巡警开始做起,后来成为卧底警察,虽然他的破案率很高,但他不愿意象其他警察那样收受贿赂,这使他显得和其他人格格不入。这种做法也使他身陷危机,因为他的同事们都与他为敌,且不时地陷害他。当检察组开始调查警局内部的贪污内幕时,他又出面作证,因此更陷入危险之中……
◎获奖情况
  第46届奥斯卡金像奖 ?(1974)
  最佳男主角(提名) 阿尔·帕西诺
  最佳改编剧本(提名) 诺曼·韦克斯勒?/?瓦尔度·绍特
  1. Video
  2. ID                                       : 1
  3. Format                                   : HEVC
  4. Format/Info                              : High Efficiency Video Coding
  5. Format profile                           : Main [email protected]@High
  6. Codec ID                                 : V_MPEGH/ISO/HEVC
  7. Duration                                 : 2 h 10 min
  8. Bit rate                                 : 48.7 Mb/s
  9. Width                                    : 3 840 pixels
  10. Height                                   : 2 072 pixels
  11. Display aspect ratio                     : 1.85:1
  12. Frame rate mode                          : Constant
  13. Frame rate                               : 24.000 FPS
  14. Color space                              : YUV
  15. Chroma subsampling                       : 4:2:0
  16. Bit depth                                : 10 bits
  17. Bits/(Pixel*Frame)                       : 0.255
  18. Stream size                              : 44.3 GiB (88%)
  19. Title                                    : Serpico.1973.2160p.BluRay.x265.10bit.SDR.DTS-HD.MA.5.1-SWTYBLZ
  20. Writing library                          : x265 3.0ed72af837053:[Windows][GCC 8.2.0][64 bit] 10bit
  21. Encoding settings                        : cpuid=1111039 / frame-threads=6 / numa-pools=40 / wpp / no-pmode / no-pme / no-psnr / no-ssim / log-level=2 / input-csp=1 / input-res=3840x2072 / interlace=0 / total-frames=187483 / level-idc=51 / high-tier=1 / uhd-bd=0 / ref=3 / no-allow-non-conformance / repeat-headers / annexb / aud / hrd / info / hash=0 / no-temporal-layers / no-open-gop / min-keyint=1 / keyint=24 / gop-lookahead=0 / bframes=4 / b-adapt=2 / b-pyramid / bframe-bias=0 / rc-lookahead=25 / lookahead-slices=4 / scenecut=40 / radl=0 / no-splice / no-intra-refresh / ctu=64 / min-cu-size=8 / no-rect / no-amp / max-tu-size=32 / tu-inter-depth=1 / tu-intra-depth=1 / limit-tu=0 / rdoq-level=0 / dynamic-rd=0.00 / no-ssim-rd / signhide / no-tskip / nr-intra=0 / nr-inter=0 / no-constrained-intra / strong-intra-smoothing / max-merge=2 / limit-refs=3 / no-limit-modes / me=1 / subme=2 / merange=57 / temporal-mvp / weightp / no-weightb / no-analyze-src-pics / deblock=0:0 / no-sao / no-sao-non-deblock / rd=3 / no-early-skip / rskip / no-fast-intra / no-tskip-fast / no-cu-lossless / no-b-intra / no-splitrd-skip / rdpenalty=0 / psy-rd=2.00 / psy-rdoq=0.00 / no-rd-refine / no-lossless / cbqpoffs=0 / crqpoffs=0 / rc=crf / crf=18.0 / qcomp=0.60 / qpstep=4 / stats-write=0 / stats-read=0 / vbv-maxrate=160000 / vbv-bufsize=160000 / vbv-init=0.9 / crf-max=0.0 / crf-min=0.0 / ipratio=1.40 / pbratio=1.30 / aq-mode=1 / aq-strength=1.00 / cutree / zone-count=0 / no-strict-cbr / qg-size=32 / no-rc-grain / qpmax=69 / qpmin=0 / no-const-vbv / sar=1 / overscan=0 / videoformat=5 / range=0 / colorprim=2 / transfer=2 / colormatrix=2 / chromaloc=0 / display-window=0 / max-cll=0,0 / min-luma=0 / max-luma=1023 / log2-max-poc-lsb=8 / vui-timing-info / vui-hrd-info / slices=1 / opt-qp-pps / opt-ref-list-length-pps / no-multi-pass-opt-rps / scenecut-bias=0.05 / no-opt-cu-delta-qp / no-aq-motion / no-hdr / no-hdr-opt / no-dhdr10-opt / no-idr-recovery-sei / analysis-reuse-level=5 / scale-factor=0 / refine-intra=0 / refine-inter=0 / refine-mv=0 / refine-ctu-distortion=0 / no-limit-sao / ctu-info=0 / no-lowpass-dct / refine-analysis-type=0 / copy-pic=1 / max-ausize-factor=1.0 / no-dynamic-refine / no-single-sei / no-hevc-aq / qp-adaptation-range=1.00
  22. Default                                  : Yes
  23. Forced                                   : No
  24. Audio #1
  25. ID                                       : 2
  26. Format                                   : DTS XLL
  27. Format/Info                              : Digital Theater Systems
  28. Commercial name                          : DTS-HD Master Audio
  29. Codec ID                                 : A_DTS
  30. Duration                                 : 2 h 10 min
  31. Bit rate mode                            : Variable
  32. Bit rate                                 : 3 440 kb/s
  33. Channel(s)                               : 6 channels
  34. Channel layout                           : C L R Ls Rs LFE
  35. Sampling rate                            : 48.0 kHz
  36. Frame rate                               : 93.750 FPS (512 SPF)
  37. Bit depth                                : 24 bits
  38. Compression mode                         : Lossless
  39. Stream size                              : 3.13 GiB (6%)
  40. Title                                    : Serpico.1973.2160p.BluRay.x265.10bit.SDR.DTS-HD.MA.5.1-SWTYBLZ
  41. Language                                 : English
  42. Default                                  : Yes
  43. Forced                                   : No
  44. Audio #2
  45. ID                                       : 3
  46. Format                                   : AC-3
  47. Format/Info                              : Audio Coding 3
  48. Commercial name                          : Dolby Digital
  49. Codec ID                                 : A_AC3
  50. Duration                                 : 2 h 10 min
  51. Bit rate mode                            : Constant
  52. Bit rate                                 : 640 kb/s
  53. Channel(s)                               : 6 channels
  54. Channel layout                           : L R C LFE Ls Rs
  55. Sampling rate                            : 48.0 kHz
  56. Frame rate                               : 31.250 FPS (1536 SPF)
  57. Compression mode                         : Lossy
  58. Stream size                              : 596 MiB (1%)
  59. Title                                    : Serpico.1973.2160p.BluRay.x265.10bit.SDR.DTS-HD.MA.5.1-SWTYBLZ
  60. Language                                 : English
  61. Service kind                             : Complete Main
  62. Default                                  : No
  63. Forced                                   : No
  64. Audio #3
  65. ID                                       : 4
  66. ID in the original source medium         : 4353 (0x1101)
  67. Format                                   : PCM
  68. Format settings                          : Little / Signed
  69. Codec ID                                 : A_PCM/INT/LIT
  70. Duration                                 : 2 h 10 min
  71. Bit rate mode                            : Constant
  72. Bit rate                                 : 2 304 kb/s
  73. Channel(s)                               : 2 channels
  74. Sampling rate                            : 48.0 kHz
  75. Frame rate                               : 30.000 FPS (1600 SPF)
  76. Bit depth                                : 24 bits
  77. Stream size                              : 2.10 GiB (4%)
  78. Title                                    : Serpico.1973.2160p.BluRay.x265.10bit.SDR.DTS-HD.MA.5.1-SWTYBLZ
  79. Language                                 : English
  80. Default                                  : No
  81. Forced                                   : No
  82. Original source medium                   : Blu-ray
  83. Text #1
  84. ID                                       : 5
  85. Format                                   : UTF-8
  86. Codec ID                                 : S_TEXT/UTF8
  87. Codec ID/Info                            : UTF-8 Plain Text
  88. Duration                                 : 2 h 6 min
  89. Bit rate                                 : 61 b/s
  90. Count of elements                        : 1519
  91. Stream size                              : 56.9 KiB (0%)
  92. Title                                    : English-SRT
  93. Language                                 : English
  94. Default                                  : Yes
  95. Forced                                   : No
  96. Text #2
  97. ID                                       : 6
  98. ID in the original source medium         : 4768 (0x12A0)
  99. Format                                   : PGS
  100. Muxing mode                              : zlib
  101. Codec ID                                 : S_HDMV/PGS
  102. Codec ID/Info                            : Picture based subtitle format used on BDs/HD-DVDs
  103. Duration                                 : 2 h 7 min
  104. Bit rate                                 : 30.2 kb/s
  105. Count of elements                        : 1910
  106. Stream size                              : 27.5 MiB (0%)
  107. Title                                    : German-PGS
  108. Language                                 : German
  109. Default                                  : No
  110. Forced                                   : No
  111. Original source medium                   : Blu-ray
  112. Text #3
  113. ID                                       : 7
  114. ID in the original source medium         : 4769 (0x12A1)
  115. Format                                   : PGS
  116. Muxing mode                              : zlib
  117. Codec ID                                 : S_HDMV/PGS
  118. Codec ID/Info                            : Picture based subtitle format used on BDs/HD-DVDs
  119. Duration                                 : 2 h 8 min
  120. Bit rate                                 : 25.4 kb/s
  121. Count of elements                        : 2640
  122. Stream size                              : 23.4 MiB (0%)
  123. Title                                    : French-PGS
  124. Language                                 : French
  125. Default                                  : No
  126. Forced                                   : No
  127. Original source medium                   : Blu-ray
  128. Menu
  129. 00:00:00.000                             : en:Chapter 01
  130. 00:06:36.000                             : en:Chapter 02
  131. 00:20:57.000                             : en:Chapter 03
  132. 00:30:30.000                             : en:Chapter 04
  133. 00:39:22.000                             : en:Chapter 05
  134. 00:51:30.000                             : en:Chapter 06
  135. 00:58:44.000                             : en:Chapter 07
  136. 01:10:44.000                             : en:Chapter 08
  137. 01:24:51.000                             : en:Chapter 09
  138. 01:36:02.000                             : en:Chapter 10
  139. 01:50:17.000                             : en:Chapter 11
  140. 02:02:26.000                             : en:Chapter 12
复制代码





                                       
                                       

                                       
                                       
                                       




回复

使用道具 举报

发表于 2020-11-20 16:07:11 | 显示全部楼层
楼主发贴辛苦了,谢谢楼主分享!我觉得蓝光电影网是注册对了!
回复 支持 反对

使用道具 举报

发表于 2020-11-20 17:41:00 | 显示全部楼层
进来看看冲突
回复 支持 反对

使用道具 举报

发表于 2020-11-22 16:08:52 | 显示全部楼层

感谢楼主的无私分享!要想蓝光电影网好 就靠你我他
回复 支持 反对

使用道具 举报

懒得打字嘛,点击右侧快捷回复 【右侧内容,后台自定义】
您需要登录后才可以回帖 登录 | 立即加入

本版积分规则

现在加入蓝光电影网,注册一个账号
上个主题 下个主题 快速回复 收藏帖子 返回列表 客服中心 搜索

手机版|小黑屋| 蓝光电影网 |网站地图 

Copyright © 2015-2019 Comsenz Inc.  Template by 蓝光电影论坛 All Rights Reserved.

Powered by 蓝光电影网 X3.4

特别声明:本站所有资源均由网上收集而来,版权归原影音公司所有,如果侵犯了你的权益,请通知我们,我们会及时删除侵权内容.

快速回复 返回顶部 返回列表