找回密码

蓝光电影网

查看: 142|回复: 3

[8bit.SDR] 冲突/急先锋横扫罪恶城 Serpico.1973.2160p.BluRay.x264.8bit.SDR.DTS-HD.MA.5.1-SWTYBLZ 56.41GB

[复制链接]

 成长值: 16905

发表于 6 天前 | 显示全部楼层 |阅读模式


◎译  名 冲突/急先锋横扫罪恶城/谢皮科
◎片  名 Serpico
◎年  代 1973
◎产  地 意大利,美国
◎类  别 剧情 / 传记 / 犯罪
◎语  言 英语,西班牙语,意大利语
◎上映日期 1973-12-05
◎IMDb评分  7.7/10 from 108127 users
◎IMDb链接  https://www.imdb.com/title/tt0070666/
◎豆瓣评分 7.7/10 from 2435 users
◎豆瓣链接 https://movie.douban.com/subject/1292857/
◎片  长 130 分钟
◎导  演 西德尼·吕美特 Sidney Lumet
◎编  剧 瓦尔度·绍特 Waldo Salt / 诺曼·韦克斯勒 Norman Wexler
◎主  演 阿尔·帕西诺 Al Pacino
       约翰·兰道夫 John Randolph
       杰克·基欧 Jack Kehoe
       比夫·麦奎尔 Biff McGuire
       艾伦·瑞奇 Allan Rich
◎标  签 阿尔·帕西诺 | 美国 | 犯罪 | AlPacino | 1973 | 美国电影 | SidneyLumet | 剧情
◎简  介


  法兰克是一个年轻而富有理想的警察,他从巡警开始做起,后来成为卧底警察,虽然他的破案率很高,但他不愿意象其他警察那样收受贿赂,这使他显得和其他人格格不入。这种做法也使他身陷危机,因为他的同事们都与他为敌,且不时地陷害他。当检察组开始调查警局内部的贪污内幕时,他又出面作证,因此更陷入危险之中……
◎获奖情况
  第46届奥斯卡金像奖 ?(1974)
  最佳男主角(提名) 阿尔·帕西诺
  最佳改编剧本(提名) 诺曼·韦克斯勒?/?瓦尔度·绍特
  1. Video
  2. ID                                       : 1
  3. Format                                   : AVC
  4. Format/Info                              : Advanced Video Codec
  5. Format profile                           : [email protected]
  6. Format settings                          : CABAC / 5 Ref Frames
  7. Format settings, CABAC                   : Yes
  8. Format settings, Reference frames        : 5 frames
  9. Codec ID                                 : V_MPEG4/ISO/AVC
  10. Duration                                 : 2 h 10 min
  11. Bit rate                                 : 56.1 Mb/s
  12. Width                                    : 3 840 pixels
  13. Height                                   : 2 072 pixels
  14. Display aspect ratio                     : 1.85:1
  15. Frame rate mode                          : Constant
  16. Frame rate                               : 24.000 FPS
  17. Color space                              : YUV
  18. Chroma subsampling                       : 4:2:0
  19. Bit depth                                : 8 bits
  20. Scan type                                : Progressive
  21. Bits/(Pixel*Frame)                       : 0.294
  22. Stream size                              : 50.4 GiB (90%)
  23. Title                                    : Serpico.1973.2160p.BluRay.x264.8bit.SDR.DTS-HD.MA.5.1-SWTYBLZ
  24. Writing library                          : x264 core 157 r2935 545de2f
  25. Encoding settings                        : cabac=1 / ref=5 / deblock=1:-1:-1 / analyse=0x3:0x113 / me=umh / subme=10 / psy=1 / psy_rd=1.00:0.15 / mixed_ref=1 / me_range=48 / chroma_me=1 / trellis=2 / 8x8dct=1 / cqm=0 / deadzone=21,11 / fast_pskip=1 / chroma_qp_offset=-3 / threads=36 / lookahead_threads=3 / sliced_threads=0 / nr=0 / decimate=0 / interlaced=0 / bluray_compat=0 / constrained_intra=0 / bframes=3 / b_pyramid=2 / b_adapt=2 / b_bias=0 / direct=3 / weightb=1 / open_gop=0 / weightp=2 / keyint=250 / keyint_min=23 / scenecut=40 / intra_refresh=0 / rc_lookahead=50 / rc=crf / mbtree=1 / crf=20.0 / qcomp=0.60 / qpmin=0 / qpmax=69 / qpstep=4 / ip_ratio=1.40 / aq=1:1.00
  26. Default                                  : Yes
  27. Forced                                   : No
  28. Audio #1
  29. ID                                       : 2
  30. Format                                   : DTS XLL
  31. Format/Info                              : Digital Theater Systems
  32. Commercial name                          : DTS-HD Master Audio
  33. Codec ID                                 : A_DTS
  34. Duration                                 : 2 h 10 min
  35. Bit rate mode                            : Variable
  36. Bit rate                                 : 3 440 kb/s
  37. Channel(s)                               : 6 channels
  38. Channel layout                           : C L R Ls Rs LFE
  39. Sampling rate                            : 48.0 kHz
  40. Frame rate                               : 93.750 FPS (512 SPF)
  41. Bit depth                                : 24 bits
  42. Compression mode                         : Lossless
  43. Stream size                              : 3.13 GiB (6%)
  44. Title                                    : Serpico.1973.2160p.BluRay.x264.8bit.SDR.DTS-HD.MA.5.1-SWTYBLZ
  45. Language                                 : English
  46. Default                                  : Yes
  47. Forced                                   : No
  48. Audio #2
  49. ID                                       : 3
  50. Format                                   : AC-3
  51. Format/Info                              : Audio Coding 3
  52. Commercial name                          : Dolby Digital
  53. Codec ID                                 : A_AC3
  54. Duration                                 : 2 h 10 min
  55. Bit rate mode                            : Constant
  56. Bit rate                                 : 640 kb/s
  57. Channel(s)                               : 6 channels
  58. Channel layout                           : L R C LFE Ls Rs
  59. Sampling rate                            : 48.0 kHz
  60. Frame rate                               : 31.250 FPS (1536 SPF)
  61. Compression mode                         : Lossy
  62. Stream size                              : 596 MiB (1%)
  63. Title                                    : Serpico.1973.2160p.BluRay.x264.8bit.SDR.DTS-HD.MA.5.1-SWTYBLZ
  64. Language                                 : English
  65. Service kind                             : Complete Main
  66. Default                                  : No
  67. Forced                                   : No
  68. Audio #3
  69. ID                                       : 4
  70. ID in the original source medium         : 4353 (0x1101)
  71. Format                                   : PCM
  72. Format settings                          : Little / Signed
  73. Codec ID                                 : A_PCM/INT/LIT
  74. Duration                                 : 2 h 10 min
  75. Bit rate mode                            : Constant
  76. Bit rate                                 : 2 304 kb/s
  77. Channel(s)                               : 2 channels
  78. Sampling rate                            : 48.0 kHz
  79. Frame rate                               : 30.000 FPS (1600 SPF)
  80. Bit depth                                : 24 bits
  81. Stream size                              : 2.10 GiB (4%)
  82. Title                                    : Serpico.1973.2160p.BluRay.x264.8bit.SDR.DTS-HD.MA.5.1-SWTYBLZ
  83. Language                                 : English
  84. Default                                  : No
  85. Forced                                   : No
  86. Original source medium                   : Blu-ray
  87. Text #1
  88. ID                                       : 5
  89. Format                                   : UTF-8
  90. Codec ID                                 : S_TEXT/UTF8
  91. Codec ID/Info                            : UTF-8 Plain Text
  92. Duration                                 : 2 h 6 min
  93. Bit rate                                 : 61 b/s
  94. Count of elements                        : 1519
  95. Stream size                              : 56.9 KiB (0%)
  96. Title                                    : English-SRT
  97. Language                                 : English
  98. Default                                  : Yes
  99. Forced                                   : No
  100. Text #2
  101. ID                                       : 6
  102. ID in the original source medium         : 4768 (0x12A0)
  103. Format                                   : PGS
  104. Muxing mode                              : zlib
  105. Codec ID                                 : S_HDMV/PGS
  106. Codec ID/Info                            : Picture based subtitle format used on BDs/HD-DVDs
  107. Duration                                 : 2 h 7 min
  108. Bit rate                                 : 30.2 kb/s
  109. Count of elements                        : 1910
  110. Stream size                              : 27.5 MiB (0%)
  111. Title                                    : German-PGS
  112. Language                                 : German
  113. Default                                  : No
  114. Forced                                   : No
  115. Original source medium                   : Blu-ray
  116. Text #3
  117. ID                                       : 7
  118. ID in the original source medium         : 4769 (0x12A1)
  119. Format                                   : PGS
  120. Muxing mode                              : zlib
  121. Codec ID                                 : S_HDMV/PGS
  122. Codec ID/Info                            : Picture based subtitle format used on BDs/HD-DVDs
  123. Duration                                 : 2 h 8 min
  124. Bit rate                                 : 25.4 kb/s
  125. Count of elements                        : 2640
  126. Stream size                              : 23.4 MiB (0%)
  127. Title                                    : French-PGS
  128. Language                                 : French
  129. Default                                  : No
  130. Forced                                   : No
  131. Original source medium                   : Blu-ray
  132. Menu
  133. 00:00:00.000                             : en:Chapter 01
  134. 00:06:36.000                             : en:Chapter 02
  135. 00:20:57.000                             : en:Chapter 03
  136. 00:30:30.000                             : en:Chapter 04
  137. 00:39:22.000                             : en:Chapter 05
  138. 00:51:30.000                             : en:Chapter 06
  139. 00:58:44.000                             : en:Chapter 07
  140. 01:10:44.000                             : en:Chapter 08
  141. 01:24:51.000                             : en:Chapter 09
  142. 01:36:02.000                             : en:Chapter 10
  143. 01:50:17.000                             : en:Chapter 11
  144. 02:02:26.000                             : en:Chapter 12
复制代码





                                       
                                       

                                       
                                       
                                       




回复

使用道具 举报

 成长值: 5890

发表于 6 天前 | 显示全部楼层
太好啦&萬分感謝版主的無私發佈分享%
回复 支持 反对

使用道具 举报

发表于 6 天前 | 显示全部楼层

这个帖子不回对不起自己!我想我是一天也不能离开蓝光电影网
回复 支持 反对

使用道具 举报

发表于 4 天前 | 显示全部楼层
楼主发贴辛苦了,谢谢楼主分享!我觉得蓝光电影网是注册对了!
回复 支持 反对

使用道具 举报

懒得打字嘛,点击右侧快捷回复 【右侧内容,后台自定义】
您需要登录后才可以回帖 登录 | 立即加入

本版积分规则

现在加入蓝光电影网,注册一个账号
上个主题 下个主题 快速回复 收藏帖子 返回列表 客服中心 搜索

手机版|小黑屋| 蓝光电影网 |网站地图 

Copyright © 2015-2019 Comsenz Inc.  Template by 蓝光电影论坛 All Rights Reserved.

Powered by 蓝光电影网 X3.4

特别声明:本站所有资源均由网上收集而来,版权归原影音公司所有,如果侵犯了你的权益,请通知我们,我们会及时删除侵权内容.

快速回复 返回顶部 返回列表