找回密码

蓝光电影网

查看: 182|回复: 4

[REMUX.HEVC] 全面回忆/宇宙威龙 Total.Recall.1990.2160p.BluRay.REMUX.HEVC.DTS-HD.MA.TrueHD.7.1.Atmos-FGT 55.17GB

[复制链接]

 成长值: 16905

发表于 6 天前 | 显示全部楼层 |阅读模式


◎译  名 全面回忆/宇宙威龙(港)/魔鬼总动员(台)
◎片  名 Total Recall
◎年  代 1990
◎产  地 美国
◎类  别 动作 / 科幻 / 惊悚 / 冒险
◎语  言 英语
◎上映日期 1990-06-01(美国)
◎IMDb评分  7.5/10 from 298678 users
◎IMDb链接  https://www.imdb.com/title/tt0100802/
◎豆瓣评分 7.7/10 from 25181 users
◎豆瓣链接 https://movie.douban.com/subject/1295870/
◎片  长 113分钟
◎导  演 保罗·范霍文 Paul Verhoeven
◎编  剧 菲利普·K·迪克 Philip K. Dick / 罗纳德·舒塞特 Ronald Shusett / 丹·欧班农 Dan O'Bannon / Jon Povill / 加里·戈德曼 Gary Goldman
◎主  演 阿诺·施瓦辛格 Arnold Schwarzenegger
       雷切尔·蒂科汀 Rachel Ticotin
       莎朗·斯通 Sharon Stone
       罗尼·考克斯 Ronny Cox
       迈克尔·艾恩塞德 Michael Ironside
       马绍尔·贝尔 Marshall Bell
       梅尔约翰逊 Mel Johnson Jr.
       迈克尔切姆平 Michael Champion
       罗伊·布罗克斯史密斯 Roy Brocksmith
       雷·贝克 Ray Baker
       萝丝玛丽·邓斯莫尔 Rosemary Dunsmore
       戴维·奈尔 David Knell
       阿列卡夏罗宾逊 Alexia Robinson
       迪恩·诺里斯 Dean Norris
       马克卡尔顿 Mark Carlton
       黛比·李·卡林顿 Debbie Lee Carrington
       Lycia Naff
       罗伯特·康斯坦佐 Robert Costanzo
       Michael LaGuardia
       Priscilla Allen
       马克·阿莱莫 Marc Alaimo
       Michael Gregory
       户田惠子 Keiko Toda
       阿兰·格拉夫 Allan Graf
       鲍勃·祖迪克 Bob Tzudiker
       Erik Cord
       Bennie Moore
◎标  签 科幻 | 动作 | 施瓦辛格 | 美国 | 1990 | 美国电影 | ArnoldSchwarzenegger | 电影
◎简  介


  未来世界中,工程工人道格拉斯(Arnold Schwarzenegger 饰)被持续的梦境困扰,那是一系列发生在红色火星上的体验。道格拉斯在广告上发现了回忆旅行公司的介绍,虽然同事警告他这种虚拟旅行可能会危害人类的大脑,但比起亲自去一趟充斥着反政府武装的火星,回忆旅行公司确是一个不错的选择。道格拉斯如愿接受了回忆旅行的服务,但是虚拟记忆的过程突然出现错误,自此一系列不可思议的经历出现在道格拉斯的身上,先是妻子劳瑞(Sharon Stone 饰)向他发起攻击并承认自己是监视道格拉斯的间谍,后来有陌生人出现帮助他逃脱并指出他是火星独裁者针对反政府武装派出的特工,结果因为一名女子梅丽(Rachel Ticotin 饰)改变了立场……道格拉斯动身前往火星,那里有一切的谜底,或者一切又只是梦境一场?
◎获奖情况
  第63届奥斯卡金像奖 ?(1991)
  最佳音效剪辑(提名) 斯蒂芬·亨特·弗利克
  最佳音响(提名) 亚伦·罗琴?/?迈克尔·J·科胡特?/?尼尔森·斯托尔?/?卡洛斯·德拉里奥斯
  特别成就奖 蒂姆·麦加沃恩?/?埃里克·布雷维格?/?罗伯·博汀
  
  第14届日本电影学院奖 ?(1991)
  最佳外语片(提名)
  1. Video
  2. ID                                       : 1
  3. ID in the original source medium         : 4113 (0x1011)
  4. Format                                   : HEVC
  5. Format/Info                              : High Efficiency Video Coding
  6. Format profile                           : Main [email protected]@High
  7. HDR format                               : SMPTE ST 2086, HDR10 compatible
  8. Codec ID                                 : V_MPEGH/ISO/HEVC
  9. Duration                                 : 1 h 53 min
  10. Bit rate                                 : 54.0 Mb/s
  11. Width                                    : 3 840 pixels
  12. Height                                   : 2 160 pixels
  13. Display aspect ratio                     : 16:9
  14. Frame rate mode                          : Constant
  15. Frame rate                               : 24.000 FPS
  16. Color space                              : YUV
  17. Chroma subsampling                       : 4:2:0 (Type 2)
  18. Bit depth                                : 10 bits
  19. Bits/(Pixel*Frame)                       : 0.271
  20. Stream size                              : 42.7 GiB (77%)
  21. Title                                    : Total.Recall.1990.2160p.BluRay.REMUX.HEVC.DTS-HD.MA.TrueHD.7.1.Atmos-FGT
  22. Language                                 : English
  23. Default                                  : No
  24. Forced                                   : No
  25. Color range                              : Limited
  26. Color primaries                          : BT.2020
  27. Transfer characteristics                 : PQ
  28. Matrix coefficients                      : BT.2020 non-constant
  29. Mastering display color primaries        : BT.2020
  30. Mastering display luminance              : min: 0.0001 cd/m2, max: 1000 cd/m2
  31. Original source medium                   : Blu-ray
  32. Audio #1
  33. ID                                       : 2
  34. ID in the original source medium         : 4352 (0x1100)
  35. Format                                   : MLP FBA 16-ch
  36. Format/Info                              : Meridian Lossless Packing FBA with 16-channel presentation
  37. Commercial name                          : Dolby TrueHD with Dolby Atmos
  38. Codec ID                                 : A_TRUEHD
  39. Duration                                 : 1 h 53 min
  40. Bit rate mode                            : Variable
  41. Bit rate                                 : 3 464 kb/s
  42. Maximum bit rate                         : 5 412 kb/s
  43. Channel(s)                               : 8 channels
  44. Channel layout                           : L R C LFE Ls Rs Lb Rb
  45. Sampling rate                            : 48.0 kHz
  46. Frame rate                               : 1 200.000 FPS (40 SPF)
  47. Compression mode                         : Lossless
  48. Stream size                              : 2.74 GiB (5%)
  49. Title                                    : Total.Recall.1990.2160p.BluRay.REMUX.HEVC.DTS-HD.MA.TrueHD.7.1.Atmos-FGT
  50. Language                                 : English
  51. Default                                  : Yes
  52. Forced                                   : No
  53. Original source medium                   : Blu-ray
  54. Number of dynamic objects                : 11
  55. Bed channel count                        : 1 channel
  56. Bed channel configuration                : LFE
  57. Audio #2
  58. ID                                       : 3
  59. Format                                   : DTS XLL
  60. Format/Info                              : Digital Theater Systems
  61. Commercial name                          : DTS-HD Master Audio
  62. Codec ID                                 : A_DTS
  63. Duration                                 : 1 h 53 min
  64. Bit rate mode                            : Variable
  65. Bit rate                                 : 3 793 kb/s
  66. Channel(s)                               : 8 channels
  67. Channel layout                           : C L R LFE Lb Rb Lss Rss
  68. Sampling rate                            : 48.0 kHz
  69. Frame rate                               : 93.750 FPS (512 SPF)
  70. Bit depth                                : 24 bits
  71. Compression mode                         : Lossless
  72. Stream size                              : 3.00 GiB (5%)
  73. Title                                    : Total.Recall.1990.2160p.BluRay.REMUX.HEVC.DTS-HD.MA.TrueHD.7.1.Atmos-FGT
  74. Language                                 : English
  75. Default                                  : No
  76. Forced                                   : No
  77. Audio #3
  78. ID                                       : 4
  79. ID in the original source medium         : 4352 (0x1100)
  80. Format                                   : AC-3
  81. Format/Info                              : Audio Coding 3
  82. Commercial name                          : Dolby Digital
  83. Codec ID                                 : A_AC3
  84. Duration                                 : 1 h 53 min
  85. Bit rate mode                            : Constant
  86. Bit rate                                 : 384 kb/s
  87. Channel(s)                               : 6 channels
  88. Channel layout                           : L R C LFE Ls Rs
  89. Sampling rate                            : 48.0 kHz
  90. Frame rate                               : 31.250 FPS (1536 SPF)
  91. Compression mode                         : Lossy
  92. Stream size                              : 311 MiB (1%)
  93. Title                                    : Total.Recall.1990.2160p.BluRay.REMUX.HEVC.DTS-HD.MA.TrueHD.7.1.Atmos-FGT
  94. Language                                 : English
  95. Service kind                             : Complete Main
  96. Default                                  : No
  97. Forced                                   : No
  98. Original source medium                   : Blu-ray
  99. Audio #4
  100. ID                                       : 5
  101. ID in the original source medium         : 4353 (0x1101)
  102. Format                                   : DTS
  103. Format/Info                              : Digital Theater Systems
  104. Codec ID                                 : A_DTS
  105. Duration                                 : 1 h 53 min
  106. Bit rate mode                            : Constant
  107. Bit rate                                 : 768 kb/s
  108. Channel(s)                               : 2 channels
  109. Channel layout                           : L R
  110. Sampling rate                            : 48.0 kHz
  111. Frame rate                               : 93.750 FPS (512 SPF)
  112. Bit depth                                : 24 bits
  113. Compression mode                         : Lossy
  114. Stream size                              : 622 MiB (1%)
  115. Title                                    : Total.Recall.1990.2160p.BluRay.REMUX.HEVC.DTS-HD.MA.TrueHD.7.1.Atmos-FGT
  116. Language                                 : English
  117. Default                                  : No
  118. Forced                                   : No
  119. Original source medium                   : Blu-ray
  120. Audio #5
  121. ID                                       : 6
  122. ID in the original source medium         : 4354 (0x1102)
  123. Format                                   : DTS XLL
  124. Format/Info                              : Digital Theater Systems
  125. Commercial name                          : DTS-HD Master Audio
  126. Codec ID                                 : A_DTS
  127. Duration                                 : 1 h 53 min
  128. Bit rate mode                            : Variable
  129. Bit rate                                 : 2 231 kb/s
  130. Channel(s)                               : 6 channels
  131. Channel layout                           : C L R Ls Rs LFE
  132. Sampling rate                            : 48.0 kHz
  133. Frame rate                               : 93.750 FPS (512 SPF)
  134. Bit depth                                : 16 bits
  135. Compression mode                         : Lossless
  136. Stream size                              : 1.77 GiB (3%)
  137. Title                                    : Total.Recall.1990.2160p.BluRay.REMUX.HEVC.DTS-HD.MA.TrueHD.7.1.Atmos-FGT
  138. Language                                 : French
  139. Default                                  : No
  140. Forced                                   : No
  141. Original source medium                   : Blu-ray
  142. Audio #6
  143. ID                                       : 7
  144. ID in the original source medium         : 4355 (0x1103)
  145. Format                                   : DTS XLL
  146. Format/Info                              : Digital Theater Systems
  147. Commercial name                          : DTS-HD Master Audio
  148. Codec ID                                 : A_DTS
  149. Duration                                 : 1 h 53 min
  150. Bit rate mode                            : Variable
  151. Bit rate                                 : 2 388 kb/s
  152. Channel(s)                               : 6 channels
  153. Channel layout                           : C L R Ls Rs LFE
  154. Sampling rate                            : 48.0 kHz
  155. Frame rate                               : 93.750 FPS (512 SPF)
  156. Bit depth                                : 16 bits
  157. Compression mode                         : Lossless
  158. Stream size                              : 1.89 GiB (3%)
  159. Title                                    : Total.Recall.1990.2160p.BluRay.REMUX.HEVC.DTS-HD.MA.TrueHD.7.1.Atmos-FGT
  160. Language                                 : German
  161. Default                                  : No
  162. Forced                                   : No
  163. Original source medium                   : Blu-ray
  164. Audio #7
  165. ID                                       : 8
  166. ID in the original source medium         : 4356 (0x1104)
  167. Format                                   : PCM
  168. Format settings                          : Little / Signed
  169. Codec ID                                 : A_PCM/INT/LIT
  170. Duration                                 : 1 h 53 min
  171. Bit rate mode                            : Constant
  172. Bit rate                                 : 2 304 kb/s
  173. Channel(s)                               : 2 channels
  174. Sampling rate                            : 48.0 kHz
  175. Frame rate                               : 30.000 FPS (1600 SPF)
  176. Bit depth                                : 24 bits
  177. Stream size                              : 1.82 GiB (3%)
  178. Title                                    : Total.Recall.1990.2160p.BluRay.REMUX.HEVC.DTS-HD.MA.TrueHD.7.1.Atmos-FGT
  179. Language                                 : German
  180. Default                                  : No
  181. Forced                                   : No
  182. Original source medium                   : Blu-ray
  183. Audio #8
  184. ID                                       : 9
  185. ID in the original source medium         : 4358 (0x1106)
  186. Format                                   : DTS
  187. Format/Info                              : Digital Theater Systems
  188. Codec ID                                 : A_DTS
  189. Duration                                 : 1 h 53 min
  190. Bit rate mode                            : Constant
  191. Bit rate                                 : 255 kb/s
  192. Channel(s)                               : 2 channels
  193. Channel layout                           : L R
  194. Sampling rate                            : 48.0 kHz
  195. Frame rate                               : 93.750 FPS (512 SPF)
  196. Bit depth                                : 24 bits
  197. Compression mode                         : Lossy
  198. Stream size                              : 207 MiB (0%)
  199. Title                                    : Total.Recall.1990.2160p.BluRay.REMUX.HEVC.DTS-HD.MA.TrueHD.7.1.Atmos-FGT
  200. Language                                 : English
  201. Default                                  : No
  202. Forced                                   : No
  203. Original source medium                   : Blu-ray
  204. Text #1
  205. ID                                       : 10
  206. Format                                   : UTF-8
  207. Codec ID                                 : S_TEXT/UTF8
  208. Codec ID/Info                            : UTF-8 Plain Text
  209. Duration                                 : 1 h 45 min
  210. Bit rate                                 : 48 b/s
  211. Count of elements                        : 1071
  212. Stream size                              : 37.1 KiB (0%)
  213. Title                                    : English-SRT
  214. Language                                 : English
  215. Default                                  : Yes
  216. Forced                                   : No
  217. Text #2
  218. ID                                       : 11
  219. ID in the original source medium         : 4768 (0x12A0)
  220. Format                                   : PGS
  221. Muxing mode                              : zlib
  222. Codec ID                                 : S_HDMV/PGS
  223. Codec ID/Info                            : Picture based subtitle format used on BDs/HD-DVDs
  224. Duration                                 : 1 h 49 min
  225. Bit rate                                 : 24.4 kb/s
  226. Count of elements                        : 2216
  227. Stream size                              : 19.0 MiB (0%)
  228. Title                                    : French-PGS
  229. Language                                 : French
  230. Default                                  : No
  231. Forced                                   : No
  232. Original source medium                   : Blu-ray
  233. Text #3
  234. ID                                       : 12
  235. ID in the original source medium         : 4769 (0x12A1)
  236. Format                                   : PGS
  237. Muxing mode                              : zlib
  238. Codec ID                                 : S_HDMV/PGS
  239. Codec ID/Info                            : Picture based subtitle format used on BDs/HD-DVDs
  240. Duration                                 : 1 h 49 min
  241. Bit rate                                 : 28.1 kb/s
  242. Count of elements                        : 1776
  243. Stream size                              : 21.9 MiB (0%)
  244. Title                                    : German-PGS
  245. Language                                 : German
  246. Default                                  : No
  247. Forced                                   : No
  248. Original source medium                   : Blu-ray
  249. Text #4
  250. ID                                       : 13
  251. ID in the original source medium         : 4770 (0x12A2)
  252. Format                                   : PGS
  253. Muxing mode                              : zlib
  254. Codec ID                                 : S_HDMV/PGS
  255. Codec ID/Info                            : Picture based subtitle format used on BDs/HD-DVDs
  256. Duration                                 : 1 h 45 min
  257. Bit rate                                 : 30.4 kb/s
  258. Count of elements                        : 2274
  259. Stream size                              : 22.9 MiB (0%)
  260. Title                                    : English-PGS
  261. Language                                 : English
  262. Default                                  : No
  263. Forced                                   : No
  264. Original source medium                   : Blu-ray
  265. Text #5
  266. ID                                       : 14
  267. ID in the original source medium         : 4772 (0x12A4)
  268. Format                                   : PGS
  269. Muxing mode                              : zlib
  270. Codec ID                                 : S_HDMV/PGS
  271. Codec ID/Info                            : Picture based subtitle format used on BDs/HD-DVDs
  272. Duration                                 : 1 h 52 min
  273. Bit rate                                 : 49.1 kb/s
  274. Count of elements                        : 3124
  275. Stream size                              : 39.6 MiB (0%)
  276. Title                                    : French-FORCED-PGS
  277. Language                                 : French
  278. Default                                  : No
  279. Forced                                   : No
  280. Original source medium                   : Blu-ray
  281. Text #6
  282. ID                                       : 15
  283. ID in the original source medium         : 4773 (0x12A5)
  284. Format                                   : PGS
  285. Muxing mode                              : zlib
  286. Codec ID                                 : S_HDMV/PGS
  287. Codec ID/Info                            : Picture based subtitle format used on BDs/HD-DVDs
  288. Duration                                 : 1 h 52 min
  289. Bit rate                                 : 51.5 kb/s
  290. Count of elements                        : 2762
  291. Stream size                              : 41.6 MiB (0%)
  292. Title                                    : German-FORCED-PGS
  293. Language                                 : German
  294. Default                                  : No
  295. Forced                                   : No
  296. Original source medium                   : Blu-ray
  297. Menu
  298. 00:00:00.000                             : en:Chapter 01
  299. 00:05:50.541                             : en:Chapter 02
  300. 00:11:27.000                             : en:Chapter 03
  301. 00:18:13.916                             : en:Chapter 04
  302. 00:24:50.708                             : en:Chapter 05
  303. 00:29:37.625                             : en:Chapter 06
  304. 00:37:05.500                             : en:Chapter 07
  305. 00:43:12.000                             : en:Chapter 08
  306. 00:48:35.333                             : en:Chapter 09
  307. 00:55:02.000                             : en:Chapter 10
  308. 01:00:03.875                             : en:Chapter 11
  309. 01:15:21.000                             : en:Chapter 12
  310. 01:20:16.000                             : en:Chapter 13
  311. 01:27:07.000                             : en:Chapter 14
  312. 01:32:18.208                             : en:Chapter 15
  313. 01:39:52.708                             : en:Chapter 16
复制代码



                                       
                                       

                                       
                                       
                                       




回复

使用道具 举报

 成长值: 4285

发表于 6 天前 | 显示全部楼层
终于来了,谢谢版主发片
回复 支持 反对

使用道具 举报

发表于 6 天前 | 显示全部楼层

这东西我收了!谢谢楼主!蓝光电影网真好!
回复 支持 反对

使用道具 举报

 成长值: 5575

发表于 6 天前 | 显示全部楼层
谢谢楼主无私分享。
回复 支持 反对

使用道具 举报

发表于 6 天前 | 显示全部楼层
楼主发贴辛苦了,谢谢楼主分享!我觉得蓝光电影网是注册对了!
回复 支持 反对

使用道具 举报

懒得打字嘛,点击右侧快捷回复 【右侧内容,后台自定义】
您需要登录后才可以回帖 登录 | 立即加入

本版积分规则

现在加入蓝光电影网,注册一个账号
上个主题 下个主题 快速回复 收藏帖子 返回列表 客服中心 搜索

手机版|小黑屋| 蓝光电影网 |网站地图 

Copyright © 2015-2019 Comsenz Inc.  Template by 蓝光电影论坛 All Rights Reserved.

Powered by 蓝光电影网 X3.4

特别声明:本站所有资源均由网上收集而来,版权归原影音公司所有,如果侵犯了你的权益,请通知我们,我们会及时删除侵权内容.

快速回复 返回顶部 返回列表