找回密码

蓝光电影网

查看: 110|回复: 1

[8bit.SDR] 美国狼人在伦敦/鬼追人 An.American.Werewolf.in.London.1981.2160p.BluRay.x264.8bit.SDR.DTS-HD.MA.5.1-SWTYBLZ 40.41GB

[复制链接]

 成长值: 16905

发表于 6 天前 | 显示全部楼层 |阅读模式


◎译  名 美国狼人在伦敦/鬼追人
◎片  名 An American Werewolf in London
◎年  代 1981
◎产  地 美国,英国
◎类  别 爱情 / 恐怖
◎语  言 英语
◎上映日期 1981-08-21
◎IMDb评分  7.5/10 from 91541 users
◎IMDb链接  https://www.imdb.com/title/tt0082010/
◎豆瓣评分 7.0/10 from 1984 users
◎豆瓣链接 https://movie.douban.com/subject/1295077/
◎片  长 97 分钟
◎导  演 约翰·兰迪斯 John Landis
◎编  剧 约翰·兰迪斯 John Landis
◎主  演 大卫·诺顿 David Naughton
       珍妮·艾加特 Jenny Agutter
       格里芬·邓恩 Griffin Dunne
       约翰·伍德温 John Woodvine
       莉拉·凯 Lila Kaye
       保罗·肯伯 Paul Kember
       Don McKillop
◎标  签 恐怖 | 美国 | 惊悚 | Cult | 1981 | 美国电影 | 英国 | 1980s
◎简  介


  来自美国的杰克(格里芬·邓恩 Griffin Dunne 饰)和戴维(大卫·诺顿 David Naughton 饰)是一对经常结伴出游的好友,一次意外中,他们在位于英格兰的一篇沼泽里遭到了可怕的狼人的袭击,杰克当场死亡,戴维负伤。住在附近小镇里的村民们救了戴维,并为他提供了养伤的住所。
  
  自从受伤以来,杰克频频出现在戴维的幻觉之中,杰克告诉戴维,戴维已经有了狼人的血统,为了避免伤及无辜,杰克鼓动戴维尽早的结束自己的生命。果不其然,月圆之夜的隔天清晨,几句尸体的出现让小镇陷入了恐慌之中,只有杰克明白,自己是这一切的罪魁祸首。杰克想要自首,可小镇上没有人愿意相信他。
◎获奖情况
  第54届奥斯卡金像奖 ?(1982)
  最佳化妆 里克·贝克
  1. Video
  2. ID                                       : 1
  3. Format                                   : AVC
  4. Format/Info                              : Advanced Video Codec
  5. Format profile                           : [email protected]
  6. Format settings                          : CABAC / 5 Ref Frames
  7. Format settings, CABAC                   : Yes
  8. Format settings, Reference frames        : 5 frames
  9. Codec ID                                 : V_MPEG4/ISO/AVC
  10. Duration                                 : 1 h 37 min
  11. Bit rate                                 : 56.1 Mb/s
  12. Width                                    : 3 840 pixels
  13. Height                                   : 2 076 pixels
  14. Display aspect ratio                     : 1.85:1
  15. Frame rate mode                          : Constant
  16. Frame rate                               : 23.976 (24000/1001/189150) FPS
  17. Color space                              : YUV
  18. Chroma subsampling                       : 4:2:0
  19. Bit depth                                : 8 bits
  20. Scan type                                : Progressive
  21. Bits/(Pixel*Frame)                       : 0.293
  22. Stream size                              : 38.1 GiB (95%)
  23. Title                                    : An.American.Werewolf.in.London.1981.2160p.BluRay.x264.8bit.SDR.DTS-HD.MA.5.1-SWTYBLZ
  24. Writing library                          : x264 core 157 r2935 545de2f
  25. Encoding settings                        : cabac=1 / ref=5 / deblock=1:-1:-1 / analyse=0x3:0x113 / me=umh / subme=10 / psy=1 / psy_rd=1.00:0.15 / mixed_ref=1 / me_range=48 / chroma_me=1 / trellis=2 / 8x8dct=1 / cqm=0 / deadzone=21,11 / fast_pskip=1 / chroma_qp_offset=-3 / threads=48 / lookahead_threads=4 / sliced_threads=0 / nr=0 / decimate=0 / interlaced=0 / bluray_compat=0 / constrained_intra=0 / bframes=3 / b_pyramid=2 / b_adapt=2 / b_bias=0 / direct=3 / weightb=1 / open_gop=0 / weightp=2 / keyint=250 / keyint_min=23 / scenecut=40 / intra_refresh=0 / rc_lookahead=50 / rc=crf / mbtree=1 / crf=22.0 / qcomp=0.60 / qpmin=0 / qpmax=69 / qpstep=4 / ip_ratio=1.40 / aq=1:1.00
  26. Default                                  : Yes
  27. Forced                                   : No
  28. Audio #1
  29. ID                                       : 2
  30. ID in the original source medium         : 4354 (0x1102)
  31. Format                                   : DTS XLL
  32. Format/Info                              : Digital Theater Systems
  33. Commercial name                          : DTS-HD Master Audio
  34. Codec ID                                 : A_DTS
  35. Duration                                 : 1 h 37 min
  36. Bit rate mode                            : Variable
  37. Bit rate                                 : 2 354 kb/s
  38. Channel(s)                               : 6 channels
  39. Channel layout                           : C L R Ls Rs LFE
  40. Sampling rate                            : 48.0 kHz
  41. Frame rate                               : 93.750 FPS (512 SPF)
  42. Bit depth                                : 16 bits
  43. Compression mode                         : Lossless
  44. Stream size                              : 1.60 GiB (4%)
  45. Title                                    : An.American.Werewolf.in.London.1981.2160p.BluRay.x264.8bit.SDR.DTS-HD.MA.5.1-SWTYBLZ
  46. Language                                 : English
  47. Default                                  : Yes
  48. Forced                                   : No
  49. Original source medium                   : Blu-ray
  50. Audio #2
  51. ID                                       : 3
  52. Format                                   : AC-3
  53. Format/Info                              : Audio Coding 3
  54. Commercial name                          : Dolby Digital
  55. Codec ID                                 : A_AC3
  56. Duration                                 : 1 h 37 min
  57. Bit rate mode                            : Constant
  58. Bit rate                                 : 640 kb/s
  59. Channel(s)                               : 6 channels
  60. Channel layout                           : L R C LFE Ls Rs
  61. Sampling rate                            : 48.0 kHz
  62. Frame rate                               : 31.250 FPS (1536 SPF)
  63. Compression mode                         : Lossy
  64. Stream size                              : 445 MiB (1%)
  65. Title                                    : An.American.Werewolf.in.London.1981.2160p.BluRay.x264.8bit.SDR.DTS-HD.MA.5.1-SWTYBLZ
  66. Language                                 : English
  67. Service kind                             : Complete Main
  68. Default                                  : No
  69. Forced                                   : No
  70. Text #1
  71. ID                                       : 4
  72. Format                                   : UTF-8
  73. Codec ID                                 : S_TEXT/UTF8
  74. Codec ID/Info                            : UTF-8 Plain Text
  75. Duration                                 : 1 h 29 min
  76. Bit rate                                 : 52 b/s
  77. Count of elements                        : 939
  78. Stream size                              : 34.3 KiB (0%)
  79. Title                                    : English-SRT
  80. Language                                 : English
  81. Default                                  : Yes
  82. Forced                                   : No
  83. Text #2
  84. ID                                       : 5
  85. ID in the original source medium         : 4769 (0x12A1)
  86. Format                                   : PGS
  87. Muxing mode                              : zlib
  88. Codec ID                                 : S_HDMV/PGS
  89. Codec ID/Info                            : Picture based subtitle format used on BDs/HD-DVDs
  90. Duration                                 : 1 h 29 min
  91. Bit rate                                 : 28.8 kb/s
  92. Count of elements                        : 1885
  93. Stream size                              : 18.4 MiB (0%)
  94. Title                                    : English-PGS
  95. Language                                 : English
  96. Default                                  : No
  97. Forced                                   : No
  98. Original source medium                   : Blu-ray
  99. Text #3
  100. ID                                       : 6
  101. ID in the original source medium         : 4768 (0x12A0)
  102. Format                                   : PGS
  103. Muxing mode                              : zlib
  104. Codec ID                                 : S_HDMV/PGS
  105. Codec ID/Info                            : Picture based subtitle format used on BDs/HD-DVDs
  106. Duration                                 : 1 h 33 min
  107. Bit rate                                 : 28.3 kb/s
  108. Count of elements                        : 1978
  109. Stream size                              : 18.9 MiB (0%)
  110. Title                                    : German-PGS
  111. Language                                 : German
  112. Default                                  : No
  113. Forced                                   : No
  114. Original source medium                   : Blu-ray
  115. Menu
  116. 00:00:00.000                             : en:Chapter 01
  117. 00:06:47.198                             : en:Chapter 02
  118. 00:11:29.772                             : en:Chapter 03
  119. 00:17:20.748                             : en:Chapter 04
  120. 00:24:51.239                             : en:Chapter 05
  121. 00:31:26.718                             : en:Chapter 06
  122. 00:37:40.967                             : en:Chapter 07
  123. 00:42:57.741                             : en:Chapter 08
  124. 00:47:57.666                             : en:Chapter 09
  125. 00:54:51.246                             : en:Chapter 10
  126. 00:58:52.487                             : en:Chapter 11
  127. 01:01:23.429                             : en:Chapter 12
  128. 01:06:26.273                             : en:Chapter 13
  129. 01:09:14.942                             : en:Chapter 14
  130. 01:15:17.930                             : en:Chapter 15
  131. 01:22:09.883                             : en:Chapter 16
  132. 01:28:45.695                             : en:Chapter 17
  133. 01:33:42.617                             : en:Chapter 18
复制代码



                                       
                                       

                                       
                                       
                                       




回复

使用道具 举报

发表于 昨天 15:18 | 显示全部楼层
楼主发贴辛苦了,谢谢楼主分享!我觉得蓝光电影网是注册对了!
回复 支持 反对

使用道具 举报

懒得打字嘛,点击右侧快捷回复 【右侧内容,后台自定义】
您需要登录后才可以回帖 登录 | 立即加入

本版积分规则

现在加入蓝光电影网,注册一个账号
上个主题 下个主题 快速回复 收藏帖子 返回列表 客服中心 搜索

手机版|小黑屋| 蓝光电影网 |网站地图 

Copyright © 2015-2019 Comsenz Inc.  Template by 蓝光电影论坛 All Rights Reserved.

Powered by 蓝光电影网 X3.4

特别声明:本站所有资源均由网上收集而来,版权归原影音公司所有,如果侵犯了你的权益,请通知我们,我们会及时删除侵权内容.

快速回复 返回顶部 返回列表