找回密码

蓝光电影网

查看: 194|回复: 7

[REMUX.HEVC] 格蕾特和韩塞尔 Gretel.and.Hansel.2020.2160p.BluRay.REMUX.HEVC.DTS-HD.MA.5.1-FGT 45.14GB

[复制链接]

 成长值: 16905

发表于 2020-11-18 22:07:13 | 显示全部楼层 |阅读模式


◎译  名 格蕾特和韩塞尔/Gretel and Hansel/战栗糖果屋(台)/格蕾特和汉塞尔/糖果屋/韩赛尔与格蕾特
◎片  名 Gretel & Hansel
◎年  代 2020
◎产  地 加拿大,爱尔兰,美国,南非
◎类  别 惊悚 / 恐怖 / 奇幻
◎语  言 英语
◎上映日期 2020-01-31(美国)
◎IMDb评分  5.3/10 from 20684 users
◎IMDb链接  https://www.imdb.com/title/tt9086228/
◎豆瓣评分 5.4/10 from 1667 users
◎豆瓣链接 https://movie.douban.com/subject/34807058/
◎片  长 87分钟
◎导  演 奥兹·珀金斯 Oz Perkins
◎编  剧 罗布·海斯 Rob Hayes / 奥兹·珀金斯 Oz Perkins
◎主  演 索菲娅·莉莉丝 Sophia Lillis
       艾丽丝·克里奇 Alice Krige
       杰西卡·德·古维 Jessica De Gouw
       查尔斯·巴巴洛拉 Charles Babalola
       塞缪尔·利基 Samuel Leakey
       伊安·肯尼 Ian Kenny
       阿卜杜勒·阿尔沙瑞夫 Abdul Alshareef
       曼纽尔·庞波 Manuel Pombo
       贝娅特丽克斯·帕金斯 Beatrix Perkins
◎标  签 恐怖 | 惊悚 | 奇幻 | 2020 | 美国 | 魔幻 | 黑色童话 | 格林童话
◎简  介


  描述葛丽特与汉赛尔被抛弃在黑森林中,试图找寻食物,却误入女巫预备丰盛佳肴的屋子。
  
  故事发生在很久很久以前,在一个遥远的村庄,女孩葛丽特(索菲娅·莉莉丝 饰)带着弟弟韩赛尔进入一片幽暗密林,饥寒交迫的两人原本希望可以在这里找到食物和工作,却遇上了令人恐惧的邪恶存在……
  1. Video
  2. ID                                       : 1
  3. ID in the original source medium         : 4113 (0x1011)
  4. Format                                   : HEVC
  5. Format/Info                              : High Efficiency Video Coding
  6. Format profile                           : Main [email protected]@High
  7. HDR format                               : SMPTE ST 2094 App 4, Version 1, HDR10+ Profile B compatible
  8. Codec ID                                 : V_MPEGH/ISO/HEVC
  9. Duration                                 : 1 h 27 min
  10. Bit rate                                 : 69.1 Mb/s
  11. Width                                    : 3 840 pixels
  12. Height                                   : 2 160 pixels
  13. Display aspect ratio                     : 16:9
  14. Frame rate mode                          : Constant
  15. Frame rate                               : 23.976 (24000/1001/189150) FPS
  16. Color space                              : YUV
  17. Chroma subsampling                       : 4:2:0 (Type 2)
  18. Bit depth                                : 10 bits
  19. Bits/(Pixel*Frame)                       : 0.348
  20. Stream size                              : 42.2 GiB (94%)
  21. Title                                    : Gretel.and.Hansel.2020.2160p.BluRay.REMUX.HEVC.DTS-HD.MA.5.1-FGT
  22. Language                                 : English
  23. Default                                  : No
  24. Forced                                   : No
  25. Color range                              : Limited
  26. Color primaries                          : BT.2020
  27. Transfer characteristics                 : PQ
  28. Matrix coefficients                      : BT.2020 non-constant
  29. Mastering display color primaries        : Display P3
  30. Mastering display luminance              : min: 0.0050 cd/m2, max: 1000 cd/m2
  31. Maximum Content Light Level              : 1000 cd/m2
  32. Maximum Frame-Average Light Level        : 400 cd/m2
  33. Original source medium                   : Blu-ray
  34. Audio #1
  35. ID                                       : 2
  36. ID in the original source medium         : 4353 (0x1101)
  37. Format                                   : DTS XLL
  38. Format/Info                              : Digital Theater Systems
  39. Commercial name                          : DTS-HD Master Audio
  40. Codec ID                                 : A_DTS
  41. Duration                                 : 1 h 27 min
  42. Bit rate mode                            : Variable
  43. Bit rate                                 : 2 334 kb/s
  44. Channel(s)                               : 6 channels
  45. Channel layout                           : C L R Ls Rs LFE
  46. Sampling rate                            : 48.0 kHz
  47. Frame rate                               : 93.750 FPS (512 SPF)
  48. Bit depth                                : 16 bits
  49. Compression mode                         : Lossless
  50. Stream size                              : 1.43 GiB (3%)
  51. Title                                    : Gretel.and.Hansel.2020.2160p.BluRay.REMUX.HEVC.DTS-HD.MA.5.1-FGT
  52. Language                                 : English
  53. Default                                  : Yes
  54. Forced                                   : No
  55. Original source medium                   : Blu-ray
  56. Audio #2
  57. ID                                       : 3
  58. ID in the original source medium         : 4352 (0x1100)
  59. Format                                   : DTS XLL
  60. Format/Info                              : Digital Theater Systems
  61. Commercial name                          : DTS-HD Master Audio
  62. Codec ID                                 : A_DTS
  63. Duration                                 : 1 h 27 min
  64. Bit rate mode                            : Variable
  65. Bit rate                                 : 2 385 kb/s
  66. Channel(s)                               : 6 channels
  67. Channel layout                           : C L R Ls Rs LFE
  68. Sampling rate                            : 48.0 kHz
  69. Frame rate                               : 93.750 FPS (512 SPF)
  70. Bit depth                                : 16 bits
  71. Compression mode                         : Lossless
  72. Stream size                              : 1.46 GiB (3%)
  73. Title                                    : Gretel.and.Hansel.2020.2160p.BluRay.REMUX.HEVC.DTS-HD.MA.5.1-FGT
  74. Language                                 : German
  75. Default                                  : No
  76. Forced                                   : No
  77. Original source medium                   : Blu-ray
  78. Text #1
  79. ID                                       : 4
  80. Format                                   : UTF-8
  81. Codec ID                                 : S_TEXT/UTF8
  82. Codec ID/Info                            : UTF-8 Plain Text
  83. Duration                                 : 1 h 21 min
  84. Bit rate                                 : 40 b/s
  85. Count of elements                        : 815
  86. Stream size                              : 23.9 KiB (0%)
  87. Title                                    : English-SRT
  88. Language                                 : English
  89. Default                                  : Yes
  90. Forced                                   : No
  91. Text #2
  92. ID                                       : 5
  93. Format                                   : UTF-8
  94. Codec ID                                 : S_TEXT/UTF8
  95. Codec ID/Info                            : UTF-8 Plain Text
  96. Duration                                 : 1 h 21 min
  97. Bit rate                                 : 42 b/s
  98. Count of elements                        : 913
  99. Stream size                              : 25.7 KiB (0%)
  100. Title                                    : English-SDH-SRT
  101. Language                                 : English
  102. Default                                  : No
  103. Forced                                   : No
  104. Text #3
  105. ID                                       : 6
  106. ID in the original source medium         : 4768 (0x12A0)
  107. Format                                   : PGS
  108. Muxing mode                              : zlib
  109. Codec ID                                 : S_HDMV/PGS
  110. Codec ID/Info                            : Picture based subtitle format used on BDs/HD-DVDs
  111. Duration                                 : 1 h 21 min
  112. Bit rate                                 : 27.6 kb/s
  113. Count of elements                        : 1458
  114. Stream size                              : 16.1 MiB (0%)
  115. Title                                    : German-PGS
  116. Language                                 : German
  117. Default                                  : No
  118. Forced                                   : No
  119. Original source medium                   : Blu-ray
  120. Menu
  121. 00:00:00.000                             : en:Chapter 01
  122. 00:07:09.429                             : en:Chapter 02
  123. 00:14:15.604                             : en:Chapter 03
  124. 00:21:47.889                             : en:Chapter 04
  125. 00:28:14.401                             : en:Chapter 05
  126. 00:36:35.359                             : en:Chapter 06
  127. 00:44:51.772                             : en:Chapter 07
  128. 00:52:16.633                             : en:Chapter 08
  129. 01:02:25.783                             : en:Chapter 09
  130. 01:10:40.736                             : en:Chapter 10
  131. 01:15:31.777                             : en:Chapter 11
  132. 01:19:11.496                             : en:Chapter 12
  133. 01:27:18.524                             : en:Chapter 13
复制代码



                                       
                                       

                                       
                                       
                                       




回复

使用道具 举报

发表于 7 天前 | 显示全部楼层
楼主发贴辛苦了,谢谢楼主分享!我觉得蓝光电影网是注册对了!
回复 支持 反对

使用道具 举报

发表于 7 天前 | 显示全部楼层
楼主发贴辛苦了,谢谢楼主分享!我觉得蓝光电影网是注册对了!
回复 支持 反对

使用道具 举报

 成长值: 4285

发表于 7 天前 | 显示全部楼层
有谁看过?好看吗?
回复 支持 反对

使用道具 举报

发表于 6 天前 | 显示全部楼层

楼主太厉害了!楼主,电影应该很好看我觉得蓝光电影网真是个好地方!
回复 支持 反对

使用道具 举报

发表于 6 天前 | 显示全部楼层

这个帖子不回对不起自己!我想我是一天也不能离开蓝光电影网
回复 支持 反对

使用道具 举报

发表于 5 天前 | 显示全部楼层

这东西我收了!谢谢楼主!蓝光电影网真好!
回复 支持 反对

使用道具 举报

已抛锚 成长值: 290

发表于 1 小时前 | 显示全部楼层
楼主发贴辛苦了,谢谢楼主分享!我觉得蓝光电影网是注册对了!
回复 支持 反对

使用道具 举报

懒得打字嘛,点击右侧快捷回复 【右侧内容,后台自定义】
您需要登录后才可以回帖 登录 | 立即加入

本版积分规则

现在加入蓝光电影网,注册一个账号
上个主题 下个主题 快速回复 收藏帖子 返回列表 客服中心 搜索

手机版|小黑屋| 蓝光电影网 |网站地图 

Copyright © 2015-2019 Comsenz Inc.  Template by 蓝光电影论坛 All Rights Reserved.

Powered by 蓝光电影网 X3.4

特别声明:本站所有资源均由网上收集而来,版权归原影音公司所有,如果侵犯了你的权益,请通知我们,我们会及时删除侵权内容.

快速回复 返回顶部 返回列表