找回密码

蓝光电影网

查看: 195|回复: 3

[乔伊/Joey 第一季][全24集打包][MKV][1080P]

[复制链接]

 成长值: 28810

发表于 2020-11-17 10:52:35 | 显示全部楼层 |阅读模式
[乔伊/Joey 第一季][全24集打包][MKV][1080P]-1.jpg




译  名 乔伊 第一季 / 乔伊

片  名 Joey Season 1

年  代 2004

产  地 美国

类  别 喜剧 / 爱情

语  言 英语

上映日期 2004-09-09(美国)

IMDb评分 6.0/10 from 38854 users

IMDb链接 http://www.imdb.com/title/tt0375355

豆瓣评分 7.3/10 from 2494 users

豆瓣链接 https://movie.douban.com/subject/1394180/

集  数 24

片  长 27分钟

导  演 Patrick McKee

主  演 马特·理勃兰 Matt LeBlanc

      德瑞·德·玛泰 Drea de Matteo

      安德利娅·安德斯 Andrea Anders

      保罗·卡斯坦佐 Paulo Costanzo

      詹妮佛·库里奇 Jennifer Coolidge







简  介




  [Friends 老友记/六人行]后的Joey在LA的单飞篇,期待纽约老友们的来访。

    挥手作别相伴十载的"Friends",Joey也告别在纽约成家立业的老友们,来到阳光灿烂的洛杉矶继续追逐他的明星梦。LA住着他的姐姐Gina,一位火辣性感、容易兴奋的美发师,同时也是一位未婚母亲,她的天才儿子,20岁Michael,是一位研究火箭科学的研究生,由于无法继续忍受母亲Gina无微不至的照料,Michael搬来与舅舅Joey同住。但Gina仍对儿子放心不下,天天都要来照看宝贝儿子有没有被花花公子般的Joey所带坏。缺少书本知识的Joey与不擅长人际交往的Michael正好形成了互补,Michael也在Joey的指点下开始了自己的追女仔计划……




获奖情况




  第62届金球奖(2005)

  电视类 音乐/喜剧类剧集最佳男主角(提名) 马特·勒布朗





  1. Video
  2. ID : 1
  3. Format : AVC
  4. Format/Info : Advanced Video Codec
  5. Format profile : High@L4
  6. Format settings : CABAC / 4 Ref Frames
  7. Format settings, CABAC : Yes
  8. Format settings, ReFrames : 4 frames
  9. Codec ID : V_MPEG4/ISO/AVC
  10. Duration : 27 min 19 s
  11. Bit rate : 13.9 Mb/s
  12. Width : 1 920 pixels
  13. Height : 1 080 pixels
  14. Display aspect ratio : 16:9
  15. Frame rate mode : Constant
  16. Frame rate : 23.976 (24000/1001) FPS
  17. Color space : YUV
  18. Chroma subsampling : 4:2:0
  19. Bit depth : 8 bits
  20. Scan type : Progressive
  21. Bits/(Pixel*Frame) : 0.279
  22. Stream size : 2.65 GiB (98%)
  23. Default : Yes
  24. Forced : No
  25. Color range : Limited
  26. Color primaries : BT.709
  27. Transfer characteristics : BT.709
  28. Matrix coefficients : BT.709

  29. Audio
  30. ID : 2
  31. Format : E-AC-3
  32. Format/Info : Enhanced AC-3
  33. Commercial name : Dolby Digital Plus
  34. Codec ID : A_EAC3
  35. Duration : 27 min 19 s
  36. Bit rate mode : Constant
  37. Bit rate : 224 kb/s
  38. Channel(s) : 2 channels
  39. Channel layout : L R
  40. Sampling rate : 48.0 kHz
  41. Frame rate : 31.250 FPS (1536 SPF)
  42. Compression mode : Lossy
  43. Stream size : 43.8 MiB (2%)
  44. Title : English
  45. Language : English
  46. Service kind : Complete Main
  47. Default : Yes
  48. Forced : No

  49. Text #1
  50. ID : 3
  51. Format : UTF-8
  52. Codec ID : S_TEXT/UTF8
  53. Codec ID/Info : UTF-8 Plain Text
  54. Duration : 27 min 16 s
  55. Bit rate : 88 b/s
  56. Count of elements : 581
  57. Stream size : 17.7 KiB (0%)
  58. Title : English [SDH]
  59. Language : English
  60. Default : No
  61. Forced : No

  62. Text #2
  63. ID : 4
  64. Format : UTF-8
  65. Codec ID : S_TEXT/UTF8
  66. Codec ID/Info : UTF-8 Plain Text
  67. Duration : 26 min 31 s
  68. Bit rate : 200 b/s
  69. Count of elements : 486
  70. Stream size : 38.9 KiB (0%)
  71. Title : Hindi [Full]
  72. Language : Hindi
  73. Default : No
  74. Forced : No

  75. Text #3
  76. ID : 5
  77. Format : UTF-8
  78. Codec ID : S_TEXT/UTF8
  79. Codec ID/Info : UTF-8 Plain Text
  80. Duration : 26 min 31 s
  81. Bit rate : 205 b/s
  82. Count of elements : 487
  83. Stream size : 40.0 KiB (0%)
  84. Title : Bengali [Full]
  85. Language : Bengali
  86. Default : No
  87. Forced : No

  88. Text #4
  89. ID : 6
  90. Format : UTF-8
  91. Codec ID : S_TEXT/UTF8
  92. Codec ID/Info : UTF-8 Plain Text
  93. Duration : 26 min 31 s
  94. Bit rate : 201 b/s
  95. Count of elements : 486
  96. Stream size : 39.1 KiB (0%)
  97. Title : Tamil [Full]
  98. Language : Tamil
  99. Default : No
  100. Forced : No

  101. Text #5
  102. ID : 7
  103. Format : UTF-8
  104. Codec ID : S_TEXT/UTF8
  105. Codec ID/Info : UTF-8 Plain Text
  106. Duration : 26 min 31 s
  107. Bit rate : 204 b/s
  108. Count of elements : 485
  109. Stream size : 39.8 KiB (0%)
  110. Title : Telugu [Full]
  111. Language : Telugu
  112. Default : No
  113. Forced : No

  114. Text #6
  115. ID : 8
  116. Format : UTF-8
  117. Codec ID : S_TEXT/UTF8
  118. Codec ID/Info : UTF-8 Plain Text
  119. Duration : 26 min 31 s
  120. Bit rate : 183 b/s
  121. Count of elements : 486
  122. Stream size : 35.5 KiB (0%)
  123. Title : Marathi [Full]
  124. Language : Marathi
  125. Default : No
  126. Forced : No
复制代码




[乔伊/Joey 第一季][全24集打包][MKV][1080P]-2.jpg [乔伊/Joey 第一季][全24集打包][MKV][1080P]-3.jpg




回复

使用道具 举报

 成长值: 5875

发表于 2020-11-17 16:39:10 | 显示全部楼层
太好啦&萬分感謝版主的無私發佈分享%
回复 支持 反对

使用道具 举报

发表于 6 天前 | 显示全部楼层
楼主发贴辛苦了,谢谢楼主分享!我觉得蓝光电影网是注册对了!
回复 支持 反对

使用道具 举报

发表于 5 天前 | 显示全部楼层
楼主发贴辛苦了,谢谢楼主分享!我觉得蓝光电影网是注册对了!
回复 支持 反对

使用道具 举报

懒得打字嘛,点击右侧快捷回复 【右侧内容,后台自定义】
您需要登录后才可以回帖 登录 | 立即加入

本版积分规则

现在加入蓝光电影网,注册一个账号
上个主题 下个主题 快速回复 收藏帖子 返回列表 客服中心 搜索

手机版|小黑屋| 蓝光电影网 |网站地图 

Copyright © 2015-2019 Comsenz Inc.  Template by 蓝光电影论坛 All Rights Reserved.

Powered by 蓝光电影网 X3.4

特别声明:本站所有资源均由网上收集而来,版权归原影音公司所有,如果侵犯了你的权益,请通知我们,我们会及时删除侵权内容.

快速回复 返回顶部 返回列表