找回密码

蓝光电影网

查看: 4532|回复: 173

[科幻] 蚁人2:黄蜂女现身/蚁侠2:黄蜂女现身 Ant-Man.and.the.Wasp.2018.1080p.BluRay.x264-SPARKS 8.76GB

  [复制链接]
  • TA的每日心情
    开心
    6 小时前
  • 签到天数: 61 天

    [LV.6]常住居民II

     成长值: 18685

    发表于 2018-10-5 00:19:14 | 显示全部楼层 |阅读模式

    马上注册,获取最新影视资讯,享用更多功能,让你轻松玩转蓝光电影网。

    您需要 登录 才可以下载或查看,没有帐号?立即加入

    x

    蚁人2:黄蜂女现身/蚁侠2:黄蜂女现身 Ant-Man.and.the.Wasp.2018.1080p.BluRay.x264-SPARKS 8.76GB-1.jpg
    ◎译  名 蚁人2:黄蜂女现身/蚁侠2:黄蜂女现身(港)/蚁人2/蚁人与黄蜂女
    ◎片  名 Ant-Man and the Wasp
    ◎年  代 2018
    ◎产  地 美国
    ◎类  别 动作/科幻/冒险
    ◎语  言 英语
    ◎上映日期 2018-07-06(美国)/2018-08-24(中国大陆)
    ◎IMDb评分  7.3/10 from 103,340 users
    ◎IMDb链接  http://www.imdb.com/title/tt5095030/
    ◎豆瓣评分 7.5/10 from 156,851 users
    ◎豆瓣链接 https://movie.douban.com/subject/26636712/
    ◎片  长 118分钟/119分钟(中国大陆)
    ◎导  演 佩顿·里德 Peyton Reed
    ◎主  演 保罗·路德 Paul Rudd
          伊万杰琳·莉莉 Evangeline Lilly
          迈克尔·佩纳 Michael Pe?a
          汉娜·乔恩-卡门 Hannah John-Kamen
          沃尔顿·戈金斯 Walton Goggins
          鲍比·坎纳瓦尔 Bobby Cannavale
          朱迪·格雷尔 Judy Greer
          T.I.
          大卫·达斯马齐连 David Dastmalchian
          艾比·莱德·弗特森 Abby Ryder Fortson
          兰道尔·朴 Randall Park
          米歇尔·菲佛 Michelle Pfeiffer
          劳伦斯·菲什伯恩 Laurence Fishburne
          迈克尔·道格拉斯 Michael Douglas
          戈兰·卡斯蒂克 Goran Kostic
          罗布·阿切尔 Rob Archer
          肖恩·克莱尔 Sean Kleier
          本·戴维斯 Ben Davis
          迈克尔·瑟沃瑞斯 Michael Cerveris
          达克斯·格里芬 Dax Griffin
          海莉·洛维特 Hayley Lovitt
          玛德琳·麦格劳 Madeleine McGraw
          蒂姆·海德克 Tim Heidecker
          布莱恩·赫斯基 Brian Huskey
          朱莉娅·维拉 Julia Vera
          布莱恩·卢戈 Bryan Lugo
          托里·沃格尔 Torrey Vogel
          汤姆·夏普林 Tom Scharpling
          斯坦·李 Stan Lee
          约瑟夫·阿梅 Joseph Amey
          安迪·阿尼斯 Andy Arness
          威廉·W·巴伯 William W. Barbour
          玛塞拉·布拉吉奥 Marcella Bragio
          塞尔吉奥·布里奥内斯 Sergio Briones
          乔·布卡罗三世 Joe Bucaro III
          蒂莫西·卡尔 Timothy Carr
          贾迈尔·钱伯斯 Jamel Chambers
          扎卡里·卡伯森 Zachary Culbertson
          雅各布·埃文斯 Jacob Evans
          米歇尔·方 Michelle Fang
          盖尔·甘布尔 Gail Gamble
          克里斯·加恩 Chris Gann
          约翰·盖蒂尔 John Gettier
          杰克·汉森 Jake Hanson
          卡茜·亨德利 Cassie Hendry

    ◎简  介

      来自漫威电影宇宙的新片《蚁人2:黄蜂女现身》重点展现了两位超级英雄令人惊叹的收缩能力。继《美国队长3》的故事线之后,斯科特·朗迎来了自己作为超级英雄和孩子父亲的双重身份。一方面,他在背负着蚁人职责的同时努力过好自己的生活;另一方面,二代黄蜂女霍普·凡·戴恩和汉克·皮姆博士又向他传达了一项紧迫的新任务。斯科特必须再次穿上战衣,与黄蜂女并肩作战,共同破解来自过去的谜题。

    ◎获奖情况

      第4届豆瓣电影年度榜单  (2017)
      最值得期待的外语电影(提名)
    • Video
    • ID                                       : 1
    • Format                                   : AVC
    • Format/Info                              : Advanced Video Codec
    • Format profile                           : [email protected]
    • Format settings                          : CABAC / 5 Ref Frames
    • Format settings, CABAC                   : Yes
    • Format settings, RefFrames               : 5 frames
    • Codec ID                                 : V_MPEG4/ISO/AVC
    • Duration                                 : 1 h 58 min
    • Bit rate                                 : 9 091 kb/s
    • Width                                    : 1 920 pixels
    • Height                                   : 808 pixels
    • Display aspect ratio                     : 2.40:1
    • Frame rate mode                          : Constant
    • Frame rate                               : 23.976 FPS
    • Color space                              : YUV
    • Chroma subsampling                       : 4:2:0
    • Bit depth                                : 8 bits
    • Scan type                                : Progressive
    • Bits/(Pixel*Frame)                       : 0.244
    • Stream size                              : 7.50 GiB (86%)
    • Writing library                          : x264 core 157 r2932 303c484
    • Encoding settings                        : cabac=1 / ref=5 / deblock=1:0:0 / analyse=0x3:0x133 / me=umh / subme=7 / psy=1 / psy_rd=1.00:0.00 / mixed_ref=1 / me_range=16 / chroma_me=1 / trellis=1 / 8x8dct=1 / cqm=0 / deadzone=21,11 / fast_pskip=0 / chroma_qp_offset=-2 / threads=25 / lookahead_threads=4 / sliced_threads=0 / nr=0 / decimate=1 / interlaced=0 / bluray_compat=0 / constrained_intra=0 / bframes=3 / b_pyramid=2 / b_adapt=1 / b_bias=0 / direct=1 / weightb=1 / open_gop=0 / weightp=2 / keyint=250 / keyint_min=23 / scenecut=40 / intra_refresh=0 / rc_lookahead=40 / rc=2pass / mbtree=1 / bitrate=9091 / ratetol=1.0 / qcomp=0.60 / qpmin=0 / qpmax=69 / qpstep=4 / cplxblur=20.0 / qblur=0.5 / ip_ratio=1.40 / aq=1:1.00
    • Language                                 : English
    • Default                                  : Yes
    • Forced                                   : No
    • Audio
    • ID                                       : 2
    • Format                                   : DTS
    • Format/Info                              : Digital Theater Systems
    • Mode                                     : 16
    • Format settings, Endianness              : Big
    • Codec ID                                 : A_DTS
    • Duration                                 : 1 h 58 min
    • Bit rate mode                            : Constant
    • Bit rate                                 : 1 509 kb/s
    • Channel(s)                               : 6 channels
    • Channel positions                        : Front: L C R, Side: L R, LFE
    • Sampling rate                            : 48.0 kHz
    • Frame rate                               : 93.750 FPS (512 SPF)
    • Bit depth                                : 24 bits
    • Compression mode                         : Lossy
    • Stream size                              : 1.24 GiB (14%)
    • Language                                 : English
    • Default                                  : Yes
    • Forced                                   : No
    • Menu
    • 00:00:00.000                             : en:00:00:00.000
    • 00:04:03.034                             : en:00:04:03.034
    • 00:10:16.407                             : en:00:10:16.407
    • 00:13:39.861                             : en:00:13:39.861
    • 00:21:25.451                             : en:00:21:25.451
    • 00:29:07.829                             : en:00:29:07.829
    • 00:36:09.084                             : en:00:36:09.084
    • 00:40:56.579                             : en:00:40:56.579
    • 00:50:17.431                             : en:00:50:17.431
    • 00:58:59.077                             : en:00:58:59.077
    • 01:04:56.434                             : en:01:04:56.434
    • 01:12:54.287                             : en:01:12:54.287
    • 01:18:32.124                             : en:01:18:32.124
    • 01:24:44.913                             : en:01:24:44.913
    • 01:29:47.340                             : en:01:29:47.340
    • 01:36:16.270                             : en:01:36:16.270
    • 01:43:35.334                             : en:01:43:35.334
    • 01:46:59.830                             : en:01:46:59.830

    复制代码

    蚁人2:黄蜂女现身/蚁侠2:黄蜂女现身 Ant-Man.and.the.Wasp.2018.1080p.BluRay.x264-SPARKS 8.76GB-2.jpg





    Ant-Man.and.the.Wasp.2018.1080p.BluRay.x264-SPARKS.torrent (88.43 KB, 下载次数: 401)
    开通VIP免费下载本站所有资源---点这里
    新手必看:资源下载、资源播放、字幕使用、等常见问题---点这里
    回复

    使用道具 举报

  • TA的每日心情
    慵懒
    前天 09:18
  • 签到天数: 43 天

    [LV.5]常住居民I

    发表于 2018-10-5 00:25:13 | 显示全部楼层
    有点意思,感谢分享!!!!!!!!
    [发帖际遇]: Maybach7596 乐于助人,奖励 3 蓝光币. 幸运榜 / 衰神榜
    开通VIP免费下载本站所有资源---点这里
    新手必看:资源下载、资源播放、字幕使用、等常见问题---点这里
    回复 支持 反对

    使用道具 举报

    该用户从未签到

    发表于 2018-10-5 00:39:29 | 显示全部楼层
    感谢分享!!!!!!!!
    [发帖际遇]: czjys 发帖时在路边捡到 3 蓝光币,偷偷放进了口袋. 幸运榜 / 衰神榜
    开通VIP免费下载本站所有资源---点这里
    新手必看:资源下载、资源播放、字幕使用、等常见问题---点这里
    回复

    使用道具 举报

  • TA的每日心情
    奋斗
    前天 11:46
  • 签到天数: 61 天

    [LV.6]常住居民II

    发表于 2018-10-5 07:04:46 | 显示全部楼层
    来自漫威电影宇宙的新片《蚁人2:黄蜂女现身》重点展现了两位超级英雄令人惊叹的收缩能力。
    [发帖际遇]: 一个袋子砸在了 913102502 头上,913102502 赚了 2 蓝光币. 幸运榜 / 衰神榜
    开通VIP免费下载本站所有资源---点这里
    新手必看:资源下载、资源播放、字幕使用、等常见问题---点这里
    回复 支持 反对

    使用道具 举报

  • TA的每日心情
    奋斗
    7 天前
  • 签到天数: 3 天

    [LV.2]偶尔看看I

    发表于 2018-10-5 07:37:29 | 显示全部楼层
    这个666啊,定要收来看看
    开通VIP免费下载本站所有资源---点这里
    新手必看:资源下载、资源播放、字幕使用、等常见问题---点这里
    回复 支持 反对

    使用道具 举报

  • TA的每日心情
    无聊
    前天 07:15
  • 签到天数: 59 天

    [LV.5]常住居民I

    发表于 2018-10-5 08:08:24 | 显示全部楼层
    好好好好好好好好好好好好好好好好好好好
    [发帖际遇]: 一个袋子砸在了 qq_古雅情韵_z8Y 头上,qq_古雅情韵_z8Y 赚了 3 蓝光币. 幸运榜 / 衰神榜
    开通VIP免费下载本站所有资源---点这里
    新手必看:资源下载、资源播放、字幕使用、等常见问题---点这里
    回复 支持 反对

    使用道具 举报

    该用户从未签到

    发表于 2018-10-5 09:07:27 | 显示全部楼层
    而且我若无若群翁人情味热翁热无若翁热无热无若无
    开通VIP免费下载本站所有资源---点这里
    新手必看:资源下载、资源播放、字幕使用、等常见问题---点这里
    回复 支持 反对

    使用道具 举报

  • TA的每日心情
    开心
    昨天 20:21
  • 签到天数: 37 天

    [LV.5]常住居民I

    发表于 2018-10-5 09:26:40 | 显示全部楼层
    好片大家一起分享
    开通VIP免费下载本站所有资源---点这里
    新手必看:资源下载、资源播放、字幕使用、等常见问题---点这里
    回复 支持 反对

    使用道具 举报

    该用户从未签到

    发表于 2018-10-5 09:31:33 | 显示全部楼层
    看了1再看2
    开通VIP免费下载本站所有资源---点这里
    新手必看:资源下载、资源播放、字幕使用、等常见问题---点这里
    回复 支持 反对

    使用道具 举报

    该用户从未签到

    发表于 2018-10-5 10:03:43 | 显示全部楼层
    谢谢楼主好片分享!
    开通VIP免费下载本站所有资源---点这里
    新手必看:资源下载、资源播放、字幕使用、等常见问题---点这里
    回复 支持 反对

    使用道具 举报

    懒得打字嘛,点击右侧快捷回复 【右侧内容,后台自定义】
    您需要登录后才可以回帖 登录 | 立即加入

    本版积分规则

    现在加入蓝光电影网,注册一个账号

    QQ| 手机版|小黑屋| 蓝光电影网 |网站地图

    Copyright © 20013-2018 Comsenz Inc.  Template by 蓝光电影论坛 All Rights Reserved.

    Powered by 高清电影网 X3.4
    特别声明:本站所有资源均由网上收集而来,版权归原影音公司所有,如果侵犯了你的权益,请通知我们,我们会及时删除侵权内容.

    快速回复 返回顶部 返回列表