找回密码

蓝光电影网

查看: 650|回复: 6

[2160p] 魔女游戏/入魔 The.Craft.Legacy.2020.2160p.WEB.H265-NAISU 10.20GB

[复制链接]

 成长值: 17010

发表于 2020-10-30 14:33:23 | 显示全部楼层 |阅读模式


◎译  名 魔女游戏/入魔(台)/我们的女巫手册(港)/新魔女游戏/魔女游戏:遗产
◎片  名 The Craft: Legacy
◎年  代 2020
◎产  地 美国
◎类  别 剧情 / 恐怖 / 奇幻
◎语  言 英语
◎上映日期 2020-10-28(美国)
◎IMDb评分  3.8/10 from 255 users
◎IMDb链接  https://www.imdb.com/title/tt4685762/
◎豆瓣评分 /10 from 0 users
◎豆瓣链接 https://movie.douban.com/subject/33384226/
◎导  演 佐伊·利斯特·琼斯 Zoe Lister Jones
◎编  剧 佐伊·利斯特·琼斯 Zoe Lister Jones / 丽恩·贾尼埃克 Leigh Janiak
◎主  演 卡莉·史派妮 Cailee Spaeny
       大卫·杜楚尼 David Duchovny
       米歇尔·莫纳汉 Michelle Monaghan
       吉第安·艾朵 Gideon Adlon
       尼古拉斯·加利齐纳 Nicholas Galitzine
       拉维·西蒙尼 Lovie Simone
       查尔斯·万德瓦尔特 Charles Vandervaart
       小唐纳德·麦克莱恩 Donald MacLean Jr.
       汉娜·戈登 Hannah Gordon
       朱利安·格雷 Julian Grey
       詹姆斯·马奇 James Madge
◎标  签 恐怖 | 奇幻 | 剧情 | 美国电影 | 美国 | 改编 | 翻拍 | 待看
◎简  介


  Blumhouse公司翻拍的经典恐怖片《魔女游戏》确定了导演人选,女导演佐伊·利斯特·琼斯(《创可贴》)将为新片撰写剧本并执导,值得一提的是Blumhouse CEO之前还因对女性导演的言论受到了非议。原版导演中,四个在学校中被孤立的女孩走到了一起,她们希望召唤出鬼神来让自己糟糕的生活得到改变,但怎么会有免费的午餐呢?
  1. Video
  2. ID                                       : 1
  3. Format                                   : HEVC
  4. Format/Info                              : High Efficiency Video Coding
  5. Format profile                           : [email protected]@Main
  6. Codec ID                                 : V_MPEGH/ISO/HEVC
  7. Duration                                 : 1 h 34 min
  8. Bit rate                                 : 14.7 Mb/s
  9. Width                                    : 3 840 pixels
  10. Height                                   : 2 160 pixels
  11. Display aspect ratio                     : 16:9
  12. Frame rate mode                          : Constant
  13. Frame rate                               : 23.976 (24000/1001/189150) FPS
  14. Color space                              : YUV
  15. Chroma subsampling                       : 4:2:0
  16. Bit depth                                : 8 bits
  17. Bits/(Pixel*Frame)                       : 0.074
  18. Stream size                              : 9.71 GiB (96%)
  19. Default                                  : Yes
  20. Forced                                   : No
  21. Color range                              : Limited
  22. Color primaries                          : BT.709
  23. Transfer characteristics                 : BT.709
  24. Matrix coefficients                      : BT.709
  25. Audio
  26. ID                                       : 2
  27. Format                                   : E-AC-3
  28. Format/Info                              : Enhanced AC-3
  29. Commercial name                          : Dolby Digital Plus
  30. Codec ID                                 : A_EAC3
  31. Duration                                 : 1 h 34 min
  32. Bit rate mode                            : Constant
  33. Bit rate                                 : 256 kb/s
  34. Channel(s)                               : 6 channels
  35. Channel layout                           : L R C LFE Ls Rs
  36. Sampling rate                            : 48.0 kHz
  37. Frame rate                               : 31.250 FPS (1536 SPF)
  38. Compression mode                         : Lossy
  39. Stream size                              : 173 MiB (2%)
  40. Language                                 : English
  41. Service kind                             : Complete Main
  42. Default                                  : Yes
  43. Forced                                   : No
  44. Text
  45. ID                                       : 3
  46. Format                                   : UTF-8
  47. Codec ID                                 : S_TEXT/UTF8
  48. Codec ID/Info                            : UTF-8 Plain Text
  49. Language                                 : English
  50. Default                                  : No
  51. Forced                                   : No
复制代码






                                       
                                       

                                       
                                       
                                       




回复

使用道具 举报

 成长值: 5995

发表于 2020-10-30 15:25:07 | 显示全部楼层
太好啦&萬分感謝版主的無私發佈分享%
回复 支持 反对

使用道具 举报

发表于 2020-10-30 18:33:33 | 显示全部楼层
楼主发贴辛苦了,谢谢楼主分享!我觉得蓝光电影网是注册对了!
回复 支持 反对

使用道具 举报

发表于 2020-10-30 19:21:42 | 显示全部楼层
楼主发贴辛苦了,谢谢楼主分享!我觉得蓝光电影网是注册对了!
回复 支持 反对

使用道具 举报

发表于 2020-10-30 22:51:43 | 显示全部楼层

感谢楼主的无私分享!要想蓝光电影网好 就靠你我他
回复 支持 反对

使用道具 举报

发表于 2020-10-31 20:01:39 | 显示全部楼层
楼主发贴辛苦了,谢谢楼主分享!我觉得蓝光电影网是注册对了!
回复 支持 反对

使用道具 举报

发表于 2020-11-1 17:17:17 | 显示全部楼层
楼主发贴辛苦了,谢谢楼主分享!我觉得蓝光电影网是注册对了!
回复 支持 反对

使用道具 举报

懒得打字嘛,点击右侧快捷回复 【右侧内容,后台自定义】
您需要登录后才可以回帖 登录 | 立即加入

本版积分规则

现在加入蓝光电影网,注册一个账号
上个主题 下个主题 快速回复 收藏帖子 返回列表 客服中心 搜索

手机版|小黑屋| 蓝光电影网 |网站地图 

Copyright © 2015-2019 Comsenz Inc.  Template by 蓝光电影论坛 All Rights Reserved.

Powered by 蓝光电影网 X3.4

特别声明:本站所有资源均由网上收集而来,版权归原影音公司所有,如果侵犯了你的权益,请通知我们,我们会及时删除侵权内容.

快速回复 返回顶部 返回列表