找回密码

蓝光电影网

查看: 649|回复: 18

[REMUX.HEVC] 匹诺曹/木偶奇遇记 Pinocchio.2019.ITALIAN.2160p.BluRay.REMUX.HEVC.DTS-HD.MA.5.1-FGT 52.38GB

[复制链接]

 成长值: 16485

发表于 2020-10-17 23:51:04 | 显示全部楼层 |阅读模式


◎译  名 匹诺曹/木偶奇遇记/皮诺丘的奇幻旅程(台)
◎片  名 Pinocchio
◎年  代 2019
◎产  地 意大利,法国,英国
◎类  别 奇幻
◎语  言 意大利语
◎上映日期 2019-12-19(意大利)
◎IMDb评分  6.3/10 from 4744 users
◎IMDb链接  https://www.imdb.com/title/tt8333746/
◎豆瓣评分 6.7/10 from 5212 users
◎豆瓣链接 https://movie.douban.com/subject/26886204/
◎片  长 124分钟
◎导  演 马提欧·加洛尼 Matteo Garrone
◎编  剧 卡洛·科洛迪 Carlo Collodi / 马提欧·加洛尼 Matteo Garrone / 马西莫·切可里尼 Massimo Ceccherini
◎主  演 费德里科·伊帕迪 Federico Ielapi
       罗伯托·贝尼尼 Roberto Benigni
       罗科·帕帕莱奥 Rocco Papaleo
       马西莫·切可里尼 Massimo Ceccherini
       玛丽恩·瓦科特 Marine Vacth
       吉吉·普罗耶蒂 Gigi Proietti
       阿利达·巴尔达里·卡拉布里亚 Alida Baldari Calabria
       Alessio Di Domenicantonio
       达维德·马洛塔 Davide Marotta
       保罗·格拉齐西 Paolo Graziosi
       马西米利亚诺·加洛 Massimiliano Gallo
       詹弗兰科·加洛 Gianfranco Gallo
       特科·切里奥 Teco Celio
       尼诺?斯卡迪纳 Nino Scardina
       毛里齐奥·隆巴迪 Maurizio Lombardi
       纪尧姆·德洛内 Guillaume Delaunay
       吉格欧·莫拉 Gigio Morra
       Ciro Petrone
       Barbara Enrichi
       马尔切洛·丰特 Marcello Fonte
       马蒂尔达·德·安杰利斯 Matilda De Angelis
◎标  签 童话 | 奇幻 | 意大利 | 温情 | 意大利电影 | 改编 | 2019 | 马提欧.加洛尼
◎简  介


  意大利真人版《匹诺曹》,故事围绕一个老木匠与他雕刻的小木偶匹诺曹展开。
◎获奖情况
  第65届意大利大卫奖 ?(2020)
  最佳影片(提名)
  最佳导演(提名) 马提欧·加洛尼
  最佳改编剧本(提名) 马提欧·加洛尼?/?马西莫·切可里尼
  最佳女配角(提名) 阿利达·巴尔达里·卡拉布里亚
  最佳男配角(提名) 罗伯托·贝尼尼
  最佳摄影(提名)
  最佳音乐(提名)
  最佳美术设计
  最佳服装设计
  最佳化妆
  最佳剪辑(提名)
  最佳音效(提名)
  最佳视觉效果
  1. Video
  2. ID                                       : 1
  3. ID in the original source medium         : 4113 (0x1011)
  4. Format                                   : HEVC
  5. Format/Info                              : High Efficiency Video Coding
  6. Format profile                           : Main [email protected]@High
  7. HDR format                               : SMPTE ST 2094 App 4, Version 1, HDR10+ Profile B compatible
  8. Codec ID                                 : V_MPEGH/ISO/HEVC
  9. Duration                                 : 2 h 5 min
  10. Bit rate                                 : 55.2 Mb/s
  11. Width                                    : 3 840 pixels
  12. Height                                   : 2 160 pixels
  13. Display aspect ratio                     : 16:9
  14. Frame rate mode                          : Constant
  15. Frame rate                               : 24.000 FPS
  16. Color space                              : YUV
  17. Chroma subsampling                       : 4:2:0 (Type 2)
  18. Bit depth                                : 10 bits
  19. Bits/(Pixel*Frame)                       : 0.277
  20. Stream size                              : 48.3 GiB (92%)
  21. Title                                    : Pinocchio.2019.ITALIAN.2160p.BluRay.REMUX.HEVC.DTS-HD.MA.5.1-FGT
  22. Language                                 : English
  23. Default                                  : No
  24. Forced                                   : No
  25. Color range                              : Limited
  26. Color primaries                          : BT.2020
  27. Transfer characteristics                 : PQ
  28. Matrix coefficients                      : BT.2020 non-constant
  29. Mastering display color primaries        : Display P3
  30. Mastering display luminance              : min: 0.0050 cd/m2, max: 1000 cd/m2
  31. Maximum Content Light Level              : 1000 cd/m2
  32. Maximum Frame-Average Light Level        : 400 cd/m2
  33. Original source medium                   : Blu-ray
  34. Audio #1
  35. ID                                       : 2
  36. ID in the original source medium         : 4353 (0x1101)
  37. Format                                   : DTS XLL
  38. Format/Info                              : Digital Theater Systems
  39. Commercial name                          : DTS-HD Master Audio
  40. Codec ID                                 : A_DTS
  41. Duration                                 : 2 h 5 min
  42. Bit rate mode                            : Variable
  43. Bit rate                                 : 2 330 kb/s
  44. Channel(s)                               : 6 channels
  45. Channel layout                           : C L R Ls Rs LFE
  46. Sampling rate                            : 48.0 kHz
  47. Frame rate                               : 93.750 FPS (512 SPF)
  48. Bit depth                                : 16 bits
  49. Compression mode                         : Lossless
  50. Stream size                              : 2.04 GiB (4%)
  51. Title                                    : Pinocchio.2019.ITALIAN.2160p.BluRay.REMUX.HEVC.DTS-HD.MA.5.1-FGT
  52. Language                                 : Italian
  53. Default                                  : Yes
  54. Forced                                   : No
  55. Original source medium                   : Blu-ray
  56. Audio #2
  57. ID                                       : 3
  58. ID in the original source medium         : 4352 (0x1100)
  59. Format                                   : DTS XLL
  60. Format/Info                              : Digital Theater Systems
  61. Commercial name                          : DTS-HD Master Audio
  62. Codec ID                                 : A_DTS
  63. Duration                                 : 2 h 5 min
  64. Bit rate mode                            : Variable
  65. Bit rate                                 : 2 330 kb/s
  66. Channel(s)                               : 6 channels
  67. Channel layout                           : C L R Ls Rs LFE
  68. Sampling rate                            : 48.0 kHz
  69. Frame rate                               : 93.750 FPS (512 SPF)
  70. Bit depth                                : 16 bits
  71. Compression mode                         : Lossless
  72. Stream size                              : 2.04 GiB (4%)
  73. Title                                    : Pinocchio.2019.ITALIAN.2160p.BluRay.REMUX.HEVC.DTS-HD.MA.5.1-FGT
  74. Language                                 : German
  75. Default                                  : No
  76. Forced                                   : No
  77. Original source medium                   : Blu-ray
  78. Text #1
  79. ID                                       : 4
  80. Format                                   : UTF-8
  81. Codec ID                                 : S_TEXT/UTF8
  82. Codec ID/Info                            : UTF-8 Plain Text
  83. Duration                                 : 1 h 54 min
  84. Bit rate                                 : 49 b/s
  85. Count of elements                        : 1298
  86. Stream size                              : 41.7 KiB (0%)
  87. Title                                    : English-SRT
  88. Language                                 : English
  89. Default                                  : Yes
  90. Forced                                   : No
  91. Text #2
  92. ID                                       : 5
  93. ID in the original source medium         : 4768 (0x12A0)
  94. Format                                   : PGS
  95. Muxing mode                              : zlib
  96. Codec ID                                 : S_HDMV/PGS
  97. Codec ID/Info                            : Picture based subtitle format used on BDs/HD-DVDs
  98. Duration                                 : 1 h 52 min
  99. Bit rate                                 : 34.4 kb/s
  100. Count of elements                        : 3402
  101. Stream size                              : 27.8 MiB (0%)
  102. Title                                    : German-PGS
  103. Language                                 : German
  104. Default                                  : No
  105. Forced                                   : No
  106. Original source medium                   : Blu-ray
  107. Text #3
  108. ID                                       : 6
  109. ID in the original source medium         : 4769 (0x12A1)
  110. Format                                   : PGS
  111. Muxing mode                              : zlib
  112. Codec ID                                 : S_HDMV/PGS
  113. Codec ID/Info                            : Picture based subtitle format used on BDs/HD-DVDs
  114. Duration                                 : 1 h 0 min
  115. Bit rate                                 : 76 b/s
  116. Count of elements                        : 6
  117. Stream size                              : 33.6 KiB (0%)
  118. Title                                    : German-FORCED_PGS
  119. Language                                 : German
  120. Default                                  : No
  121. Forced                                   : No
  122. Original source medium                   : Blu-ray
  123. Menu
  124. 00:00:00.000                             : en:Chapter 01
  125. 00:11:25.916                             : en:Chapter 02
  126. 00:20:42.916                             : en:Chapter 03
  127. 00:31:30.083                             : en:Chapter 04
  128. 00:40:53.250                             : en:Chapter 05
  129. 00:50:47.791                             : en:Chapter 06
  130. 00:59:33.833                             : en:Chapter 07
  131. 01:10:38.208                             : en:Chapter 08
  132. 01:19:59.875                             : en:Chapter 09
  133. 01:29:35.250                             : en:Chapter 10
  134. 01:40:35.583                             : en:Chapter 11
  135. 01:52:54.583                             : en:Chapter 12
复制代码



                                       
                                       

                                       
                                       
                                       




回复

使用道具 举报

发表于 2020-10-18 02:50:24 | 显示全部楼层
楼主辛苦了  谢谢楼主
回复 支持 反对

使用道具 举报

发表于 2020-10-18 04:24:20 | 显示全部楼层

这个帖子不回对不起自己!我想我是一天也不能离开蓝光电影网
回复 支持 反对

使用道具 举报

发表于 2020-10-18 09:00:36 | 显示全部楼层

楼主太厉害了!楼主,电影应该很好看我觉得蓝光电影网真是个好地方!
回复 支持 反对

使用道具 举报

发表于 2020-10-18 09:16:23 | 显示全部楼层
楼主发贴辛苦了,谢谢楼主分享!我觉得蓝光电影网是注册对了!
回复 支持 反对

使用道具 举报

发表于 2020-10-18 09:47:52 | 显示全部楼层

这东西我收了!谢谢楼主!蓝光电影网真好!
回复 支持 反对

使用道具 举报

发表于 2020-10-18 09:48:53 | 显示全部楼层
楼主发贴辛苦了,谢谢楼主分享!我觉得蓝光电影网是注册对了!
回复 支持 反对

使用道具 举报

发表于 2020-10-18 10:48:33 | 显示全部楼层
感谢分享!
回复

使用道具 举报

发表于 2020-10-18 11:20:25 | 显示全部楼层
谢谢楼主分享
回复 支持 反对

使用道具 举报

发表于 2020-10-18 11:25:53 | 显示全部楼层
谢谢楼主分享
回复 支持 反对

使用道具 举报

懒得打字嘛,点击右侧快捷回复 【右侧内容,后台自定义】
您需要登录后才可以回帖 登录 | 立即加入

本版积分规则

现在加入蓝光电影网,注册一个账号
上个主题 下个主题 快速回复 收藏帖子 返回列表 客服中心 搜索

手机版|小黑屋| 蓝光电影网 |网站地图 

Copyright © 2015-2019 Comsenz Inc.  Template by 蓝光电影论坛 All Rights Reserved.

Powered by 蓝光电影网 X3.4

特别声明:本站所有资源均由网上收集而来,版权归原影音公司所有,如果侵犯了你的权益,请通知我们,我们会及时删除侵权内容.

快速回复 返回顶部 返回列表