找回密码

蓝光电影网

查看: 224|回复: 0

[10bit.SDR] 海扁王 Kick-Ass.2010.2160p.BluRay.x265.10bit.SDR.DTS-HD.MA.TrueHD.7.1.Atmos-SWTYBLZ 49.53GB

[复制链接]

 成长值: 28450

发表于 2020-10-15 13:16:06 | 显示全部楼层 |阅读模式

海扁王 Kick-Ass.2010.2160p.BluRay.x265.10bit.SDR.DTS-HD.MA.TrueHD.7.1.Atmos-SWTYBLZ 49.53GB-1.jpg

译  名 海扁王/劲揪侠(港)/特攻联盟(台)/超屌侠

片  名 Kick-Ass

年  代 2010

产  地 美国/英国

类  别 动作/犯罪/惊悚

语  言 英语

上映日期 2010-04-16

IMDb评分  7.7/10 from 467,143 users

IMDb链接  http://www.imdb.com/title/tt1250777/

豆瓣评分 7.5/10 from 161,769 users

豆瓣链接 https://movie.douban.com/subject/3148748/

片  长 117 分钟

导  演 马修·沃恩 Matthew Vaughn

主  演 亚伦·约翰逊 Aaron Johnson

      科洛·莫瑞兹 Chloe Moretz

      尼古拉斯·凯奇 Nicolas Cage

      克里斯托夫·梅兹-普莱瑟 Christopher Mintz-Plasse

      马克·斯创 Mark Strong

      琳德西·冯塞卡 Lyndsy Fonseca

      伊万·彼得斯 Evan Peters

      克拉克 杜克 Clark Duke

      黛博拉·特维斯 Deborah Twiss

      Garrett M. Brown

      苏菲·吴 Sophie Wu




简  介




  戴夫·莱泽斯基(亚伦·约翰逊 Aaron Johnson 饰)和所有普通的男孩一样,梦想有一天可以成为超级英雄,只不过他把自己的这一梦想带入了现实。在网上购买到一套廉价的绿色连体衣之后,戴夫便开始了只身打击犯罪的行动。虽然第一次行动便让戴夫身负重伤,不过戴夫可不是一个轻言放弃的人,伤愈之后的戴夫在一次阻止斗殴时,被热心的群众发现并拍摄,之后关于超级英雄“海扁王”的事迹便传遍整个城市。成为传说中超级英雄的戴夫在一次行动中结识超级英雄父女“大老爸”(尼古拉斯·凯奇 Nicolas Cage饰)和“超杀女”(科洛·莫瑞兹 Chloe Moretz 饰),之后戴夫遭毒枭集团老大弗兰克·阿米克(马克·斯特朗 Mark Strong 饰)之子伪装成的英雄“红旋风”(克里斯托夫·梅兹-普莱瑟 Christopher Mintz-Plasse 饰)的利用,让“大老爸”和自己身陷囹圄。危难之时,“超杀女”及时出现救出戴夫,但“大老爸” 却不幸身亡。“超杀女”决定完成其父遗志,彻底消灭毒枭集团……

  本片根据马克·米勒(Mark Millar)著名同名漫画改编。




获奖情况




  第23届欧洲电影奖  (2010)

  观众选择奖(提名)




  第20届MTV电影奖  (2011)

  MTV电影奖 突破表演奖 科洛·莫瑞兹

  MTV电影奖 最佳打斗(提名) 科洛·莫瑞兹 / 马克·斯特朗




  第10届凤凰城影评人协会奖  (2010)

  最佳女配角(提名) 科洛·莫瑞兹

  最佳特技表演(提名)

  最具突破表演 科洛·莫瑞兹




  第12届美国青少年选择奖  (2010)

  最佳动作冒险电影(提名)

  最佳动作冒险电影男演员(提名) 尼古拉斯·凯奇

  最佳电影反派(提名) 克里斯托夫·梅兹-普莱瑟

  Choice Movie Breakout: Male(提名) 亚伦·泰勒-约翰逊

  Choice Movie Breakout: Female(提名) 科洛·莫瑞兹






  1. Video
  2. ID                                       : 1
  3. Format                                   : HEVC
  4. Format/Info                              : High Efficiency Video Coding
  5. Format profile                           : Main High@L4@High
  6. Codec ID                                 : V_MPEGH/ISO/HEVC
  7. Duration                                 : 1 h 57 min
  8. Bit rate                                 : 50.3 Mb/s
  9. Width                                    : 3 840 pixels
  10. Height                                   : 1 600 pixels
  11. Display aspect ratio                     : 2.40:1
  12. Frame rate mode                          : Constant
  13. Frame rate                               : 23.976 (24000/1001) FPS
  14. Color space                              : YUV
  15. Chroma subsampling                       : 4:2:0
  16. Bit depth                                : 10 bits
  17. Bits/(Pixel*Frame)                       : 0.341
  18. Stream size                              : 41.4 GiB (84%)
  19. Title                                    : Kick-Ass.2010.2160p.BluRay.x265.10bit.SDR.DTS-HD.MA.TrueHD.7.1.Atmos-SWTYBLZ
  20. Writing library                          : x265 2.5b4a5bcfe29c7:[Windows][GCC 4.9.3][64 bit] 10bit
  21. Encoding settings                        : cpuid=1173503 / frame-threads=16 / numa-pools=24,24,24,24 / wpp / no-pmode / no-pme / no-psnr / no-ssim / log-level=2 / input-csp=1 / input-res=3840x1600 / interlace=0 / total-frames=0 / level-idc=51 / high-tier=1 / uhd-bd=0 / ref=3 / no-allow-non-conformance / repeat-headers / annexb / aud / hrd / info / hash=0 / no-temporal-layers / no-open-gop / min-keyint=1 / keyint=24 / bframes=4 / b-adapt=2 / b-pyramid / bframe-bias=0 / rc-lookahead=25 / lookahead-slices=4 / scenecut=40 / no-intra-refresh / ctu=64 / min-cu-size=8 / no-rect / no-amp / max-tu-size=32 / tu-inter-depth=1 / tu-intra-depth=1 / limit-tu=0 / rdoq-level=0 / dynamic-rd=0.00 / no-ssim-rd / signhide / no-tskip / nr-intra=0 / nr-inter=0 / no-constrained-intra / strong-intra-smoothing / max-merge=2 / limit-refs=3 / no-limit-modes / me=1 / subme=2 / merange=57 / temporal-mvp / weightp / no-weightb / no-analyze-src-pics / deblock=0:0 / no-sao / no-sao-non-deblock / rd=3 / no-early-skip / rskip / no-fast-intra / no-tskip-fast / no-cu-lossless / no-b-intra / rdpenalty=0 / psy-rd=2.00 / psy-rdoq=0.00 / no-rd-refine / analysis-reuse-mode=0 / no-lossless / cbqpoffs=0 / crqpoffs=0 / rc=crf / crf=16.0 / qcomp=0.60 / qpstep=4 / stats-write=0 / stats-read=0 / vbv-maxrate=160000 / vbv-bufsize=160000 / vbv-init=0.9 / crf-max=0.0 / crf-min=0.0 / ipratio=1.40 / pbratio=1.30 / aq-mode=1 / aq-strength=1.00 / cutree / zone-count=0 / no-strict-cbr / qg-size=32 / no-rc-grain / qpmax=69 / qpmin=0 / no-const-vbv / sar=1 / overscan=0 / videoformat=5 / range=0 / colorprim=2 / transfer=2 / colormatrix=2 / chromaloc=0 / display-window=0 / max-cll=0,0 / min-luma=0 / max-luma=1023 / log2-max-poc-lsb=8 / vui-timing-info / vui-hrd-info / slices=1 / opt-qp-pps / opt-ref-list-length-pps / no-multi-pass-opt-rps / scenecut-bias=0.05 / no-opt-cu-delta-qp / no-aq-motion / no-hdr / no-hdr-opt / no-dhdr10-opt / analysis-reuse-level=5 / scale-factor=0 / refine-intra=0 / refine-inter=0 / refine-mv=0 / no-limit-sao / ctu-info=0
  22. Language                                 : English
  23. Default                                  : Yes
  24. Forced                                   : No

  25. Audio #1
  26. ID                                       : 2
  27. Format                                   : TrueHD
  28. Format profile                           : TrueHD+Atmos / TrueHD
  29. Codec ID                                 : A_TRUEHD
  30. Duration                                 : 1 h 57 min
  31. Bit rate mode                            : Variable
  32. Bit rate                                 : 4 854 kb/s
  33. Maximum bit rate                         : 9 444 kb/s
  34. Channel(s)                               : Object Based / 8 channels
  35. Channel positions                        : Object Based / Front: L C R, Side: L R, Back: L R, LFE
  36. Sampling rate                            :  / 48.0 kHz
  37. Frame rate                               : 1 200.000 FPS (40 spf)
  38. Compression mode                         : Lossless
  39. Stream size                              : 3.99 GiB (8%)
  40. Title                                    : Kick-Ass.2010.2160p.BluRay.x265.10bit.SDR.DTS-HD.MA.TrueHD.7.1.Atmos-SWTYBLZ
  41. Language                                 : English
  42. Default                                  : Yes
  43. Forced                                   : No

  44. Audio #2
  45. ID                                       : 3
  46. Format                                   : DTS
  47. Format/Info                              : Digital Theater Systems
  48. Format profile                           : MA / Core
  49. Mode                                     : 16
  50. Format settings, Endianness              : Big
  51. Codec ID                                 : A_DTS
  52. Duration                                 : 1 h 57 min
  53. Bit rate mode                            : Variable / Constant
  54. Bit rate                                 : 3 840 kb/s / 1 509 kb/s
  55. Channel(s)                               : 8 channels / 6 channels
  56. Channel positions                        : Front: L C R, Side: L R, Back: L R, LFE / Front: L C R, Side: L R, LFE
  57. Sampling rate                            : 48.0 kHz
  58. Frame rate                               : 93.750 FPS (512 spf)
  59. Bit depth                                : 24 bits
  60. Compression mode                         : Lossless / Lossy
  61. Stream size                              : 3.18 GiB (6%)
  62. Title                                    : Kick-Ass.2010.2160p.BluRay.x265.10bit.SDR.DTS-HD.MA.TrueHD.7.1.Atmos-SWTYBLZ
  63. Language                                 : English
  64. Default                                  : No
  65. Forced                                   : No

  66. Audio #3
  67. ID                                       : 4
  68. Format                                   : AC-3
  69. Format/Info                              : Audio Coding 3
  70. Format settings, Endianness              : Big
  71. Codec ID                                 : A_AC3
  72. Duration                                 : 1 h 57 min
  73. Bit rate mode                            : Constant
  74. Bit rate                                 : 640 kb/s
  75. Channel(s)                               : 6 channels
  76. Channel positions                        : Front: L C R, Side: L R, LFE
  77. Sampling rate                            : 48.0 kHz
  78. Frame rate                               : 31.250 FPS (1536 spf)
  79. Bit depth                                : 16 bits
  80. Compression mode                         : Lossy
  81. Stream size                              : 539 MiB (1%)
  82. Title                                    : Kick-Ass.2010.2160p.BluRay.x265.10bit.SDR.DTS-HD.MA.TrueHD.7.1.Atmos-SWTYBLZ
  83. Language                                 : English
  84. Service kind                             : Complete Main
  85. Default                                  : No
  86. Forced                                   : No

  87. Text #1
  88. ID                                       : 5
  89. Format                                   : UTF-8
  90. Codec ID                                 : S_TEXT/UTF8
  91. Codec ID/Info                            : UTF-8 Plain Text
  92. Duration                                 : 1 h 50 min
  93. Bit rate                                 : 58 b/s
  94. Count of elements                        : 1335
  95. Stream size                              : 47.7 KiB (0%)
  96. Title                                    : English-SRT
  97. Language                                 : English
  98. Default                                  : Yes
  99. Forced                                   : No

  100. Text #2
  101. ID                                       : 6
  102. Format                                   : PGS
  103. Muxing mode                              : zlib
  104. Codec ID                                 : S_HDMV/PGS
  105. Codec ID/Info                            : Picture based subtitle format used on BDs/HD-DVDs
  106. Duration                                 : 1 h 50 min
  107. Bit rate                                 : 38.4 kb/s
  108. Count of elements                        : 2640
  109. Stream size                              : 30.3 MiB (0%)
  110. Title                                    : English-PGS
  111. Language                                 : English
  112. Default                                  : No
  113. Forced                                   : No

  114. Text #3
  115. ID                                       : 7
  116. Format                                   : PGS
  117. Muxing mode                              : zlib
  118. Codec ID                                 : S_HDMV/PGS
  119. Codec ID/Info                            : Picture based subtitle format used on BDs/HD-DVDs
  120. Duration                                 : 1 h 50 min
  121. Bit rate                                 : 41.2 kb/s
  122. Count of elements                        : 2902
  123. Stream size                              : 32.5 MiB (0%)
  124. Title                                    : English-SDH-PGS
  125. Language                                 : English
  126. Default                                  : No
  127. Forced                                   : No

  128. Text #4
  129. ID                                       : 8
  130. Format                                   : PGS
  131. Muxing mode                              : zlib
  132. Codec ID                                 : S_HDMV/PGS
  133. Codec ID/Info                            : Picture based subtitle format used on BDs/HD-DVDs
  134. Duration                                 : 1 h 57 min
  135. Bit rate                                 : 38.5 kb/s
  136. Count of elements                        : 3006
  137. Stream size                              : 32.2 MiB (0%)
  138. Title                                    : Spanish-PGS
  139. Language                                 : Spanish
  140. Default                                  : No
  141. Forced                                   : No

  142. Menu
  143. 00:00:00.000                             : en:Chapter 1
  144. 00:05:33.541                             : en:Chapter 2
  145. 00:15:55.829                             : en:Chapter 3
  146. 00:21:10.269                             : en:Chapter 4
  147. 00:28:17.904                             : en:Chapter 5
  148. 00:47:53.161                             : en:Chapter 6
  149. 00:52:35.026                             : en:Chapter 7
  150. 01:03:17.043                             : en:Chapter 8
  151. 01:10:17.087                             : en:Chapter 9
  152. 01:16:25.330                             : en:Chapter 10
  153. 01:25:17.487                             : en:Chapter 11
  154. 01:30:26.254                             : en:Chapter 12
  155. 01:38:17.558                             : en:Chapter 13
  156. 01:43:58.190                             : en:Chapter 14
  157. 01:47:05.627                             : en:Chapter 15
  158. 01:49:47.330                             : en:Chapter 16
复制代码





海扁王 Kick-Ass.2010.2160p.BluRay.x265.10bit.SDR.DTS-HD.MA.TrueHD.7.1.Atmos-SWTYBLZ 49.53GB-2.png
海扁王 Kick-Ass.2010.2160p.BluRay.x265.10bit.SDR.DTS-HD.MA.TrueHD.7.1.Atmos-SWTYBLZ 49.53GB-3.png

海扁王 Kick-Ass.2010.2160p.BluRay.x265.10bit.SDR.DTS-HD.MA.TrueHD.7.1.Atmos-SWTYBLZ 49.53GB-4.png
海扁王 Kick-Ass.2010.2160p.BluRay.x265.10bit.SDR.DTS-HD.MA.TrueHD.7.1.Atmos-SWTYBLZ 49.53GB-5.png

海扁王 Kick-Ass.2010.2160p.BluRay.x265.10bit.SDR.DTS-HD.MA.TrueHD.7.1.Atmos-SWTYBLZ 49.53GB-6.png
海扁王 Kick-Ass.2010.2160p.BluRay.x265.10bit.SDR.DTS-HD.MA.TrueHD.7.1.Atmos-SWTYBLZ 49.53GB-7.png






回复

使用道具 举报

懒得打字嘛,点击右侧快捷回复 【右侧内容,后台自定义】
您需要登录后才可以回帖 登录 | 立即加入

本版积分规则

现在加入蓝光电影网,注册一个账号
上个主题 下个主题 快速回复 收藏帖子 返回列表 客服中心 搜索

手机版|小黑屋| 蓝光电影网 |网站地图 

Copyright © 2015-2019 Comsenz Inc.  Template by 蓝光电影论坛 All Rights Reserved.

Powered by 蓝光电影网 X3.4

特别声明:本站所有资源均由网上收集而来,版权归原影音公司所有,如果侵犯了你的权益,请通知我们,我们会及时删除侵权内容.

快速回复 返回顶部 返回列表