找回密码

蓝光电影网

查看: 881|回复: 24

[8bit.SDR] 第九区/D-9异形禁区 District.9.2009.2160p.BluRay.x264.8bit.SDR.DTS-HD.MA.TrueHD.7.1.Atmos-SWTYBLZ 47.27GB

[复制链接]

 成长值: 16485

发表于 2020-10-13 22:51:24 | 显示全部楼层 |阅读模式


◎译  名 第九区/D-9异形禁区(港)/第9区/第九禁区(台)
◎片  名 District 9
◎年  代 2009
◎产  地 美国,新西兰,加拿大,南非
◎类  别 剧情 / 动作 / 科幻 / 惊悚
◎语  言 英语,尼扬贾语,南非荷兰语,祖鲁语,科萨语,塞索托语
◎上映日期 2009-08-14(美国) / 2009-11-27(中国大陆)
◎IMDb评分  7.9/10 from 632075 users
◎IMDb链接  https://www.imdb.com/title/tt1136608/
◎豆瓣评分 8.3/10 from 355228 users
◎豆瓣链接 https://movie.douban.com/subject/3006772/
◎片  长 112分钟
◎导  演 尼尔·布洛姆坎普 Neill Blomkamp
◎编  剧 尼尔·布洛姆坎普 Neill Blomkamp / 特丽·塔歇尔 Terri Tatchell
◎主  演 沙尔托·科普雷 Sharlto Copley
       詹森·库伯 Jason Cope
       娜塔莉·博尔特 Nathalie Boltt
       茜尔雯·斯特赖克 Sylvaine Strike
       约翰·萨莫尔 John Sumner
       威廉·艾伦·扬 William Allen Young
       尼克·布雷克 Nick Blake
       杰德·布罗菲 Jed Brophy
       路易斯·米纳尔 Louis Minnaar
       瓦妮莎·海伍德 Vanessa Haywood
       玛丽安·胡曼 Marian Hooman
       维多利奥·莱奥纳迪 Vittorio Leonardi
       曼德拉·加杜卡 Mandla Gaduka
       约翰·范·肖尔 Johan van Schoor
       斯特拉·斯廷坎普 Stella Steenkamp
       戴维·詹姆斯 David James
       肯尼思·恩科西 Kenneth Nkosi
       蒂姆·戈登 Tim Gordon
       莫尔内·埃拉斯姆斯 Morne Erasmus
       尤金·孔巴尼瓦 Eugene Khumbanyiwa
       赫棱基维·马德拉拉 Hlengiwe Madlala
       西雅邦加·拉德贝 Siyabonga Radebe
       梅尔特·西贝尔哈亨 Melt Sieberhagen
       安德勒·奥登达尔 Andre Odendaal
       尼克·伯莱尼 Nick Boraine
       罗伯特·霍布斯 Robert Hobbs
       Barry Strydom
       Mzwandile Nqoba
       西莫·莫加瓦扎 Simo Mogwaza
       伊丽莎白玛坎达维 Elizabeth Mkandawie
       格雷格·梅尔维尔-史密斯 Greg Melvill-Smith
       Morena Busa Sesatsa
       Themba Nkosi
       大卫·杜卡斯 David Dukas
◎标  签 科幻 | 人性 | 美国 | 第九区 | 种族 | 讽刺 | 反思 | 2009
◎简  介


  1990年,一艘巨大的飞船出现在地球上空,人们惶恐不安,却又分外好奇。经过一段时间紧张的等待,外星飞船始终没有动静。人类终于小心翼翼靠近它,强行走进舱内,结果发现了不计其数的外星人。他们形容丑陋,宛如虾子,而且健康状况极差,虚弱无力。原来这是一群来自外星的难民,他们最终被地球人接纳,并隔离在南非约翰内斯堡的一片区域内生活,此地名为“第九区”。经过长达20年的繁衍,外星难民的数量扩张至180万之多,且和周边人类的矛盾冲突不断,越来越多的人类呼吁将“大虾”赶出地球。
  
  MNU(列国同盟组织)经过磋商,决定将外星难民迁移到更为偏远的区域。MNU外星事务部门的特工威库斯(Sharlto Copley 饰)专门负责搬迁工作。威库斯在动员过程中傲慢随意,与当地居民冲突频频。最终,他为自己的行为付出代价,外星人的神秘流体将其感染,威库斯慢慢变成了外星人的模样……
◎获奖情况
  第82届奥斯卡金像奖 ?(2010)
  最佳影片(提名) 卡罗琳·康宁安?/?彼得·杰克逊
  最佳改编剧本(提名) 尼尔·布洛姆坎普?/?特丽·塔歇尔
  最佳剪辑(提名) 祖利安·格克
  最佳视觉效果(提名) 丹·考夫曼?/?彼得·迈泽尔斯?/?罗伯特·哈布罗斯?/?马特·艾特肯
  
  第67届金球奖 ?(2010)
  电影类最佳编剧(提名) 尼尔·布洛姆坎普?/?特丽·塔歇尔
  
  第19届MTV电影奖 ?(2010)
  MTV电影奖最佳惊恐戏表演(提名) 沙尔托·科普雷
  
  第22届芝加哥影评人协会奖 ?(2009)
  最具潜力演员(提名) 沙尔托·科普雷
  最具潜力导演 尼尔·布洛姆坎普
  
  第43届堪萨斯影评人协会奖 ?(2010)
  最佳科幻/恐怖片
  
  第9届凤凰城影评人协会奖 ?(2009)
  最佳新人导演 尼尔·布洛姆坎普
  
  第12届美国青少年选择奖 ?(2010)
  最佳科幻电影(提名)
  最佳科幻电影男演员(提名) 沙尔托·科普雷
  1. Video
  2. ID                                       : 1
  3. Format                                   : AVC
  4. Format/Info                              : Advanced Video Codec
  5. Format profile                           : [email protected]
  6. Format settings                          : CABAC / 5 Ref Frames
  7. Format settings, CABAC                   : Yes
  8. Format settings, Reference frames        : 5 frames
  9. Codec ID                                 : V_MPEG4/ISO/AVC
  10. Duration                                 : 1 h 52 min
  11. Bit rate                                 : 51.2 Mb/s
  12. Width                                    : 3 840 pixels
  13. Height                                   : 2 076 pixels
  14. Display aspect ratio                     : 1.85:1
  15. Frame rate mode                          : Constant
  16. Frame rate                               : 23.976 (24000/1001/189150) FPS
  17. Color space                              : YUV
  18. Chroma subsampling                       : 4:2:0
  19. Bit depth                                : 8 bits
  20. Scan type                                : Progressive
  21. Bits/(Pixel*Frame)                       : 0.268
  22. Stream size                              : 40.1 GiB (85%)
  23. Title                                    : District.9.2009.2160p.BluRay.x264.8bit.SDR.DTS-HD.MA.TrueHD.7.1.Atmos-SWTYBLZ
  24. Writing library                          : x264 core 157 r2935 545de2f
  25. Encoding settings                        : cabac=1 / ref=5 / deblock=1:-1:-1 / analyse=0x3:0x113 / me=umh / subme=10 / psy=1 / psy_rd=1.00:0.15 / mixed_ref=1 / me_range=48 / chroma_me=1 / trellis=2 / 8x8dct=1 / cqm=0 / deadzone=21,11 / fast_pskip=1 / chroma_qp_offset=-3 / threads=48 / lookahead_threads=4 / sliced_threads=0 / nr=0 / decimate=0 / interlaced=0 / bluray_compat=0 / constrained_intra=0 / bframes=3 / b_pyramid=2 / b_adapt=2 / b_bias=0 / direct=3 / weightb=1 / open_gop=0 / weightp=2 / keyint=250 / keyint_min=23 / scenecut=40 / intra_refresh=0 / rc_lookahead=50 / rc=crf / mbtree=1 / crf=18.0 / qcomp=0.60 / qpmin=0 / qpmax=69 / qpstep=4 / ip_ratio=1.40 / aq=1:1.00
  26. Default                                  : Yes
  27. Forced                                   : No
  28. Audio #1
  29. ID                                       : 2
  30. ID in the original source medium         : 4352 (0x1100)
  31. Format                                   : MLP FBA 16-ch
  32. Format/Info                              : Meridian Lossless Packing FBA with 16-channel presentation
  33. Commercial name                          : Dolby TrueHD with Dolby Atmos
  34. Codec ID                                 : A_TRUEHD
  35. Duration                                 : 1 h 52 min
  36. Bit rate mode                            : Variable
  37. Bit rate                                 : 3 442 kb/s
  38. Maximum bit rate                         : 5 568 kb/s
  39. Channel(s)                               : 8 channels
  40. Channel layout                           : L R C LFE Ls Rs Lb Rb
  41. Sampling rate                            : 48.0 kHz
  42. Frame rate                               : 1 200.000 FPS (40 SPF)
  43. Compression mode                         : Lossless
  44. Stream size                              : 2.70 GiB (6%)
  45. Title                                    : District.9.2009.2160p.BluRay.x264.8bit.SDR.DTS-HD.MA.TrueHD.7.1.Atmos-SWTYBLZ
  46. Language                                 : English
  47. Default                                  : Yes
  48. Forced                                   : No
  49. Original source medium                   : Blu-ray
  50. Number of dynamic objects                : 11
  51. Bed channel count                        : 1 channel
  52. Bed channel configuration                : LFE
  53. Audio #2
  54. ID                                       : 3
  55. Format                                   : DTS XLL
  56. Format/Info                              : Digital Theater Systems
  57. Commercial name                          : DTS-HD Master Audio
  58. Codec ID                                 : A_DTS
  59. Duration                                 : 1 h 52 min
  60. Bit rate mode                            : Variable
  61. Bit rate                                 : 4 094 kb/s
  62. Channel(s)                               : 8 channels
  63. Channel layout                           : C L R LFE Lb Rb Lss Rss
  64. Sampling rate                            : 48.0 kHz
  65. Frame rate                               : 93.750 FPS (512 SPF)
  66. Bit depth                                : 24 bits
  67. Compression mode                         : Lossless
  68. Stream size                              : 3.21 GiB (7%)
  69. Title                                    : District.9.2009.2160p.BluRay.x264.8bit.SDR.DTS-HD.MA.TrueHD.7.1.Atmos-SWTYBLZ
  70. Language                                 : English
  71. Default                                  : No
  72. Forced                                   : No
  73. Audio #3
  74. ID                                       : 4
  75. ID in the original source medium         : 4352 (0x1100)
  76. Format                                   : AC-3
  77. Format/Info                              : Audio Coding 3
  78. Commercial name                          : Dolby Digital
  79. Codec ID                                 : A_AC3
  80. Duration                                 : 1 h 52 min
  81. Bit rate mode                            : Constant
  82. Bit rate                                 : 640 kb/s
  83. Channel(s)                               : 6 channels
  84. Channel layout                           : L R C LFE Ls Rs
  85. Sampling rate                            : 48.0 kHz
  86. Frame rate                               : 31.250 FPS (1536 SPF)
  87. Compression mode                         : Lossy
  88. Stream size                              : 514 MiB (1%)
  89. Title                                    : District.9.2009.2160p.BluRay.x264.8bit.SDR.DTS-HD.MA.TrueHD.7.1.Atmos-SWTYBLZ
  90. Language                                 : English
  91. Service kind                             : Complete Main
  92. Default                                  : No
  93. Forced                                   : No
  94. Original source medium                   : Blu-ray
  95. Text #1
  96. ID                                       : 5
  97. Format                                   : UTF-8
  98. Codec ID                                 : S_TEXT/UTF8
  99. Codec ID/Info                            : UTF-8 Plain Text
  100. Duration                                 : 1 h 43 min
  101. Bit rate                                 : 62 b/s
  102. Count of elements                        : 1201
  103. Stream size                              : 47.5 KiB (0%)
  104. Title                                    : English-SRT
  105. Language                                 : English
  106. Default                                  : Yes
  107. Forced                                   : No
  108. Text #2
  109. ID                                       : 6
  110. ID in the original source medium         : 4768 (0x12A0)
  111. Format                                   : PGS
  112. Muxing mode                              : zlib
  113. Codec ID                                 : S_HDMV/PGS
  114. Codec ID/Info                            : Picture based subtitle format used on BDs/HD-DVDs
  115. Duration                                 : 1 h 48 min
  116. Bit rate                                 : 43.6 kb/s
  117. Count of elements                        : 3136
  118. Stream size                              : 33.9 MiB (0%)
  119. Title                                    : English-SDH-PGS
  120. Language                                 : English
  121. Default                                  : No
  122. Forced                                   : No
  123. Original source medium                   : Blu-ray
  124. Text #3
  125. ID                                       : 7
  126. ID in the original source medium         : 4769 (0x12A1)
  127. Format                                   : PGS
  128. Muxing mode                              : zlib
  129. Codec ID                                 : S_HDMV/PGS
  130. Codec ID/Info                            : Picture based subtitle format used on BDs/HD-DVDs
  131. Duration                                 : 1 h 43 min
  132. Bit rate                                 : 36.3 kb/s
  133. Count of elements                        : 2408
  134. Stream size                              : 27.0 MiB (0%)
  135. Title                                    : English-PGS
  136. Language                                 : English
  137. Default                                  : No
  138. Forced                                   : No
  139. Original source medium                   : Blu-ray
  140. Text #4
  141. ID                                       : 8
  142. ID in the original source medium         : 4770 (0x12A2)
  143. Format                                   : PGS
  144. Muxing mode                              : zlib
  145. Codec ID                                 : S_HDMV/PGS
  146. Codec ID/Info                            : Picture based subtitle format used on BDs/HD-DVDs
  147. Duration                                 : 1 h 48 min
  148. Bit rate                                 : 43.6 kb/s
  149. Count of elements                        : 3136
  150. Stream size                              : 33.9 MiB (0%)
  151. Title                                    : English-SDH-PGS
  152. Language                                 : English
  153. Default                                  : No
  154. Forced                                   : No
  155. Original source medium                   : Blu-ray
  156. Text #5
  157. ID                                       : 9
  158. ID in the original source medium         : 4771 (0x12A3)
  159. Format                                   : PGS
  160. Muxing mode                              : zlib
  161. Codec ID                                 : S_HDMV/PGS
  162. Codec ID/Info                            : Picture based subtitle format used on BDs/HD-DVDs
  163. Duration                                 : 1 h 43 min
  164. Bit rate                                 : 36.3 kb/s
  165. Count of elements                        : 2408
  166. Stream size                              : 27.0 MiB (0%)
  167. Title                                    : English-PGS
  168. Language                                 : English
  169. Default                                  : No
  170. Forced                                   : No
  171. Original source medium                   : Blu-ray
  172. Text #6
  173. ID                                       : 10
  174. ID in the original source medium         : 4772 (0x12A4)
  175. Format                                   : PGS
  176. Muxing mode                              : zlib
  177. Codec ID                                 : S_HDMV/PGS
  178. Codec ID/Info                            : Picture based subtitle format used on BDs/HD-DVDs
  179. Duration                                 : 1 h 43 min
  180. Bit rate                                 : 19.8 kb/s
  181. Count of elements                        : 2793
  182. Stream size                              : 14.7 MiB (0%)
  183. Title                                    : Arabic-PGS
  184. Language                                 : Arabic
  185. Default                                  : No
  186. Forced                                   : No
  187. Original source medium                   : Blu-ray
  188. Text #7
  189. ID                                       : 11
  190. ID in the original source medium         : 4773 (0x12A5)
  191. Format                                   : PGS
  192. Muxing mode                              : zlib
  193. Codec ID                                 : S_HDMV/PGS
  194. Codec ID/Info                            : Picture based subtitle format used on BDs/HD-DVDs
  195. Duration                                 : 1 h 43 min
  196. Bit rate                                 : 36.7 kb/s
  197. Count of elements                        : 2958
  198. Stream size                              : 27.2 MiB (0%)
  199. Title                                    : Chinese-PGS
  200. Language                                 : Chinese
  201. Default                                  : No
  202. Forced                                   : No
  203. Original source medium                   : Blu-ray
  204. Text #8
  205. ID                                       : 12
  206. ID in the original source medium         : 4774 (0x12A6)
  207. Format                                   : PGS
  208. Muxing mode                              : zlib
  209. Codec ID                                 : S_HDMV/PGS
  210. Codec ID/Info                            : Picture based subtitle format used on BDs/HD-DVDs
  211. Duration                                 : 1 h 43 min
  212. Bit rate                                 : 36.3 kb/s
  213. Count of elements                        : 2958
  214. Stream size                              : 27.0 MiB (0%)
  215. Title                                    : Chinese-PGS
  216. Language                                 : Chinese
  217. Default                                  : No
  218. Forced                                   : No
  219. Original source medium                   : Blu-ray
  220. Text #9
  221. ID                                       : 13
  222. ID in the original source medium         : 4775 (0x12A7)
  223. Format                                   : PGS
  224. Muxing mode                              : zlib
  225. Codec ID                                 : S_HDMV/PGS
  226. Codec ID/Info                            : Picture based subtitle format used on BDs/HD-DVDs
  227. Duration                                 : 1 h 51 min
  228. Bit rate                                 : 34.3 kb/s
  229. Count of elements                        : 3362
  230. Stream size                              : 27.4 MiB (0%)
  231. Title                                    : Czech-PGS
  232. Language                                 : Czech
  233. Default                                  : No
  234. Forced                                   : No
  235. Original source medium                   : Blu-ray
  236. Text #10
  237. ID                                       : 14
  238. ID in the original source medium         : 4776 (0x12A8)
  239. Format                                   : PGS
  240. Muxing mode                              : zlib
  241. Codec ID                                 : S_HDMV/PGS
  242. Codec ID/Info                            : Picture based subtitle format used on BDs/HD-DVDs
  243. Duration                                 : 1 h 51 min
  244. Bit rate                                 : 33.8 kb/s
  245. Count of elements                        : 2944
  246. Stream size                              : 27.0 MiB (0%)
  247. Title                                    : Danish-PGS
  248. Language                                 : Danish
  249. Default                                  : No
  250. Forced                                   : No
  251. Original source medium                   : Blu-ray
  252. Text #11
  253. ID                                       : 15
  254. ID in the original source medium         : 4777 (0x12A9)
  255. Format                                   : PGS
  256. Muxing mode                              : zlib
  257. Codec ID                                 : S_HDMV/PGS
  258. Codec ID/Info                            : Picture based subtitle format used on BDs/HD-DVDs
  259. Duration                                 : 1 h 43 min
  260. Bit rate                                 : 34.4 kb/s
  261. Count of elements                        : 2768
  262. Stream size                              : 25.6 MiB (0%)
  263. Title                                    : Dutch-PGS
  264. Language                                 : Dutch
  265. Default                                  : No
  266. Forced                                   : No
  267. Original source medium                   : Blu-ray
  268. Text #12
  269. ID                                       : 16
  270. ID in the original source medium         : 4778 (0x12AA)
  271. Format                                   : PGS
  272. Muxing mode                              : zlib
  273. Codec ID                                 : S_HDMV/PGS
  274. Codec ID/Info                            : Picture based subtitle format used on BDs/HD-DVDs
  275. Duration                                 : 1 h 43 min
  276. Bit rate                                 : 36.2 kb/s
  277. Count of elements                        : 2590
  278. Stream size                              : 26.9 MiB (0%)
  279. Title                                    : Estonian-PGS
  280. Language                                 : Estonian
  281. Default                                  : No
  282. Forced                                   : No
  283. Original source medium                   : Blu-ray
  284. Text #13
  285. ID                                       : 17
  286. ID in the original source medium         : 4779 (0x12AB)
  287. Format                                   : PGS
  288. Muxing mode                              : zlib
  289. Codec ID                                 : S_HDMV/PGS
  290. Codec ID/Info                            : Picture based subtitle format used on BDs/HD-DVDs
  291. Duration                                 : 1 h 51 min
  292. Bit rate                                 : 34.8 kb/s
  293. Count of elements                        : 3032
  294. Stream size                              : 27.7 MiB (0%)
  295. Title                                    : Finnish-PGS
  296. Language                                 : Finnish
  297. Default                                  : No
  298. Forced                                   : No
  299. Original source medium                   : Blu-ray
  300. Text #14
  301. ID                                       : 18
  302. ID in the original source medium         : 4780 (0x12AC)
  303. Format                                   : PGS
  304. Muxing mode                              : zlib
  305. Codec ID                                 : S_HDMV/PGS
  306. Codec ID/Info                            : Picture based subtitle format used on BDs/HD-DVDs
  307. Duration                                 : 1 h 51 min
  308. Bit rate                                 : 34.8 kb/s
  309. Count of elements                        : 2924
  310. Stream size                              : 27.7 MiB (0%)
  311. Title                                    : French-PGS
  312. Language                                 : French
  313. Default                                  : No
  314. Forced                                   : No
  315. Original source medium                   : Blu-ray
  316. Text #15
  317. ID                                       : 19
  318. ID in the original source medium         : 4781 (0x12AD)
  319. Format                                   : PGS
  320. Muxing mode                              : zlib
  321. Codec ID                                 : S_HDMV/PGS
  322. Codec ID/Info                            : Picture based subtitle format used on BDs/HD-DVDs
  323. Duration                                 : 1 h 43 min
  324. Bit rate                                 : 49.1 kb/s
  325. Count of elements                        : 3154
  326. Stream size                              : 36.4 MiB (0%)
  327. Title                                    : German-PGS
  328. Language                                 : German
  329. Default                                  : No
  330. Forced                                   : No
  331. Original source medium                   : Blu-ray
  332. Text #16
  333. ID                                       : 20
  334. ID in the original source medium         : 4782 (0x12AE)
  335. Format                                   : PGS
  336. Muxing mode                              : zlib
  337. Codec ID                                 : S_HDMV/PGS
  338. Codec ID/Info                            : Picture based subtitle format used on BDs/HD-DVDs
  339. Duration                                 : 1 h 44 min
  340. Bit rate                                 : 35.2 kb/s
  341. Count of elements                        : 2644
  342. Stream size                              : 26.2 MiB (0%)
  343. Title                                    : Greek-PGS
  344. Language                                 : Greek
  345. Default                                  : No
  346. Forced                                   : No
  347. Original source medium                   : Blu-ray
  348. Text #17
  349. ID                                       : 21
  350. ID in the original source medium         : 4783 (0x12AF)
  351. Format                                   : PGS
  352. Muxing mode                              : zlib
  353. Codec ID                                 : S_HDMV/PGS
  354. Codec ID/Info                            : Picture based subtitle format used on BDs/HD-DVDs
  355. Duration                                 : 1 h 43 min
  356. Bit rate                                 : 32.2 kb/s
  357. Count of elements                        : 2958
  358. Stream size                              : 23.9 MiB (0%)
  359. Title                                    : Hindi-PGS
  360. Language                                 : Hindi
  361. Default                                  : No
  362. Forced                                   : No
  363. Original source medium                   : Blu-ray
  364. Text #18
  365. ID                                       : 22
  366. ID in the original source medium         : 4784 (0x12B0)
  367. Format                                   : PGS
  368. Muxing mode                              : zlib
  369. Codec ID                                 : S_HDMV/PGS
  370. Codec ID/Info                            : Picture based subtitle format used on BDs/HD-DVDs
  371. Duration                                 : 1 h 51 min
  372. Bit rate                                 : 36.9 kb/s
  373. Count of elements                        : 3076
  374. Stream size                              : 29.4 MiB (0%)
  375. Title                                    : Hungarian-PGS
  376. Language                                 : Hungarian
  377. Default                                  : No
  378. Forced                                   : No
  379. Original source medium                   : Blu-ray
  380. Text #19
  381. ID                                       : 23
  382. ID in the original source medium         : 4785 (0x12B1)
  383. Format                                   : PGS
  384. Muxing mode                              : zlib
  385. Codec ID                                 : S_HDMV/PGS
  386. Codec ID/Info                            : Picture based subtitle format used on BDs/HD-DVDs
  387. Duration                                 : 1 h 51 min
  388. Bit rate                                 : 38.3 kb/s
  389. Count of elements                        : 2992
  390. Stream size                              : 30.5 MiB (0%)
  391. Title                                    : Italian-PGS
  392. Language                                 : Italian
  393. Default                                  : No
  394. Forced                                   : No
  395. Original source medium                   : Blu-ray
  396. Text #20
  397. ID                                       : 24
  398. ID in the original source medium         : 4786 (0x12B2)
  399. Format                                   : PGS
  400. Muxing mode                              : zlib
  401. Codec ID                                 : S_HDMV/PGS
  402. Codec ID/Info                            : Picture based subtitle format used on BDs/HD-DVDs
  403. Duration                                 : 1 h 51 min
  404. Bit rate                                 : 18.1 kb/s
  405. Count of elements                        : 2622
  406. Stream size                              : 14.4 MiB (0%)
  407. Title                                    : Korean-PGS
  408. Language                                 : Korean
  409. Default                                  : No
  410. Forced                                   : No
  411. Original source medium                   : Blu-ray
  412. Text #21
  413. ID                                       : 25
  414. ID in the original source medium         : 4787 (0x12B3)
  415. Format                                   : PGS
  416. Muxing mode                              : zlib
  417. Codec ID                                 : S_HDMV/PGS
  418. Codec ID/Info                            : Picture based subtitle format used on BDs/HD-DVDs
  419. Duration                                 : 1 h 43 min
  420. Bit rate                                 : 35.9 kb/s
  421. Count of elements                        : 2699
  422. Stream size                              : 26.6 MiB (0%)
  423. Title                                    : Lithuanian-PGS
  424. Language                                 : Lithuanian
  425. Default                                  : No
  426. Forced                                   : No
  427. Original source medium                   : Blu-ray
  428. Text #22
  429. ID                                       : 26
  430. ID in the original source medium         : 4788 (0x12B4)
  431. Format                                   : PGS
  432. Muxing mode                              : zlib
  433. Codec ID                                 : S_HDMV/PGS
  434. Codec ID/Info                            : Picture based subtitle format used on BDs/HD-DVDs
  435. Duration                                 : 1 h 51 min
  436. Bit rate                                 : 29.6 kb/s
  437. Count of elements                        : 2304
  438. Stream size                              : 23.6 MiB (0%)
  439. Title                                    : Norwegian-PGS
  440. Language                                 : Norwegian
  441. Default                                  : No
  442. Forced                                   : No
  443. Original source medium                   : Blu-ray
  444. Text #23
  445. ID                                       : 27
  446. ID in the original source medium         : 4789 (0x12B5)
  447. Format                                   : PGS
  448. Muxing mode                              : zlib
  449. Codec ID                                 : S_HDMV/PGS
  450. Codec ID/Info                            : Picture based subtitle format used on BDs/HD-DVDs
  451. Duration                                 : 1 h 51 min
  452. Bit rate                                 : 25.4 kb/s
  453. Count of elements                        : 2658
  454. Stream size                              : 20.2 MiB (0%)
  455. Title                                    : Portuguese-PGS
  456. Language                                 : Portuguese
  457. Default                                  : No
  458. Forced                                   : No
  459. Original source medium                   : Blu-ray
  460. Text #24
  461. ID                                       : 28
  462. ID in the original source medium         : 4790 (0x12B6)
  463. Format                                   : PGS
  464. Muxing mode                              : zlib
  465. Codec ID                                 : S_HDMV/PGS
  466. Codec ID/Info                            : Picture based subtitle format used on BDs/HD-DVDs
  467. Duration                                 : 1 h 51 min
  468. Bit rate                                 : 35.7 kb/s
  469. Count of elements                        : 2827
  470. Stream size                              : 28.5 MiB (0%)
  471. Title                                    : Portuguese-PGS
  472. Language                                 : Portuguese
  473. Default                                  : No
  474. Forced                                   : No
  475. Original source medium                   : Blu-ray
  476. Text #25
  477. ID                                       : 29
  478. ID in the original source medium         : 4791 (0x12B7)
  479. Format                                   : PGS
  480. Muxing mode                              : zlib
  481. Codec ID                                 : S_HDMV/PGS
  482. Codec ID/Info                            : Picture based subtitle format used on BDs/HD-DVDs
  483. Duration                                 : 1 h 51 min
  484. Bit rate                                 : 35.0 kb/s
  485. Count of elements                        : 3398
  486. Stream size                              : 27.9 MiB (0%)
  487. Title                                    : Romanian-PGS
  488. Language                                 : Romanian
  489. Default                                  : No
  490. Forced                                   : No
  491. Original source medium                   : Blu-ray
  492. Text #26
  493. ID                                       : 30
  494. ID in the original source medium         : 4792 (0x12B8)
  495. Format                                   : PGS
  496. Muxing mode                              : zlib
  497. Codec ID                                 : S_HDMV/PGS
  498. Codec ID/Info                            : Picture based subtitle format used on BDs/HD-DVDs
  499. Duration                                 : 1 h 51 min
  500. Bit rate                                 : 35.5 kb/s
  501. Count of elements                        : 3522
  502. Stream size                              : 28.3 MiB (0%)
  503. Title                                    : Russian-PGS
  504. Language                                 : Russian
  505. Default                                  : No
  506. Forced                                   : No
  507. Original source medium                   : Blu-ray
  508. Text #27
  509. ID                                       : 31
  510. ID in the original source medium         : 4793 (0x12B9)
  511. Format                                   : PGS
  512. Muxing mode                              : zlib
  513. Codec ID                                 : S_HDMV/PGS
  514. Codec ID/Info                            : Picture based subtitle format used on BDs/HD-DVDs
  515. Duration                                 : 1 h 51 min
  516. Bit rate                                 : 29.4 kb/s
  517. Count of elements                        : 2858
  518. Stream size                              : 23.4 MiB (0%)
  519. Title                                    : Spanish-PGS
  520. Language                                 : Spanish
  521. Default                                  : No
  522. Forced                                   : No
  523. Original source medium                   : Blu-ray
  524. Text #28
  525. ID                                       : 32
  526. ID in the original source medium         : 4794 (0x12BA)
  527. Format                                   : PGS
  528. Muxing mode                              : zlib
  529. Codec ID                                 : S_HDMV/PGS
  530. Codec ID/Info                            : Picture based subtitle format used on BDs/HD-DVDs
  531. Duration                                 : 1 h 51 min
  532. Bit rate                                 : 33.8 kb/s
  533. Count of elements                        : 2954
  534. Stream size                              : 26.9 MiB (0%)
  535. Title                                    : Spanish-PGS
  536. Language                                 : Spanish
  537. Default                                  : No
  538. Forced                                   : No
  539. Original source medium                   : Blu-ray
  540. Text #29
  541. ID                                       : 33
  542. ID in the original source medium         : 4795 (0x12BB)
  543. Format                                   : PGS
  544. Muxing mode                              : zlib
  545. Codec ID                                 : S_HDMV/PGS
  546. Codec ID/Info                            : Picture based subtitle format used on BDs/HD-DVDs
  547. Duration                                 : 1 h 51 min
  548. Bit rate                                 : 34.2 kb/s
  549. Count of elements                        : 3014
  550. Stream size                              : 27.3 MiB (0%)
  551. Title                                    : Sewdish-PGS
  552. Language                                 : Swedish
  553. Default                                  : No
  554. Forced                                   : No
  555. Original source medium                   : Blu-ray
  556. Text #30
  557. ID                                       : 34
  558. ID in the original source medium         : 4796 (0x12BC)
  559. Format                                   : PGS
  560. Muxing mode                              : zlib
  561. Codec ID                                 : S_HDMV/PGS
  562. Codec ID/Info                            : Picture based subtitle format used on BDs/HD-DVDs
  563. Duration                                 : 1 h 51 min
  564. Bit rate                                 : 37.6 kb/s
  565. Count of elements                        : 3385
  566. Stream size                              : 30.0 MiB (0%)
  567. Title                                    : Thai-PGS
  568. Language                                 : Thai
  569. Default                                  : No
  570. Forced                                   : No
  571. Original source medium                   : Blu-ray
  572. Text #31
  573. ID                                       : 35
  574. ID in the original source medium         : 4797 (0x12BD)
  575. Format                                   : PGS
  576. Muxing mode                              : zlib
  577. Codec ID                                 : S_HDMV/PGS
  578. Codec ID/Info                            : Picture based subtitle format used on BDs/HD-DVDs
  579. Duration                                 : 1 h 51 min
  580. Bit rate                                 : 35.1 kb/s
  581. Count of elements                        : 2954
  582. Stream size                              : 28.0 MiB (0%)
  583. Title                                    : Turkish-PGS
  584. Language                                 : Turkish
  585. Default                                  : No
  586. Forced                                   : No
  587. Original source medium                   : Blu-ray
  588. Text #32
  589. ID                                       : 36
  590. ID in the original source medium         : 4798 (0x12BE)
  591. Format                                   : PGS
  592. Muxing mode                              : zlib
  593. Codec ID                                 : S_HDMV/PGS
  594. Codec ID/Info                            : Picture based subtitle format used on BDs/HD-DVDs
  595. Duration                                 : 1 h 51 min
  596. Bit rate                                 : 38.6 kb/s
  597. Count of elements                        : 3492
  598. Stream size                              : 30.8 MiB (0%)
  599. Title                                    : Ukrainian-PGS
  600. Language                                 : Ukrainian
  601. Default                                  : No
  602. Forced                                   : No
  603. Original source medium                   : Blu-ray
  604. Menu
  605. 00:00:00.000                             : en:Chapter 01
  606. 00:06:22.340                             : en:Chapter 02
  607. 00:13:25.095                             : en:Chapter 03
  608. 00:20:33.065                             : en:Chapter 04
  609. 00:27:08.752                             : en:Chapter 05
  610. 00:34:13.718                             : en:Chapter 06
  611. 00:41:57.932                             : en:Chapter 07
  612. 00:47:01.944                             : en:Chapter 08
  613. 00:54:07.953                             : en:Chapter 09
  614. 01:00:00.597                             : en:Chapter 10
  615. 01:08:25.601                             : en:Chapter 11
  616. 01:13:37.538                             : en:Chapter 12
  617. 01:21:01.857                             : en:Chapter 13
  618. 01:26:40.361                             : en:Chapter 14
  619. 01:33:41.324                             : en:Chapter 15
  620. 01:38:44.293                             : en:Chapter 16
复制代码





                                       
                                       

                                       
                                       
                                       




回复

使用道具 举报

发表于 2020-10-14 00:16:14 | 显示全部楼层
楼主太厉害了!楼主,电影应该很好看我觉得蓝光电影网真是个好地方!
回复 支持 1 反对 0

使用道具 举报

发表于 2020-10-14 00:04:51 | 显示全部楼层

楼主太厉害了!楼主,电影应该很好看我觉得蓝光电影网真是个好地方!
回复 支持 1 反对 0

使用道具 举报

发表于 2020-10-14 17:03:38 | 显示全部楼层
楼主太厉害了!楼主,电影应该很好看我觉得蓝光电影网真是个好地方!
回复 支持 1 反对 0

使用道具 举报

发表于 2020-10-14 18:34:59 | 显示全部楼层

楼主太厉害了!楼主,电影应该很好看我觉得蓝光电影网真是个好地方!
回复 支持 1 反对 0

使用道具 举报

发表于 2020-10-14 19:08:00 | 显示全部楼层

我看不错噢 谢谢楼主!蓝光电影网越来越好!
回复 支持 1 反对 0

使用道具 举报

发表于 2020-10-14 21:52:16 | 显示全部楼层
感谢分享,乐于下载!
回复 支持 1 反对 0

使用道具 举报

发表于 2020-10-14 00:29:14 | 显示全部楼层

这个帖子不回对不起自己!我想我是一天也不能离开蓝光电影网
回复 支持 反对

使用道具 举报

 成长值: 850

发表于 2020-10-14 09:00:35 | 显示全部楼层
楼主太厉害了!楼主,电影应该很好看我觉得蓝光电影网真是个好地方!
回复 支持 反对

使用道具 举报

发表于 2020-10-14 10:12:49 | 显示全部楼层

楼主太厉害了!楼主,电影应该很好看我觉得蓝光电影网真是个好地方!
回复 支持 反对

使用道具 举报

发表于 2020-10-14 10:27:00 | 显示全部楼层
楼主辛苦了
回复 支持 反对

使用道具 举报

发表于 2020-10-14 10:44:29 | 显示全部楼层
楼主发贴辛苦了,谢谢楼主分享!我觉得蓝光电影网是注册对了!
回复 支持 反对

使用道具 举报

发表于 2020-10-14 11:45:15 | 显示全部楼层
楼主发贴辛苦了,谢谢楼主分享!我觉得蓝光电影网是注册对了!
回复 支持 反对

使用道具 举报

发表于 2020-10-14 13:41:04 | 显示全部楼层

楼主发贴辛苦了,谢谢楼主分享!我觉得蓝光电影网是注册对了!
回复 支持 反对

使用道具 举报

懒得打字嘛,点击右侧快捷回复 【右侧内容,后台自定义】
您需要登录后才可以回帖 登录 | 立即加入

本版积分规则

现在加入蓝光电影网,注册一个账号
上个主题 下个主题 快速回复 收藏帖子 返回列表 客服中心 搜索

手机版|小黑屋| 蓝光电影网 |网站地图 

Copyright © 2015-2019 Comsenz Inc.  Template by 蓝光电影论坛 All Rights Reserved.

Powered by 蓝光电影网 X3.4

特别声明:本站所有资源均由网上收集而来,版权归原影音公司所有,如果侵犯了你的权益,请通知我们,我们会及时删除侵权内容.

快速回复 返回顶部 返回列表