找回密码

蓝光电影网

查看: 394|回复: 14

[REMUX.HEVC] 第九区/D-9异形禁区 District.9.2009.2160p.BluRay.REMUX.HEVC.DTS-HD.MA.TrueHD.7.1.Atmos-FGT 49.29GB

[复制链接]

 成长值: 16530

发表于 2020-10-12 18:03:54 | 显示全部楼层 |阅读模式


◎译  名 第九区/D-9异形禁区(港)/第9区/第九禁区(台)
◎片  名 District 9
◎年  代 2009
◎产  地 美国,新西兰,加拿大,南非
◎类  别 剧情 / 动作 / 科幻 / 惊悚
◎语  言 英语,尼扬贾语,南非荷兰语,祖鲁语,科萨语,塞索托语
◎上映日期 2009-08-14(美国) / 2009-11-27(中国大陆)
◎IMDb评分  7.9/10 from 632000 users
◎IMDb链接  https://www.imdb.com/title/tt1136608/
◎豆瓣评分 8.3/10 from 355196 users
◎豆瓣链接 https://movie.douban.com/subject/3006772/
◎片  长 112分钟
◎导  演 尼尔·布洛姆坎普 Neill Blomkamp
◎编  剧 尼尔·布洛姆坎普 Neill Blomkamp / 特丽·塔歇尔 Terri Tatchell
◎主  演 沙尔托·科普雷 Sharlto Copley
       詹森·库伯 Jason Cope
       娜塔莉·博尔特 Nathalie Boltt
       茜尔雯·斯特赖克 Sylvaine Strike
       约翰·萨莫尔 John Sumner
       威廉·艾伦·扬 William Allen Young
       尼克·布雷克 Nick Blake
       杰德·布罗菲 Jed Brophy
       路易斯·米纳尔 Louis Minnaar
       瓦妮莎·海伍德 Vanessa Haywood
       玛丽安·胡曼 Marian Hooman
       维多利奥·莱奥纳迪 Vittorio Leonardi
       曼德拉·加杜卡 Mandla Gaduka
       约翰·范·肖尔 Johan van Schoor
       斯特拉·斯廷坎普 Stella Steenkamp
       戴维·詹姆斯 David James
       肯尼思·恩科西 Kenneth Nkosi
       蒂姆·戈登 Tim Gordon
       莫尔内·埃拉斯姆斯 Morne Erasmus
       尤金·孔巴尼瓦 Eugene Khumbanyiwa
       赫棱基维·马德拉拉 Hlengiwe Madlala
       西雅邦加·拉德贝 Siyabonga Radebe
       梅尔特·西贝尔哈亨 Melt Sieberhagen
       安德勒·奥登达尔 Andre Odendaal
       尼克·伯莱尼 Nick Boraine
       罗伯特·霍布斯 Robert Hobbs
       Barry Strydom
       Mzwandile Nqoba
       西莫·莫加瓦扎 Simo Mogwaza
       伊丽莎白玛坎达维 Elizabeth Mkandawie
       格雷格·梅尔维尔-史密斯 Greg Melvill-Smith
       Morena Busa Sesatsa
       Themba Nkosi
       大卫·杜卡斯 David Dukas
◎标  签 科幻 | 人性 | 美国 | 第九区 | 种族 | 讽刺 | 反思 | 2009
◎简  介


  1990年,一艘巨大的飞船出现在地球上空,人们惶恐不安,却又分外好奇。经过一段时间紧张的等待,外星飞船始终没有动静。人类终于小心翼翼靠近它,强行走进舱内,结果发现了不计其数的外星人。他们形容丑陋,宛如虾子,而且健康状况极差,虚弱无力。原来这是一群来自外星的难民,他们最终被地球人接纳,并隔离在南非约翰内斯堡的一片区域内生活,此地名为“第九区”。经过长达20年的繁衍,外星难民的数量扩张至180万之多,且和周边人类的矛盾冲突不断,越来越多的人类呼吁将“大虾”赶出地球。
  
  MNU(列国同盟组织)经过磋商,决定将外星难民迁移到更为偏远的区域。MNU外星事务部门的特工威库斯(Sharlto Copley 饰)专门负责搬迁工作。威库斯在动员过程中傲慢随意,与当地居民冲突频频。最终,他为自己的行为付出代价,外星人的神秘流体将其感染,威库斯慢慢变成了外星人的模样……
◎获奖情况
  第82届奥斯卡金像奖 ?(2010)
  最佳影片(提名) 卡罗琳·康宁安?/?彼得·杰克逊
  最佳改编剧本(提名) 尼尔·布洛姆坎普?/?特丽·塔歇尔
  最佳剪辑(提名) 祖利安·格克
  最佳视觉效果(提名) 丹·考夫曼?/?彼得·迈泽尔斯?/?罗伯特·哈布罗斯?/?马特·艾特肯
  
  第67届金球奖 ?(2010)
  电影类最佳编剧(提名) 尼尔·布洛姆坎普?/?特丽·塔歇尔
  
  第19届MTV电影奖 ?(2010)
  MTV电影奖最佳惊恐戏表演(提名) 沙尔托·科普雷
  
  第22届芝加哥影评人协会奖 ?(2009)
  最具潜力演员(提名) 沙尔托·科普雷
  最具潜力导演 尼尔·布洛姆坎普
  
  第43届堪萨斯影评人协会奖 ?(2010)
  最佳科幻/恐怖片
  
  第9届凤凰城影评人协会奖 ?(2009)
  最佳新人导演 尼尔·布洛姆坎普
  
  第12届美国青少年选择奖 ?(2010)
  最佳科幻电影(提名)
  最佳科幻电影男演员(提名) 沙尔托·科普雷
  1. Video
  2. ID                                       : 1
  3. ID in the original source medium         : 4113 (0x1011)
  4. Format                                   : HEVC
  5. Format/Info                              : High Efficiency Video Coding
  6. Format profile                           : Main [email protected]@High
  7. HDR format                               : SMPTE ST 2086, HDR10 compatible
  8. Codec ID                                 : V_MPEGH/ISO/HEVC
  9. Duration                                 : 1 h 52 min
  10. Bit rate                                 : 49.0 Mb/s
  11. Width                                    : 3 840 pixels
  12. Height                                   : 2 160 pixels
  13. Display aspect ratio                     : 16:9
  14. Frame rate mode                          : Constant
  15. Frame rate                               : 23.976 (24000/1001/189150) FPS
  16. Color space                              : YUV
  17. Chroma subsampling                       : 4:2:0 (Type 2)
  18. Bit depth                                : 10 bits
  19. Bits/(Pixel*Frame)                       : 0.246
  20. Stream size                              : 38.4 GiB (78%)
  21. Title                                    : District.9.2009.2160p.BluRay.REMUX.HEVC.DTS-HD.MA.TrueHD.7.1.Atmos-FGT
  22. Language                                 : English
  23. Default                                  : No
  24. Forced                                   : No
  25. Color range                              : Limited
  26. Color primaries                          : BT.2020
  27. Transfer characteristics                 : PQ
  28. Matrix coefficients                      : BT.2020 non-constant
  29. Mastering display color primaries        : Display P3
  30. Mastering display luminance              : min: 0.0050 cd/m2, max: 4000 cd/m2
  31. Maximum Content Light Level              : 2376 cd/m2
  32. Maximum Frame-Average Light Level        : 517 cd/m2
  33. Original source medium                   : Blu-ray
  34. Audio #1
  35. ID                                       : 2
  36. ID in the original source medium         : 4352 (0x1100)
  37. Format                                   : MLP FBA 16-ch
  38. Format/Info                              : Meridian Lossless Packing FBA with 16-channel presentation
  39. Commercial name                          : Dolby TrueHD with Dolby Atmos
  40. Codec ID                                 : A_TRUEHD
  41. Duration                                 : 1 h 52 min
  42. Bit rate mode                            : Variable
  43. Bit rate                                 : 3 442 kb/s
  44. Maximum bit rate                         : 5 568 kb/s
  45. Channel(s)                               : 8 channels
  46. Channel layout                           : L R C LFE Ls Rs Lb Rb
  47. Sampling rate                            : 48.0 kHz
  48. Frame rate                               : 1 200.000 FPS (40 SPF)
  49. Compression mode                         : Lossless
  50. Stream size                              : 2.70 GiB (5%)
  51. Title                                    : District.9.2009.2160p.BluRay.REMUX.HEVC.DTS-HD.MA.TrueHD.7.1.Atmos-FGT
  52. Language                                 : English
  53. Default                                  : Yes
  54. Forced                                   : No
  55. Original source medium                   : Blu-ray
  56. Number of dynamic objects                : 11
  57. Bed channel count                        : 1 channel
  58. Bed channel configuration                : LFE
  59. Audio #2
  60. ID                                       : 3
  61. Format                                   : DTS XLL
  62. Format/Info                              : Digital Theater Systems
  63. Commercial name                          : DTS-HD Master Audio
  64. Codec ID                                 : A_DTS
  65. Duration                                 : 1 h 52 min
  66. Bit rate mode                            : Variable
  67. Bit rate                                 : 4 094 kb/s
  68. Channel(s)                               : 8 channels
  69. Channel layout                           : C L R LFE Lb Rb Lss Rss
  70. Sampling rate                            : 48.0 kHz
  71. Frame rate                               : 93.750 FPS (512 SPF)
  72. Bit depth                                : 24 bits
  73. Compression mode                         : Lossless
  74. Stream size                              : 3.21 GiB (7%)
  75. Title                                    : District.9.2009.2160p.BluRay.REMUX.HEVC.DTS-HD.MA.TrueHD.7.1.Atmos-FGT
  76. Language                                 : English
  77. Default                                  : No
  78. Forced                                   : No
  79. Audio #3
  80. ID                                       : 4
  81. ID in the original source medium         : 4352 (0x1100)
  82. Format                                   : AC-3
  83. Format/Info                              : Audio Coding 3
  84. Commercial name                          : Dolby Digital
  85. Codec ID                                 : A_AC3
  86. Duration                                 : 1 h 52 min
  87. Bit rate mode                            : Constant
  88. Bit rate                                 : 640 kb/s
  89. Channel(s)                               : 6 channels
  90. Channel layout                           : L R C LFE Ls Rs
  91. Sampling rate                            : 48.0 kHz
  92. Frame rate                               : 31.250 FPS (1536 SPF)
  93. Compression mode                         : Lossy
  94. Stream size                              : 514 MiB (1%)
  95. Title                                    : District.9.2009.2160p.BluRay.REMUX.HEVC.DTS-HD.MA.TrueHD.7.1.Atmos-FGT
  96. Language                                 : English
  97. Service kind                             : Complete Main
  98. Default                                  : No
  99. Forced                                   : No
  100. Original source medium                   : Blu-ray
  101. Audio #4
  102. ID                                       : 5
  103. ID in the original source medium         : 4354 (0x1102)
  104. Format                                   : AC-3
  105. Format/Info                              : Audio Coding 3
  106. Commercial name                          : Dolby Digital
  107. Codec ID                                 : A_AC3
  108. Duration                                 : 1 h 52 min
  109. Bit rate mode                            : Constant
  110. Bit rate                                 : 640 kb/s
  111. Channel(s)                               : 6 channels
  112. Channel layout                           : L R C LFE Ls Rs
  113. Sampling rate                            : 48.0 kHz
  114. Frame rate                               : 31.250 FPS (1536 SPF)
  115. Compression mode                         : Lossy
  116. Stream size                              : 514 MiB (1%)
  117. Title                                    : District.9.2009.2160p.BluRay.REMUX.HEVC.DTS-HD.MA.TrueHD.7.1.Atmos-FGT
  118. Language                                 : English
  119. Service kind                             : Complete Main
  120. Default                                  : No
  121. Forced                                   : No
  122. Original source medium                   : Blu-ray
  123. Audio #5
  124. ID                                       : 6
  125. ID in the original source medium         : 4355 (0x1103)
  126. Format                                   : AC-3
  127. Format/Info                              : Audio Coding 3
  128. Commercial name                          : Dolby Digital
  129. Codec ID                                 : A_AC3
  130. Duration                                 : 1 h 52 min
  131. Bit rate mode                            : Constant
  132. Bit rate                                 : 640 kb/s
  133. Channel(s)                               : 6 channels
  134. Channel layout                           : L R C LFE Ls Rs
  135. Sampling rate                            : 48.0 kHz
  136. Frame rate                               : 31.250 FPS (1536 SPF)
  137. Compression mode                         : Lossy
  138. Stream size                              : 514 MiB (1%)
  139. Title                                    : District.9.2009.2160p.BluRay.REMUX.HEVC.DTS-HD.MA.TrueHD.7.1.Atmos-FGT
  140. Language                                 : French
  141. Service kind                             : Complete Main
  142. Default                                  : No
  143. Forced                                   : No
  144. Original source medium                   : Blu-ray
  145. Audio #6
  146. ID                                       : 7
  147. ID in the original source medium         : 4356 (0x1104)
  148. Format                                   : AC-3
  149. Format/Info                              : Audio Coding 3
  150. Commercial name                          : Dolby Digital
  151. Codec ID                                 : A_AC3
  152. Duration                                 : 1 h 52 min
  153. Bit rate mode                            : Constant
  154. Bit rate                                 : 640 kb/s
  155. Channel(s)                               : 6 channels
  156. Channel layout                           : L R C LFE Ls Rs
  157. Sampling rate                            : 48.0 kHz
  158. Frame rate                               : 31.250 FPS (1536 SPF)
  159. Compression mode                         : Lossy
  160. Stream size                              : 514 MiB (1%)
  161. Title                                    : District.9.2009.2160p.BluRay.REMUX.HEVC.DTS-HD.MA.TrueHD.7.1.Atmos-FGT
  162. Language                                 : German
  163. Service kind                             : Complete Main
  164. Default                                  : No
  165. Forced                                   : No
  166. Original source medium                   : Blu-ray
  167. Audio #7
  168. ID                                       : 8
  169. ID in the original source medium         : 4357 (0x1105)
  170. Format                                   : AC-3
  171. Format/Info                              : Audio Coding 3
  172. Commercial name                          : Dolby Digital
  173. Codec ID                                 : A_AC3
  174. Duration                                 : 1 h 52 min
  175. Bit rate mode                            : Constant
  176. Bit rate                                 : 640 kb/s
  177. Channel(s)                               : 6 channels
  178. Channel layout                           : L R C LFE Ls Rs
  179. Sampling rate                            : 48.0 kHz
  180. Frame rate                               : 31.250 FPS (1536 SPF)
  181. Compression mode                         : Lossy
  182. Stream size                              : 514 MiB (1%)
  183. Title                                    : District.9.2009.2160p.BluRay.REMUX.HEVC.DTS-HD.MA.TrueHD.7.1.Atmos-FGT
  184. Language                                 : Italian
  185. Service kind                             : Complete Main
  186. Default                                  : No
  187. Forced                                   : No
  188. Original source medium                   : Blu-ray
  189. Audio #8
  190. ID                                       : 9
  191. ID in the original source medium         : 4358 (0x1106)
  192. Format                                   : AC-3
  193. Format/Info                              : Audio Coding 3
  194. Commercial name                          : Dolby Digital
  195. Codec ID                                 : A_AC3
  196. Duration                                 : 1 h 52 min
  197. Bit rate mode                            : Constant
  198. Bit rate                                 : 640 kb/s
  199. Channel(s)                               : 6 channels
  200. Channel layout                           : L R C LFE Ls Rs
  201. Sampling rate                            : 48.0 kHz
  202. Frame rate                               : 31.250 FPS (1536 SPF)
  203. Compression mode                         : Lossy
  204. Stream size                              : 514 MiB (1%)
  205. Title                                    : District.9.2009.2160p.BluRay.REMUX.HEVC.DTS-HD.MA.TrueHD.7.1.Atmos-FGT
  206. Language                                 : Russian
  207. Service kind                             : Complete Main
  208. Default                                  : No
  209. Forced                                   : No
  210. Original source medium                   : Blu-ray
  211. Audio #9
  212. ID                                       : 10
  213. ID in the original source medium         : 4359 (0x1107)
  214. Format                                   : AC-3
  215. Format/Info                              : Audio Coding 3
  216. Commercial name                          : Dolby Digital
  217. Codec ID                                 : A_AC3
  218. Duration                                 : 1 h 52 min
  219. Bit rate mode                            : Constant
  220. Bit rate                                 : 640 kb/s
  221. Channel(s)                               : 6 channels
  222. Channel layout                           : L R C LFE Ls Rs
  223. Sampling rate                            : 48.0 kHz
  224. Frame rate                               : 31.250 FPS (1536 SPF)
  225. Compression mode                         : Lossy
  226. Stream size                              : 514 MiB (1%)
  227. Title                                    : District.9.2009.2160p.BluRay.REMUX.HEVC.DTS-HD.MA.TrueHD.7.1.Atmos-FGT
  228. Language                                 : Spanish
  229. Service kind                             : Complete Main
  230. Default                                  : No
  231. Forced                                   : No
  232. Original source medium                   : Blu-ray
  233. Audio #10
  234. ID                                       : 11
  235. ID in the original source medium         : 4360 (0x1108)
  236. Format                                   : AC-3
  237. Format/Info                              : Audio Coding 3
  238. Commercial name                          : Dolby Digital
  239. Codec ID                                 : A_AC3
  240. Duration                                 : 1 h 52 min
  241. Bit rate mode                            : Constant
  242. Bit rate                                 : 640 kb/s
  243. Channel(s)                               : 6 channels
  244. Channel layout                           : L R C LFE Ls Rs
  245. Sampling rate                            : 48.0 kHz
  246. Frame rate                               : 31.250 FPS (1536 SPF)
  247. Compression mode                         : Lossy
  248. Stream size                              : 514 MiB (1%)
  249. Title                                    : District.9.2009.2160p.BluRay.REMUX.HEVC.DTS-HD.MA.TrueHD.7.1.Atmos-FGT
  250. Language                                 : Spanish
  251. Service kind                             : Complete Main
  252. Default                                  : No
  253. Forced                                   : No
  254. Original source medium                   : Blu-ray
  255. Audio #11
  256. ID                                       : 12
  257. ID in the original source medium         : 4361 (0x1109)
  258. Format                                   : AC-3
  259. Format/Info                              : Audio Coding 3
  260. Commercial name                          : Dolby Digital
  261. Codec ID                                 : A_AC3
  262. Duration                                 : 1 h 52 min
  263. Bit rate mode                            : Constant
  264. Bit rate                                 : 640 kb/s
  265. Channel(s)                               : 6 channels
  266. Channel layout                           : L R C LFE Ls Rs
  267. Sampling rate                            : 48.0 kHz
  268. Frame rate                               : 31.250 FPS (1536 SPF)
  269. Compression mode                         : Lossy
  270. Stream size                              : 514 MiB (1%)
  271. Title                                    : District.9.2009.2160p.BluRay.REMUX.HEVC.DTS-HD.MA.TrueHD.7.1.Atmos-FGT
  272. Language                                 : Ukrainian
  273. Service kind                             : Complete Main
  274. Default                                  : No
  275. Forced                                   : No
  276. Original source medium                   : Blu-ray
  277. Text #1
  278. ID                                       : 13
  279. Format                                   : UTF-8
  280. Codec ID                                 : S_TEXT/UTF8
  281. Codec ID/Info                            : UTF-8 Plain Text
  282. Duration                                 : 1 h 43 min
  283. Bit rate                                 : 62 b/s
  284. Count of elements                        : 1201
  285. Stream size                              : 47.5 KiB (0%)
  286. Title                                    : English-SRT
  287. Language                                 : English
  288. Default                                  : Yes
  289. Forced                                   : No
  290. Text #2
  291. ID                                       : 14
  292. ID in the original source medium         : 4768 (0x12A0)
  293. Format                                   : PGS
  294. Muxing mode                              : zlib
  295. Codec ID                                 : S_HDMV/PGS
  296. Codec ID/Info                            : Picture based subtitle format used on BDs/HD-DVDs
  297. Duration                                 : 1 h 48 min
  298. Bit rate                                 : 43.6 kb/s
  299. Count of elements                        : 3136
  300. Stream size                              : 33.9 MiB (0%)
  301. Title                                    : English-SDH-PGS
  302. Language                                 : English
  303. Default                                  : No
  304. Forced                                   : No
  305. Original source medium                   : Blu-ray
  306. Text #3
  307. ID                                       : 15
  308. ID in the original source medium         : 4769 (0x12A1)
  309. Format                                   : PGS
  310. Muxing mode                              : zlib
  311. Codec ID                                 : S_HDMV/PGS
  312. Codec ID/Info                            : Picture based subtitle format used on BDs/HD-DVDs
  313. Duration                                 : 1 h 43 min
  314. Bit rate                                 : 36.3 kb/s
  315. Count of elements                        : 2408
  316. Stream size                              : 27.0 MiB (0%)
  317. Title                                    : English-PGS
  318. Language                                 : English
  319. Default                                  : No
  320. Forced                                   : No
  321. Original source medium                   : Blu-ray
  322. Text #4
  323. ID                                       : 16
  324. ID in the original source medium         : 4770 (0x12A2)
  325. Format                                   : PGS
  326. Muxing mode                              : zlib
  327. Codec ID                                 : S_HDMV/PGS
  328. Codec ID/Info                            : Picture based subtitle format used on BDs/HD-DVDs
  329. Duration                                 : 1 h 48 min
  330. Bit rate                                 : 43.6 kb/s
  331. Count of elements                        : 3136
  332. Stream size                              : 33.9 MiB (0%)
  333. Title                                    : English-SDH-PGS
  334. Language                                 : English
  335. Default                                  : No
  336. Forced                                   : No
  337. Original source medium                   : Blu-ray
  338. Text #5
  339. ID                                       : 17
  340. ID in the original source medium         : 4771 (0x12A3)
  341. Format                                   : PGS
  342. Muxing mode                              : zlib
  343. Codec ID                                 : S_HDMV/PGS
  344. Codec ID/Info                            : Picture based subtitle format used on BDs/HD-DVDs
  345. Duration                                 : 1 h 43 min
  346. Bit rate                                 : 36.3 kb/s
  347. Count of elements                        : 2408
  348. Stream size                              : 27.0 MiB (0%)
  349. Title                                    : English-PGS
  350. Language                                 : English
  351. Default                                  : No
  352. Forced                                   : No
  353. Original source medium                   : Blu-ray
  354. Text #6
  355. ID                                       : 18
  356. ID in the original source medium         : 4772 (0x12A4)
  357. Format                                   : PGS
  358. Muxing mode                              : zlib
  359. Codec ID                                 : S_HDMV/PGS
  360. Codec ID/Info                            : Picture based subtitle format used on BDs/HD-DVDs
  361. Duration                                 : 1 h 43 min
  362. Bit rate                                 : 19.8 kb/s
  363. Count of elements                        : 2793
  364. Stream size                              : 14.7 MiB (0%)
  365. Title                                    : Arabic-PGS
  366. Language                                 : Arabic
  367. Default                                  : No
  368. Forced                                   : No
  369. Original source medium                   : Blu-ray
  370. Text #7
  371. ID                                       : 19
  372. ID in the original source medium         : 4773 (0x12A5)
  373. Format                                   : PGS
  374. Muxing mode                              : zlib
  375. Codec ID                                 : S_HDMV/PGS
  376. Codec ID/Info                            : Picture based subtitle format used on BDs/HD-DVDs
  377. Duration                                 : 1 h 43 min
  378. Bit rate                                 : 36.7 kb/s
  379. Count of elements                        : 2958
  380. Stream size                              : 27.2 MiB (0%)
  381. Title                                    : Chinese-PGS
  382. Language                                 : Chinese
  383. Default                                  : No
  384. Forced                                   : No
  385. Original source medium                   : Blu-ray
  386. Text #8
  387. ID                                       : 20
  388. ID in the original source medium         : 4774 (0x12A6)
  389. Format                                   : PGS
  390. Muxing mode                              : zlib
  391. Codec ID                                 : S_HDMV/PGS
  392. Codec ID/Info                            : Picture based subtitle format used on BDs/HD-DVDs
  393. Duration                                 : 1 h 43 min
  394. Bit rate                                 : 36.3 kb/s
  395. Count of elements                        : 2958
  396. Stream size                              : 27.0 MiB (0%)
  397. Title                                    : Chinese-PGS
  398. Language                                 : Chinese
  399. Default                                  : No
  400. Forced                                   : No
  401. Original source medium                   : Blu-ray
  402. Text #9
  403. ID                                       : 21
  404. ID in the original source medium         : 4775 (0x12A7)
  405. Format                                   : PGS
  406. Muxing mode                              : zlib
  407. Codec ID                                 : S_HDMV/PGS
  408. Codec ID/Info                            : Picture based subtitle format used on BDs/HD-DVDs
  409. Duration                                 : 1 h 51 min
  410. Bit rate                                 : 34.3 kb/s
  411. Count of elements                        : 3362
  412. Stream size                              : 27.4 MiB (0%)
  413. Title                                    : Czech-PGS
  414. Language                                 : Czech
  415. Default                                  : No
  416. Forced                                   : No
  417. Original source medium                   : Blu-ray
  418. Text #10
  419. ID                                       : 22
  420. ID in the original source medium         : 4776 (0x12A8)
  421. Format                                   : PGS
  422. Muxing mode                              : zlib
  423. Codec ID                                 : S_HDMV/PGS
  424. Codec ID/Info                            : Picture based subtitle format used on BDs/HD-DVDs
  425. Duration                                 : 1 h 51 min
  426. Bit rate                                 : 33.8 kb/s
  427. Count of elements                        : 2944
  428. Stream size                              : 27.0 MiB (0%)
  429. Title                                    : Danish-PGS
  430. Language                                 : Danish
  431. Default                                  : No
  432. Forced                                   : No
  433. Original source medium                   : Blu-ray
  434. Text #11
  435. ID                                       : 23
  436. ID in the original source medium         : 4777 (0x12A9)
  437. Format                                   : PGS
  438. Muxing mode                              : zlib
  439. Codec ID                                 : S_HDMV/PGS
  440. Codec ID/Info                            : Picture based subtitle format used on BDs/HD-DVDs
  441. Duration                                 : 1 h 43 min
  442. Bit rate                                 : 34.4 kb/s
  443. Count of elements                        : 2768
  444. Stream size                              : 25.6 MiB (0%)
  445. Title                                    : Dutch-PGS
  446. Language                                 : Dutch
  447. Default                                  : No
  448. Forced                                   : No
  449. Original source medium                   : Blu-ray
  450. Text #12
  451. ID                                       : 24
  452. ID in the original source medium         : 4778 (0x12AA)
  453. Format                                   : PGS
  454. Muxing mode                              : zlib
  455. Codec ID                                 : S_HDMV/PGS
  456. Codec ID/Info                            : Picture based subtitle format used on BDs/HD-DVDs
  457. Duration                                 : 1 h 43 min
  458. Bit rate                                 : 36.2 kb/s
  459. Count of elements                        : 2590
  460. Stream size                              : 26.9 MiB (0%)
  461. Title                                    : Estonian-PGS
  462. Language                                 : Estonian
  463. Default                                  : No
  464. Forced                                   : No
  465. Original source medium                   : Blu-ray
  466. Text #13
  467. ID                                       : 25
  468. ID in the original source medium         : 4779 (0x12AB)
  469. Format                                   : PGS
  470. Muxing mode                              : zlib
  471. Codec ID                                 : S_HDMV/PGS
  472. Codec ID/Info                            : Picture based subtitle format used on BDs/HD-DVDs
  473. Duration                                 : 1 h 51 min
  474. Bit rate                                 : 34.8 kb/s
  475. Count of elements                        : 3032
  476. Stream size                              : 27.7 MiB (0%)
  477. Title                                    : Finnish-PGS
  478. Language                                 : Finnish
  479. Default                                  : No
  480. Forced                                   : No
  481. Original source medium                   : Blu-ray
  482. Text #14
  483. ID                                       : 26
  484. ID in the original source medium         : 4780 (0x12AC)
  485. Format                                   : PGS
  486. Muxing mode                              : zlib
  487. Codec ID                                 : S_HDMV/PGS
  488. Codec ID/Info                            : Picture based subtitle format used on BDs/HD-DVDs
  489. Duration                                 : 1 h 51 min
  490. Bit rate                                 : 34.8 kb/s
  491. Count of elements                        : 2924
  492. Stream size                              : 27.7 MiB (0%)
  493. Title                                    : French-PGS
  494. Language                                 : French
  495. Default                                  : No
  496. Forced                                   : No
  497. Original source medium                   : Blu-ray
  498. Text #15
  499. ID                                       : 27
  500. ID in the original source medium         : 4781 (0x12AD)
  501. Format                                   : PGS
  502. Muxing mode                              : zlib
  503. Codec ID                                 : S_HDMV/PGS
  504. Codec ID/Info                            : Picture based subtitle format used on BDs/HD-DVDs
  505. Duration                                 : 1 h 43 min
  506. Bit rate                                 : 49.1 kb/s
  507. Count of elements                        : 3154
  508. Stream size                              : 36.4 MiB (0%)
  509. Title                                    : German-PGS
  510. Language                                 : German
  511. Default                                  : No
  512. Forced                                   : No
  513. Original source medium                   : Blu-ray
  514. Text #16
  515. ID                                       : 28
  516. ID in the original source medium         : 4781 (0x12AD)
  517. Format                                   : PGS
  518. Muxing mode                              : zlib
  519. Codec ID                                 : S_HDMV/PGS
  520. Codec ID/Info                            : Picture based subtitle format used on BDs/HD-DVDs
  521. Duration                                 : 1 h 42 min
  522. Bit rate                                 : 6 574 b/s
  523. Count of elements                        : 552
  524. Stream size                              : 4.83 MiB (0%)
  525. Title                                    : German-FORCED-PGS
  526. Language                                 : German
  527. Default                                  : No
  528. Forced                                   : No
  529. Original source medium                   : Blu-ray
  530. Text #17
  531. ID                                       : 29
  532. ID in the original source medium         : 4782 (0x12AE)
  533. Format                                   : PGS
  534. Muxing mode                              : zlib
  535. Codec ID                                 : S_HDMV/PGS
  536. Codec ID/Info                            : Picture based subtitle format used on BDs/HD-DVDs
  537. Duration                                 : 1 h 44 min
  538. Bit rate                                 : 35.2 kb/s
  539. Count of elements                        : 2644
  540. Stream size                              : 26.2 MiB (0%)
  541. Title                                    : Greek-PGS
  542. Language                                 : Greek
  543. Default                                  : No
  544. Forced                                   : No
  545. Original source medium                   : Blu-ray
  546. Text #18
  547. ID                                       : 30
  548. ID in the original source medium         : 4783 (0x12AF)
  549. Format                                   : PGS
  550. Muxing mode                              : zlib
  551. Codec ID                                 : S_HDMV/PGS
  552. Codec ID/Info                            : Picture based subtitle format used on BDs/HD-DVDs
  553. Duration                                 : 1 h 43 min
  554. Bit rate                                 : 32.2 kb/s
  555. Count of elements                        : 2958
  556. Stream size                              : 23.9 MiB (0%)
  557. Title                                    : Hindi-PGS
  558. Language                                 : Hindi
  559. Default                                  : No
  560. Forced                                   : No
  561. Original source medium                   : Blu-ray
  562. Text #19
  563. ID                                       : 31
  564. ID in the original source medium         : 4784 (0x12B0)
  565. Format                                   : PGS
  566. Muxing mode                              : zlib
  567. Codec ID                                 : S_HDMV/PGS
  568. Codec ID/Info                            : Picture based subtitle format used on BDs/HD-DVDs
  569. Duration                                 : 1 h 51 min
  570. Bit rate                                 : 36.9 kb/s
  571. Count of elements                        : 3076
  572. Stream size                              : 29.4 MiB (0%)
  573. Title                                    : Hungarian-PGS
  574. Language                                 : Hungarian
  575. Default                                  : No
  576. Forced                                   : No
  577. Original source medium                   : Blu-ray
  578. Text #20
  579. ID                                       : 32
  580. ID in the original source medium         : 4785 (0x12B1)
  581. Format                                   : PGS
  582. Muxing mode                              : zlib
  583. Codec ID                                 : S_HDMV/PGS
  584. Codec ID/Info                            : Picture based subtitle format used on BDs/HD-DVDs
  585. Duration                                 : 1 h 51 min
  586. Bit rate                                 : 38.3 kb/s
  587. Count of elements                        : 2992
  588. Stream size                              : 30.5 MiB (0%)
  589. Title                                    : Italian-PGS
  590. Language                                 : Italian
  591. Default                                  : No
  592. Forced                                   : No
  593. Original source medium                   : Blu-ray
  594. Text #21
  595. ID                                       : 33
  596. ID in the original source medium         : 4785 (0x12B1)
  597. Format                                   : PGS
  598. Muxing mode                              : zlib
  599. Codec ID                                 : S_HDMV/PGS
  600. Codec ID/Info                            : Picture based subtitle format used on BDs/HD-DVDs
  601. Duration                                 : 1 h 51 min
  602. Bit rate                                 : 4 147 b/s
  603. Count of elements                        : 444
  604. Stream size                              : 3.30 MiB (0%)
  605. Title                                    : Italian-FORCED-PGS
  606. Language                                 : Italian
  607. Default                                  : No
  608. Forced                                   : No
  609. Original source medium                   : Blu-ray
  610. Text #22
  611. ID                                       : 34
  612. ID in the original source medium         : 4786 (0x12B2)
  613. Format                                   : PGS
  614. Muxing mode                              : zlib
  615. Codec ID                                 : S_HDMV/PGS
  616. Codec ID/Info                            : Picture based subtitle format used on BDs/HD-DVDs
  617. Duration                                 : 1 h 51 min
  618. Bit rate                                 : 18.1 kb/s
  619. Count of elements                        : 2622
  620. Stream size                              : 14.4 MiB (0%)
  621. Title                                    : Korean-PGS
  622. Language                                 : Korean
  623. Default                                  : No
  624. Forced                                   : No
  625. Original source medium                   : Blu-ray
  626. Text #23
  627. ID                                       : 35
  628. ID in the original source medium         : 4787 (0x12B3)
  629. Format                                   : PGS
  630. Muxing mode                              : zlib
  631. Codec ID                                 : S_HDMV/PGS
  632. Codec ID/Info                            : Picture based subtitle format used on BDs/HD-DVDs
  633. Duration                                 : 1 h 43 min
  634. Bit rate                                 : 35.9 kb/s
  635. Count of elements                        : 2699
  636. Stream size                              : 26.6 MiB (0%)
  637. Title                                    : Lithuanian-PGS
  638. Language                                 : Lithuanian
  639. Default                                  : No
  640. Forced                                   : No
  641. Original source medium                   : Blu-ray
  642. Text #24
  643. ID                                       : 36
  644. ID in the original source medium         : 4788 (0x12B4)
  645. Format                                   : PGS
  646. Muxing mode                              : zlib
  647. Codec ID                                 : S_HDMV/PGS
  648. Codec ID/Info                            : Picture based subtitle format used on BDs/HD-DVDs
  649. Duration                                 : 1 h 51 min
  650. Bit rate                                 : 29.6 kb/s
  651. Count of elements                        : 2304
  652. Stream size                              : 23.6 MiB (0%)
  653. Title                                    : Norwegian-PGS
  654. Language                                 : Norwegian
  655. Default                                  : No
  656. Forced                                   : No
  657. Original source medium                   : Blu-ray
  658. Text #25
  659. ID                                       : 37
  660. ID in the original source medium         : 4789 (0x12B5)
  661. Format                                   : PGS
  662. Muxing mode                              : zlib
  663. Codec ID                                 : S_HDMV/PGS
  664. Codec ID/Info                            : Picture based subtitle format used on BDs/HD-DVDs
  665. Duration                                 : 1 h 51 min
  666. Bit rate                                 : 25.4 kb/s
  667. Count of elements                        : 2658
  668. Stream size                              : 20.2 MiB (0%)
  669. Title                                    : Portuguese-PGS
  670. Language                                 : Portuguese
  671. Default                                  : No
  672. Forced                                   : No
  673. Original source medium                   : Blu-ray
  674. Text #26
  675. ID                                       : 38
  676. ID in the original source medium         : 4790 (0x12B6)
  677. Format                                   : PGS
  678. Muxing mode                              : zlib
  679. Codec ID                                 : S_HDMV/PGS
  680. Codec ID/Info                            : Picture based subtitle format used on BDs/HD-DVDs
  681. Duration                                 : 1 h 51 min
  682. Bit rate                                 : 35.7 kb/s
  683. Count of elements                        : 2827
  684. Stream size                              : 28.5 MiB (0%)
  685. Title                                    : Portuguese-PGS
  686. Language                                 : Portuguese
  687. Default                                  : No
  688. Forced                                   : No
  689. Original source medium                   : Blu-ray
  690. Text #27
  691. ID                                       : 39
  692. ID in the original source medium         : 4791 (0x12B7)
  693. Format                                   : PGS
  694. Muxing mode                              : zlib
  695. Codec ID                                 : S_HDMV/PGS
  696. Codec ID/Info                            : Picture based subtitle format used on BDs/HD-DVDs
  697. Duration                                 : 1 h 51 min
  698. Bit rate                                 : 35.0 kb/s
  699. Count of elements                        : 3398
  700. Stream size                              : 27.9 MiB (0%)
  701. Title                                    : Romanian-PGS
  702. Language                                 : Romanian
  703. Default                                  : No
  704. Forced                                   : No
  705. Original source medium                   : Blu-ray
  706. Text #28
  707. ID                                       : 40
  708. ID in the original source medium         : 4792 (0x12B8)
  709. Format                                   : PGS
  710. Muxing mode                              : zlib
  711. Codec ID                                 : S_HDMV/PGS
  712. Codec ID/Info                            : Picture based subtitle format used on BDs/HD-DVDs
  713. Duration                                 : 1 h 51 min
  714. Bit rate                                 : 35.5 kb/s
  715. Count of elements                        : 3522
  716. Stream size                              : 28.3 MiB (0%)
  717. Title                                    : Russian-PGS
  718. Language                                 : Russian
  719. Default                                  : No
  720. Forced                                   : No
  721. Original source medium                   : Blu-ray
  722. Text #29
  723. ID                                       : 41
  724. ID in the original source medium         : 4792 (0x12B8)
  725. Format                                   : PGS
  726. Muxing mode                              : zlib
  727. Codec ID                                 : S_HDMV/PGS
  728. Codec ID/Info                            : Picture based subtitle format used on BDs/HD-DVDs
  729. Duration                                 : 1 h 50 min
  730. Bit rate                                 : 4 855 b/s
  731. Count of elements                        : 522
  732. Stream size                              : 3.84 MiB (0%)
  733. Title                                    : Russian-FORCED-PGS
  734. Language                                 : Russian
  735. Default                                  : No
  736. Forced                                   : No
  737. Original source medium                   : Blu-ray
  738. Text #30
  739. ID                                       : 42
  740. ID in the original source medium         : 4793 (0x12B9)
  741. Format                                   : PGS
  742. Muxing mode                              : zlib
  743. Codec ID                                 : S_HDMV/PGS
  744. Codec ID/Info                            : Picture based subtitle format used on BDs/HD-DVDs
  745. Duration                                 : 1 h 51 min
  746. Bit rate                                 : 29.4 kb/s
  747. Count of elements                        : 2858
  748. Stream size                              : 23.4 MiB (0%)
  749. Title                                    : Spanish-PGS
  750. Language                                 : Spanish
  751. Default                                  : No
  752. Forced                                   : No
  753. Original source medium                   : Blu-ray
  754. Text #31
  755. ID                                       : 43
  756. ID in the original source medium         : 4793 (0x12B9)
  757. Format                                   : PGS
  758. Muxing mode                              : zlib
  759. Codec ID                                 : S_HDMV/PGS
  760. Codec ID/Info                            : Picture based subtitle format used on BDs/HD-DVDs
  761. Duration                                 : 1 h 50 min
  762. Bit rate                                 : 3 463 b/s
  763. Count of elements                        : 434
  764. Stream size                              : 2.73 MiB (0%)
  765. Title                                    : Spanish-FORCED-PGS
  766. Language                                 : Spanish
  767. Default                                  : No
  768. Forced                                   : No
  769. Original source medium                   : Blu-ray
  770. Text #32
  771. ID                                       : 44
  772. ID in the original source medium         : 4794 (0x12BA)
  773. Format                                   : PGS
  774. Muxing mode                              : zlib
  775. Codec ID                                 : S_HDMV/PGS
  776. Codec ID/Info                            : Picture based subtitle format used on BDs/HD-DVDs
  777. Duration                                 : 1 h 51 min
  778. Bit rate                                 : 33.8 kb/s
  779. Count of elements                        : 2954
  780. Stream size                              : 26.9 MiB (0%)
  781. Title                                    : Spanish-PGS
  782. Language                                 : Spanish
  783. Default                                  : No
  784. Forced                                   : No
  785. Original source medium                   : Blu-ray
  786. Text #33
  787. ID                                       : 45
  788. ID in the original source medium         : 4794 (0x12BA)
  789. Format                                   : PGS
  790. Muxing mode                              : zlib
  791. Codec ID                                 : S_HDMV/PGS
  792. Codec ID/Info                            : Picture based subtitle format used on BDs/HD-DVDs
  793. Duration                                 : 1 h 38 min
  794. Bit rate                                 : 2 816 b/s
  795. Count of elements                        : 316
  796. Stream size                              : 1.99 MiB (0%)
  797. Title                                    : Spanish-FORCED-PGS
  798. Language                                 : Spanish
  799. Default                                  : No
  800. Forced                                   : No
  801. Original source medium                   : Blu-ray
  802. Text #34
  803. ID                                       : 46
  804. ID in the original source medium         : 4795 (0x12BB)
  805. Format                                   : PGS
  806. Muxing mode                              : zlib
  807. Codec ID                                 : S_HDMV/PGS
  808. Codec ID/Info                            : Picture based subtitle format used on BDs/HD-DVDs
  809. Duration                                 : 1 h 51 min
  810. Bit rate                                 : 34.2 kb/s
  811. Count of elements                        : 3014
  812. Stream size                              : 27.3 MiB (0%)
  813. Title                                    : Sewdish-PGS
  814. Language                                 : Swedish
  815. Default                                  : No
  816. Forced                                   : No
  817. Original source medium                   : Blu-ray
  818. Text #35
  819. ID                                       : 47
  820. ID in the original source medium         : 4796 (0x12BC)
  821. Format                                   : PGS
  822. Muxing mode                              : zlib
  823. Codec ID                                 : S_HDMV/PGS
  824. Codec ID/Info                            : Picture based subtitle format used on BDs/HD-DVDs
  825. Duration                                 : 1 h 51 min
  826. Bit rate                                 : 37.6 kb/s
  827. Count of elements                        : 3385
  828. Stream size                              : 30.0 MiB (0%)
  829. Title                                    : Thai-PGS
  830. Language                                 : Thai
  831. Default                                  : No
  832. Forced                                   : No
  833. Original source medium                   : Blu-ray
  834. Text #36
  835. ID                                       : 48
  836. ID in the original source medium         : 4797 (0x12BD)
  837. Format                                   : PGS
  838. Muxing mode                              : zlib
  839. Codec ID                                 : S_HDMV/PGS
  840. Codec ID/Info                            : Picture based subtitle format used on BDs/HD-DVDs
  841. Duration                                 : 1 h 51 min
  842. Bit rate                                 : 35.1 kb/s
  843. Count of elements                        : 2954
  844. Stream size                              : 28.0 MiB (0%)
  845. Title                                    : Turkish-PGS
  846. Language                                 : Turkish
  847. Default                                  : No
  848. Forced                                   : No
  849. Original source medium                   : Blu-ray
  850. Text #37
  851. ID                                       : 49
  852. ID in the original source medium         : 4798 (0x12BE)
  853. Format                                   : PGS
  854. Muxing mode                              : zlib
  855. Codec ID                                 : S_HDMV/PGS
  856. Codec ID/Info                            : Picture based subtitle format used on BDs/HD-DVDs
  857. Duration                                 : 1 h 51 min
  858. Bit rate                                 : 38.6 kb/s
  859. Count of elements                        : 3492
  860. Stream size                              : 30.8 MiB (0%)
  861. Title                                    : Ukrainian-PGS
  862. Language                                 : Ukrainian
  863. Default                                  : No
  864. Forced                                   : No
  865. Original source medium                   : Blu-ray
  866. Text #38
  867. ID                                       : 50
  868. ID in the original source medium         : 4798 (0x12BE)
  869. Format                                   : PGS
  870. Muxing mode                              : zlib
  871. Codec ID                                 : S_HDMV/PGS
  872. Codec ID/Info                            : Picture based subtitle format used on BDs/HD-DVDs
  873. Duration                                 : 1 h 51 min
  874. Bit rate                                 : 4 908 b/s
  875. Count of elements                        : 520
  876. Stream size                              : 3.90 MiB (0%)
  877. Title                                    : Ukrainian-FORCED-PGS
  878. Language                                 : Ukrainian
  879. Default                                  : No
  880. Forced                                   : No
  881. Original source medium                   : Blu-ray
  882. Text #39
  883. ID                                       : 51
  884. ID in the original source medium         : 4799 (0x12BF)
  885. Format                                   : PGS
  886. Muxing mode                              : zlib
  887. Codec ID                                 : S_HDMV/PGS
  888. Codec ID/Info                            : Picture based subtitle format used on BDs/HD-DVDs
  889. Duration                                 : 1 h 51 min
  890. Bit rate                                 : 5 628 b/s
  891. Count of elements                        : 550
  892. Stream size                              : 4.47 MiB (0%)
  893. Title                                    : French-FORCED-PGS
  894. Language                                 : French
  895. Default                                  : No
  896. Forced                                   : No
  897. Original source medium                   : Blu-ray
  898. Text #40
  899. ID                                       : 52
  900. ID in the original source medium         : 4799 (0x12BF)
  901. Format                                   : PGS
  902. Muxing mode                              : zlib
  903. Codec ID                                 : S_HDMV/PGS
  904. Codec ID/Info                            : Picture based subtitle format used on BDs/HD-DVDs
  905. Duration                                 : 1 h 51 min
  906. Bit rate                                 : 5 628 b/s
  907. Count of elements                        : 550
  908. Stream size                              : 4.47 MiB (0%)
  909. Title                                    : French-FORCED-PGS
  910. Language                                 : French
  911. Default                                  : No
  912. Forced                                   : No
  913. Original source medium                   : Blu-ray
  914. Menu
  915. 00:00:00.000                             : en:Chapter 01
  916. 00:06:22.340                             : en:Chapter 02
  917. 00:13:25.095                             : en:Chapter 03
  918. 00:20:33.065                             : en:Chapter 04
  919. 00:27:08.752                             : en:Chapter 05
  920. 00:34:13.718                             : en:Chapter 06
  921. 00:41:57.932                             : en:Chapter 07
  922. 00:47:01.944                             : en:Chapter 08
  923. 00:54:07.953                             : en:Chapter 09
  924. 01:00:00.597                             : en:Chapter 10
  925. 01:08:25.601                             : en:Chapter 11
  926. 01:13:37.538                             : en:Chapter 12
  927. 01:21:01.857                             : en:Chapter 13
  928. 01:26:40.361                             : en:Chapter 14
  929. 01:33:41.324                             : en:Chapter 15
  930. 01:38:44.293                             : en:Chapter 16
复制代码



                                       
                                       

                                       
                                       
                                       




回复

使用道具 举报

 成长值: 3370

发表于 2020-10-12 18:30:33 | 显示全部楼层
老片了 很经典
回复 支持 反对

使用道具 举报

发表于 2020-10-12 23:04:19 | 显示全部楼层
可惜一直没有第二部``
回复 支持 反对

使用道具 举报

发表于 2020-10-13 09:08:45 | 显示全部楼层
楼主发贴辛苦了,谢谢楼主分享!我觉得蓝光电影网是注册对了!
回复 支持 反对

使用道具 举报

 成长值: 5200

发表于 2020-10-13 09:20:57 | 显示全部楼层
谢谢楼主无私分享。
回复 支持 反对

使用道具 举报

发表于 2020-10-13 13:19:26 | 显示全部楼层

这个帖子不回对不起自己!我想我是一天也不能离开蓝光电影网
回复 支持 反对

使用道具 举报

发表于 2020-10-13 19:13:25 | 显示全部楼层
老电影了,还是很经典的。
回复 支持 反对

使用道具 举报

发表于 2020-10-13 21:17:23 | 显示全部楼层
楼主发贴辛苦了,谢谢楼主分享!我觉得蓝光电影网是注册对了!
回复 支持 反对

使用道具 举报

发表于 2020-10-13 21:36:27 | 显示全部楼层
谢谢楼主无私分享。
回复 支持 反对

使用道具 举报

发表于 2020-10-14 10:09:42 | 显示全部楼层
谢谢分享!
回复

使用道具 举报

懒得打字嘛,点击右侧快捷回复 【右侧内容,后台自定义】
您需要登录后才可以回帖 登录 | 立即加入

本版积分规则

现在加入蓝光电影网,注册一个账号
上个主题 下个主题 快速回复 收藏帖子 返回列表 客服中心 搜索

手机版|小黑屋| 蓝光电影网 |网站地图 

Copyright © 2015-2019 Comsenz Inc.  Template by 蓝光电影论坛 All Rights Reserved.

Powered by 蓝光电影网 X3.4

特别声明:本站所有资源均由网上收集而来,版权归原影音公司所有,如果侵犯了你的权益,请通知我们,我们会及时删除侵权内容.

快速回复 返回顶部 返回列表