找回密码

蓝光电影网

查看: 368|回复: 7

[REMUX.HEVC] 自然之力/飓风守护 Force.of.Nature.2020.EXTENDED.2160p.BluRay.REMUX.SDR.HEVC.DTS-HD.MA.5.1-FGT 47.32GB

[复制链接]

 成长值: 16485

发表于 2020-10-12 18:03:44 | 显示全部楼层 |阅读模式


◎译  名 自然之力/飓风守护
◎片  名 Force of Nature
◎年  代 2020
◎产  地 美国
◎类  别 剧情 / 动作
◎语  言 英语
◎上映日期 2020-06-18(美国)
◎IMDb评分  4.4/10 from 4323 users
◎IMDb链接  https://www.imdb.com/title/tt10308928/
◎豆瓣评分 4.6/10 from 441 users
◎豆瓣链接 https://movie.douban.com/subject/33441957/
◎片  长 91分钟
◎导  演 麦克·鲍力施 Michael Polish
◎编  剧 Cory Miller
◎主  演 梅尔·吉布森 Mel Gibson
       凯特·波茨沃斯 Kate Bosworth
       埃米尔·赫斯基 Emile Hirsch
       大卫·札亚斯 David Zayas
       斯蒂芬妮·卡约 Stephanie Cayo
       泰勒·乔恩·奥尔森 Tyler Jon Olson
       斯温·特梅尔 Swen Temmel
       雷·埃尔南德斯 Rey Hernandez
       杰西·麦金尼 Jesy McKinney
◎标  签 犯罪 | 梅尔·吉布森 | 动作 | 2020 | 美国 | 飓风 | 美国电影 | 剧情
◎简  介


  梅尔·吉布森、凯特·波茨沃斯出演新片[自然之力](Force Of Nature,暂译)。本片由麦克·鲍力施执导,科里·米勒撰写剧本。本片讲述一名警察在飓风疏散过程中必须保护建筑物内的剩余居民,而犯罪分子则试图在建筑物内实施神秘抢劫。吉布森饰演一位固执的退休侦探,他拒绝疏散,并对出现在他家门口的窃贼进行了反击。
  1. Video
  2. ID                                       : 1
  3. ID in the original source medium         : 4113 (0x1011)
  4. Format                                   : HEVC
  5. Format/Info                              : High Efficiency Video Coding
  6. Format profile                           : Main [email protected]@High
  7. Codec ID                                 : V_MPEGH/ISO/HEVC
  8. Duration                                 : 1 h 39 min
  9. Bit rate                                 : 60.1 Mb/s
  10. Width                                    : 3 840 pixels
  11. Height                                   : 2 160 pixels
  12. Display aspect ratio                     : 16:9
  13. Frame rate mode                          : Constant
  14. Frame rate                               : 23.976 (24000/1001/189150) FPS
  15. Color space                              : YUV
  16. Chroma subsampling                       : 4:2:0
  17. Bit depth                                : 10 bits
  18. Bits/(Pixel*Frame)                       : 0.302
  19. Stream size                              : 41.8 GiB (88%)
  20. Title                                    : Force.of.Nature.2020.EXTENDED.2160p.BluRay.REMUX.SDR.HEVC.DTS-HD.MA.5.1-FGT
  21. Language                                 : English
  22. Default                                  : No
  23. Forced                                   : No
  24. Color range                              : Limited
  25. Color primaries                          : BT.709
  26. Transfer characteristics                 : BT.709
  27. Matrix coefficients                      : BT.709
  28. Original source medium                   : Blu-ray
  29. Audio #1
  30. ID                                       : 2
  31. ID in the original source medium         : 4353 (0x1101)
  32. Format                                   : DTS XLL
  33. Format/Info                              : Digital Theater Systems
  34. Commercial name                          : DTS-HD Master Audio
  35. Codec ID                                 : A_DTS
  36. Duration                                 : 1 h 39 min
  37. Bit rate mode                            : Variable
  38. Bit rate                                 : 3 963 kb/s
  39. Channel(s)                               : 6 channels
  40. Channel layout                           : C L R Ls Rs LFE
  41. Sampling rate                            : 48.0 kHz
  42. Frame rate                               : 93.750 FPS (512 SPF)
  43. Bit depth                                : 24 bits
  44. Compression mode                         : Lossless
  45. Stream size                              : 2.76 GiB (6%)
  46. Title                                    : Force.of.Nature.2020.EXTENDED.2160p.BluRay.REMUX.SDR.HEVC.DTS-HD.MA.5.1-FGT
  47. Language                                 : English
  48. Default                                  : Yes
  49. Forced                                   : No
  50. Original source medium                   : Blu-ray
  51. Audio #2
  52. ID                                       : 3
  53. ID in the original source medium         : 4352 (0x1100)
  54. Format                                   : DTS XLL
  55. Format/Info                              : Digital Theater Systems
  56. Commercial name                          : DTS-HD Master Audio
  57. Codec ID                                 : A_DTS
  58. Duration                                 : 1 h 39 min
  59. Bit rate mode                            : Variable
  60. Bit rate                                 : 3 965 kb/s
  61. Channel(s)                               : 6 channels
  62. Channel layout                           : C L R Ls Rs LFE
  63. Sampling rate                            : 48.0 kHz
  64. Frame rate                               : 93.750 FPS (512 SPF)
  65. Bit depth                                : 24 bits
  66. Compression mode                         : Lossless
  67. Stream size                              : 2.76 GiB (6%)
  68. Title                                    : Force.of.Nature.2020.EXTENDED.2160p.BluRay.REMUX.SDR.HEVC.DTS-HD.MA.5.1-FGT
  69. Language                                 : German
  70. Default                                  : No
  71. Forced                                   : No
  72. Original source medium                   : Blu-ray
  73. Text #1
  74. ID                                       : 4
  75. ID in the original source medium         : 4608 (0x1200)
  76. Format                                   : PGS
  77. Muxing mode                              : zlib
  78. Codec ID                                 : S_HDMV/PGS
  79. Codec ID/Info                            : Picture based subtitle format used on BDs/HD-DVDs
  80. Duration                                 : 1 h 34 min
  81. Bit rate                                 : 37.3 kb/s
  82. Count of elements                        : 2138
  83. Stream size                              : 25.2 MiB (0%)
  84. Title                                    : German-PGS
  85. Language                                 : German
  86. Default                                  : Yes
  87. Forced                                   : No
  88. Original source medium                   : Blu-ray
  89. Text #2
  90. ID                                       : 5
  91. ID in the original source medium         : 4609 (0x1201)
  92. Format                                   : PGS
  93. Muxing mode                              : zlib
  94. Codec ID                                 : S_HDMV/PGS
  95. Codec ID/Info                            : Picture based subtitle format used on BDs/HD-DVDs
  96. Duration                                 : 51 min 25 s
  97. Bit rate                                 : 203 b/s
  98. Count of elements                        : 8
  99. Stream size                              : 76.7 KiB (0%)
  100. Title                                    : German-PGS
  101. Language                                 : German
  102. Default                                  : No
  103. Forced                                   : No
  104. Original source medium                   : Blu-ray
  105. Menu
  106. 00:00:00.000                             : en:Chapter 01
  107. 00:08:57.828                             : en:Chapter 02
  108. 00:15:35.684                             : en:Chapter 03
  109. 00:20:44.117                             : en:Chapter 04
  110. 00:29:53.291                             : en:Chapter 05
  111. 00:39:55.976                             : en:Chapter 06
  112. 00:49:15.953                             : en:Chapter 07
  113. 00:57:55.054                             : en:Chapter 08
  114. 01:07:19.994                             : en:Chapter 09
  115. 01:15:46.959                             : en:Chapter 10
  116. 01:26:03.491                             : en:Chapter 11
  117. 01:33:14.088                             : en:Chapter 12
复制代码



                                       
                                       

                                       
                                       
                                       




回复

使用道具 举报

 成长值: 5155

发表于 2020-10-13 09:21:34 | 显示全部楼层
谢谢楼主无私分享。
回复 支持 反对

使用道具 举报

发表于 2020-10-13 10:07:55 | 显示全部楼层
看看 电影
回复

使用道具 举报

发表于 2020-10-14 01:56:38 | 显示全部楼层

楼主太厉害了!楼主,电影应该很好看我觉得蓝光电影网真是个好地方!
回复 支持 反对

使用道具 举报

发表于 2020-10-14 10:06:28 | 显示全部楼层
谢谢分享!
回复

使用道具 举报

发表于 2020-10-14 21:10:00 | 显示全部楼层

这东西我收了!谢谢楼主!蓝光电影网真好!
回复 支持 反对

使用道具 举报

发表于 2020-10-15 10:08:09 | 显示全部楼层
楼主发贴辛苦了,谢谢楼主分享!我觉得蓝光电影网是注册对了!
回复 支持 反对

使用道具 举报

发表于 2020-10-20 22:30:33 | 显示全部楼层

我看不错噢 谢谢楼主!蓝光电影网越来越好!
回复 支持 反对

使用道具 举报

懒得打字嘛,点击右侧快捷回复 【右侧内容,后台自定义】
您需要登录后才可以回帖 登录 | 立即加入

本版积分规则

现在加入蓝光电影网,注册一个账号
上个主题 下个主题 快速回复 收藏帖子 返回列表 客服中心 搜索

手机版|小黑屋| 蓝光电影网 |网站地图 

Copyright © 2015-2019 Comsenz Inc.  Template by 蓝光电影论坛 All Rights Reserved.

Powered by 蓝光电影网 X3.4

特别声明:本站所有资源均由网上收集而来,版权归原影音公司所有,如果侵犯了你的权益,请通知我们,我们会及时删除侵权内容.

快速回复 返回顶部 返回列表