找回密码

蓝光电影网

查看: 240|回复: 2

[10bit.SDR] 自然之力/飓风守护 Force.of.Nature.2020.EXTENDED.2160p.BluRay.x265.10bit.SDR.DTS-HD.MA.5.1-SWTYBLZ 38.35GB

[复制链接]

 成长值: 16485

发表于 2020-10-12 18:00:48 | 显示全部楼层 |阅读模式


◎译  名 自然之力/飓风守护
◎片  名 Force of Nature
◎年  代 2020
◎产  地 美国
◎类  别 剧情 / 动作
◎语  言 英语
◎上映日期 2020-06-18(美国)
◎IMDb评分  4.4/10 from 4323 users
◎IMDb链接  https://www.imdb.com/title/tt10308928/
◎豆瓣评分 4.6/10 from 441 users
◎豆瓣链接 https://movie.douban.com/subject/33441957/
◎片  长 91分钟
◎导  演 麦克·鲍力施 Michael Polish
◎编  剧 Cory Miller
◎主  演 梅尔·吉布森 Mel Gibson
       凯特·波茨沃斯 Kate Bosworth
       埃米尔·赫斯基 Emile Hirsch
       大卫·札亚斯 David Zayas
       斯蒂芬妮·卡约 Stephanie Cayo
       泰勒·乔恩·奥尔森 Tyler Jon Olson
       斯温·特梅尔 Swen Temmel
       雷·埃尔南德斯 Rey Hernandez
       杰西·麦金尼 Jesy McKinney
◎标  签 犯罪 | 梅尔·吉布森 | 动作 | 2020 | 美国 | 飓风 | 美国电影 | 剧情
◎简  介


  梅尔·吉布森、凯特·波茨沃斯出演新片[自然之力](Force Of Nature,暂译)。本片由麦克·鲍力施执导,科里·米勒撰写剧本。本片讲述一名警察在飓风疏散过程中必须保护建筑物内的剩余居民,而犯罪分子则试图在建筑物内实施神秘抢劫。吉布森饰演一位固执的退休侦探,他拒绝疏散,并对出现在他家门口的窃贼进行了反击。
  1. Video
  2. ID                                       : 1
  3. Format                                   : HEVC
  4. Format/Info                              : High Efficiency Video Coding
  5. Format profile                           : Main [email protected]@High
  6. Codec ID                                 : V_MPEGH/ISO/HEVC
  7. Duration                                 : 1 h 39 min
  8. Bit rate                                 : 50.3 Mb/s
  9. Width                                    : 3 840 pixels
  10. Height                                   : 1 608 pixels
  11. Display aspect ratio                     : 2.40:1
  12. Frame rate mode                          : Constant
  13. Frame rate                               : 23.976 (24000/1001/189150) FPS
  14. Color space                              : YUV
  15. Chroma subsampling                       : 4:2:0
  16. Bit depth                                : 10 bits
  17. Bits/(Pixel*Frame)                       : 0.339
  18. Stream size                              : 34.9 GiB (92%)
  19. Title                                    : Force.of.Nature.2020.EXTENDED.2160p.BluRay.x265.10bit.SDR.DTS-HD.MA.5.1-SWTYBLZ
  20. Writing library                          : x265 3.0ed72af837053:[Windows][GCC 8.2.0][64 bit] 10bit
  21. Encoding settings                        : cpuid=1111039 / frame-threads=6 / numa-pools=40 / wpp / no-pmode / no-pme / no-psnr / no-ssim / log-level=2 / input-csp=1 / input-res=3840x1608 / interlace=0 / total-frames=143179 / level-idc=51 / high-tier=1 / uhd-bd=0 / ref=3 / no-allow-non-conformance / repeat-headers / annexb / aud / hrd / info / hash=0 / no-temporal-layers / no-open-gop / min-keyint=1 / keyint=24 / gop-lookahead=0 / bframes=4 / b-adapt=2 / b-pyramid / bframe-bias=0 / rc-lookahead=25 / lookahead-slices=4 / scenecut=40 / radl=0 / no-splice / no-intra-refresh / ctu=64 / min-cu-size=8 / no-rect / no-amp / max-tu-size=32 / tu-inter-depth=1 / tu-intra-depth=1 / limit-tu=0 / rdoq-level=0 / dynamic-rd=0.00 / no-ssim-rd / signhide / no-tskip / nr-intra=0 / nr-inter=0 / no-constrained-intra / strong-intra-smoothing / max-merge=2 / limit-refs=3 / no-limit-modes / me=1 / subme=2 / merange=57 / temporal-mvp / weightp / no-weightb / no-analyze-src-pics / deblock=0:0 / no-sao / no-sao-non-deblock / rd=3 / no-early-skip / rskip / no-fast-intra / no-tskip-fast / no-cu-lossless / no-b-intra / no-splitrd-skip / rdpenalty=0 / psy-rd=2.00 / psy-rdoq=0.00 / no-rd-refine / no-lossless / cbqpoffs=0 / crqpoffs=0 / rc=crf / crf=16.0 / qcomp=0.60 / qpstep=4 / stats-write=0 / stats-read=0 / vbv-maxrate=160000 / vbv-bufsize=160000 / vbv-init=0.9 / crf-max=0.0 / crf-min=0.0 / ipratio=1.40 / pbratio=1.30 / aq-mode=1 / aq-strength=1.00 / cutree / zone-count=0 / no-strict-cbr / qg-size=32 / no-rc-grain / qpmax=69 / qpmin=0 / no-const-vbv / sar=1 / overscan=0 / videoformat=5 / range=0 / colorprim=2 / transfer=2 / colormatrix=2 / chromaloc=0 / display-window=0 / max-cll=0,0 / min-luma=0 / max-luma=1023 / log2-max-poc-lsb=8 / vui-timing-info / vui-hrd-info / slices=1 / opt-qp-pps / opt-ref-list-length-pps / no-multi-pass-opt-rps / scenecut-bias=0.05 / no-opt-cu-delta-qp / no-aq-motion / no-hdr / no-hdr-opt / no-dhdr10-opt / no-idr-recovery-sei / analysis-reuse-level=5 / scale-factor=0 / refine-intra=0 / refine-inter=0 / refine-mv=0 / refine-ctu-distortion=0 / no-limit-sao / ctu-info=0 / no-lowpass-dct / refine-analysis-type=0 / copy-pic=1 / max-ausize-factor=1.0 / no-dynamic-refine / no-single-sei / no-hevc-aq / qp-adaptation-range=1.00
  22. Language                                 : English
  23. Default                                  : Yes
  24. Forced                                   : No
  25. Audio #1
  26. ID                                       : 2
  27. ID in the original source medium         : 4353 (0x1101)
  28. Format                                   : DTS XLL
  29. Format/Info                              : Digital Theater Systems
  30. Commercial name                          : DTS-HD Master Audio
  31. Codec ID                                 : A_DTS
  32. Duration                                 : 1 h 39 min
  33. Bit rate mode                            : Variable
  34. Bit rate                                 : 3 963 kb/s
  35. Channel(s)                               : 6 channels
  36. Channel layout                           : C L R Ls Rs LFE
  37. Sampling rate                            : 48.0 kHz
  38. Frame rate                               : 93.750 FPS (512 SPF)
  39. Bit depth                                : 24 bits
  40. Compression mode                         : Lossless
  41. Stream size                              : 2.76 GiB (7%)
  42. Title                                    : Force.of.Nature.2020.EXTENDED.2160p.BluRay.x265.10bit.SDR.DTS-HD.MA.5.1-SWTYBLZ
  43. Language                                 : English
  44. Default                                  : Yes
  45. Forced                                   : No
  46. Original source medium                   : Blu-ray
  47. Audio #2
  48. ID                                       : 3
  49. Format                                   : AC-3
  50. Format/Info                              : Audio Coding 3
  51. Commercial name                          : Dolby Digital
  52. Codec ID                                 : A_AC3
  53. Duration                                 : 1 h 39 min
  54. Bit rate mode                            : Constant
  55. Bit rate                                 : 640 kb/s
  56. Channel(s)                               : 6 channels
  57. Channel layout                           : L R C LFE Ls Rs
  58. Sampling rate                            : 48.0 kHz
  59. Frame rate                               : 31.250 FPS (1536 SPF)
  60. Compression mode                         : Lossy
  61. Stream size                              : 456 MiB (1%)
  62. Title                                    : Force.of.Nature.2020.EXTENDED.2160p.BluRay.x265.10bit.SDR.DTS-HD.MA.5.1-SWTYBLZ
  63. Language                                 : English
  64. Service kind                             : Complete Main
  65. Default                                  : No
  66. Forced                                   : No
  67. Text #1
  68. ID                                       : 4
  69. ID in the original source medium         : 4608 (0x1200)
  70. Format                                   : PGS
  71. Muxing mode                              : zlib
  72. Codec ID                                 : S_HDMV/PGS
  73. Codec ID/Info                            : Picture based subtitle format used on BDs/HD-DVDs
  74. Duration                                 : 1 h 34 min
  75. Bit rate                                 : 37.3 kb/s
  76. Count of elements                        : 2138
  77. Stream size                              : 25.2 MiB (0%)
  78. Title                                    : German-PGS
  79. Language                                 : German
  80. Default                                  : No
  81. Forced                                   : No
  82. Original source medium                   : Blu-ray
  83. Text #2
  84. ID                                       : 5
  85. ID in the original source medium         : 4609 (0x1201)
  86. Format                                   : PGS
  87. Muxing mode                              : zlib
  88. Codec ID                                 : S_HDMV/PGS
  89. Codec ID/Info                            : Picture based subtitle format used on BDs/HD-DVDs
  90. Duration                                 : 51 min 25 s
  91. Bit rate                                 : 203 b/s
  92. Count of elements                        : 8
  93. Stream size                              : 76.7 KiB (0%)
  94. Title                                    : German-FORCED-PGS
  95. Language                                 : German
  96. Default                                  : No
  97. Forced                                   : No
  98. Original source medium                   : Blu-ray
  99. Menu
  100. 00:00:00.000                             : en:Chapter 01
  101. 00:08:57.828                             : en:Chapter 02
  102. 00:15:35.684                             : en:Chapter 03
  103. 00:20:44.117                             : en:Chapter 04
  104. 00:29:53.291                             : en:Chapter 05
  105. 00:39:55.976                             : en:Chapter 06
  106. 00:49:15.953                             : en:Chapter 07
  107. 00:57:55.054                             : en:Chapter 08
  108. 01:07:19.994                             : en:Chapter 09
  109. 01:15:46.959                             : en:Chapter 10
  110. 01:26:03.491                             : en:Chapter 11
  111. 01:33:14.088                             : en:Chapter 12
复制代码





                                       
                                       

                                       
                                       
                                       




回复

使用道具 举报

发表于 2020-10-14 10:38:10 | 显示全部楼层
谢谢分享!
回复

使用道具 举报

 成长值: 280

发表于 2020-10-17 20:17:23 | 显示全部楼层
我想下载了看看如何呀
回复 支持 反对

使用道具 举报

懒得打字嘛,点击右侧快捷回复 【右侧内容,后台自定义】
您需要登录后才可以回帖 登录 | 立即加入

本版积分规则

现在加入蓝光电影网,注册一个账号
上个主题 下个主题 快速回复 收藏帖子 返回列表 客服中心 搜索

手机版|小黑屋| 蓝光电影网 |网站地图 

Copyright © 2015-2019 Comsenz Inc.  Template by 蓝光电影论坛 All Rights Reserved.

Powered by 蓝光电影网 X3.4

特别声明:本站所有资源均由网上收集而来,版权归原影音公司所有,如果侵犯了你的权益,请通知我们,我们会及时删除侵权内容.

快速回复 返回顶部 返回列表