找回密码

蓝光电影网

查看: 2953|回复: 79

[REMUX.HEVC] 斯巴达300勇士/300壮士:斯巴达的逆袭 300.2006.2160p.BluRay.REMUX.HEVC.DTS-HD.MA.TrueHD.7.1.Atmos-FGT 57.64GB

  [复制链接]

 成长值: 16890

发表于 2020-10-5 18:49:11 | 显示全部楼层 |阅读模式


◎译  名 斯巴达300勇士/300壮士:斯巴达的逆袭(台)/300斯巴达勇士/三百勇士/战狼300(港)
◎片  名 300
◎年  代 2006
◎产  地 美国
◎类  别 动作 / 历史 / 战争
◎语  言 英语
◎上映日期 2006-12-09(BNAT电影节) / 2007-03-09(美国)
◎IMDb评分  7.6/10 from 724087 users
◎IMDb链接  https://www.imdb.com/title/tt0416449/
◎豆瓣评分 7.8/10 from 133045 users
◎豆瓣链接 https://movie.douban.com/subject/1853176/
◎片  长 117分钟
◎导  演 扎克·施奈德 Zack Snyder
◎编  剧 扎克·施奈德 Zack Snyder / 库尔特·约恩斯塔德 Kurt Johnstad / 迈克尔·高顿 Michael Gordon / 弗兰克·米勒 Frank Miller
◎主  演 杰拉德·巴特勒 Gerard Butler
       琳娜·海蒂 Lena Headey
       多米尼克·韦斯特 Dominic West
       大卫·文翰 David Wenham
       文森特·里根 Vincent Regan
       迈克尔·法斯宾德 Michael Fassbender
       汤姆·威斯多姆 Tom Wisdom
       安德鲁·普利文 Andrew Pleavin
       安德鲁·蒂曼 Andrew Tiernan
       罗德里戈·桑托罗 Rodrigo Santoro
       凯利·克雷格 Kelly Craig
       泰勒·内策尔 Tyler Neitzel
       提姆·康纳利 Tim Connolly
       玛丽·朱莉叶·里夫斯特 Marie-Julie Rivest
       彼得·门萨 Peter Mensah
       亚瑟·霍尔顿 Arthur Holden
       丹尼斯·圣约翰 Dennis St John
       尼尔·纳皮尔 Neil Napier
       戴兰·史密斯 Dylan Smith
       毛里齐奥·泰拉扎诺 Maurizio Terrazzano
       夸西·宋桂 Kwasi Songui
       安德鲁·舍夫 Andrew Shaver
       罗宾·威尔科克 Robin Wilcock
       蒂龙·本斯金 Tyrone Benskin
       罗伯特·梅耶 Robert Maillet
       帕特里克·萨邦圭 Patrick Sabongui
       加里·A·赫克 Gary A. Hecker
       达伦·萨赫拉维 Darren Shahlavi
       马克·托蒂尔 Marc Trottier
       阿格涅丝卡·乌诺洛斯卡 Agnieshka Wnorowska
       Alex Ivanovici
       迈克尔·西奈尔尼科夫 Michael Sinelnikoff
       Amélie Sorel
       Atif Y. Siddiqi
       史蒂芬·麦克哈蒂 Stephen McHattie
       Elisabeth Etienne
◎标  签 战争 | 史诗 | 美国 | 动作 | 历史 | 暴力 | 经典 | 暴力美学
◎简  介


  这部电影描述了人类史上最残酷的战争之一:温泉关之战。公元前480年,波斯国王薛西斯一世(罗德里格?桑托罗 Rodrigo Santoro 饰)亲率30万大军征战希腊。希腊各个城邦迅速派出军队结成了联军,准备抵御波斯军队的入侵。
  
  防线的最前线设在希腊的温泉关,此处由斯巴达 城的国王列奥尼达(杰拉德?巴特勒 Gerard Butler 饰)率领本城300精兵和联军4000余人镇守。由于叛徒的出卖,希腊军队被波斯军队抄到了身后形成围剿之势。列奥尼达为了保存联军实力,让联军首先撤退,自己率领300精兵死守温泉关断后。
  
  数以十万波斯大军浩浩汤汤蜂拥而至,自知必死的斯巴达士兵反而士气高涨,在战斗中爆发出惊人的战力。整个战争整整持续了2天,最后列奥尼达和他的300精兵全部阵亡,而波斯军队则损失了20000多士兵,薛西斯一世的两个兄弟也在此役中战死……
◎获奖情况
  第16届MTV电影奖 ?(2007)
  MTV电影奖年度电影(提名)
  MTV电影奖最佳表演(提名) 杰拉德·巴特勒
  MTV电影奖突破表演奖(提名) 琳娜·海蒂
  MTV电影奖最佳打斗 杰拉德·巴特勒
  MTV电影奖最佳反派(提名) 罗德里戈·桑托罗
  1. Video
  2. ID                                       : 1
  3. ID in the original source medium         : 4113 (0x1011)
  4. Format                                   : HEVC
  5. Format/Info                              : High Efficiency Video Coding
  6. Format profile                           : Main [email protected]@High
  7. HDR format                               : SMPTE ST 2086, HDR10 compatible
  8. Codec ID                                 : V_MPEGH/ISO/HEVC
  9. Duration                                 : 1 h 56 min
  10. Bit rate                                 : 59.8 Mb/s
  11. Width                                    : 3 840 pixels
  12. Height                                   : 2 160 pixels
  13. Display aspect ratio                     : 16:9
  14. Frame rate mode                          : Constant
  15. Frame rate                               : 23.976 (24000/1001/189150) FPS
  16. Color space                              : YUV
  17. Chroma subsampling                       : 4:2:0 (Type 2)
  18. Bit depth                                : 10 bits
  19. Bits/(Pixel*Frame)                       : 0.300
  20. Stream size                              : 48.7 GiB (84%)
  21. Title                                    : 300.2006.2160p.BluRay.REMUX.HEVC.DTS-HD.MA.TrueHD.7.1.Atmos-FGT
  22. Writing library                          : ATEME Titan File 3.9.6 (4.9.6.2)        
  23. Language                                 : English
  24. Default                                  : No
  25. Forced                                   : No
  26. Color range                              : Limited
  27. Color primaries                          : BT.2020
  28. Transfer characteristics                 : PQ
  29. Matrix coefficients                      : BT.2020 non-constant
  30. Mastering display color primaries        : Display P3
  31. Mastering display luminance              : min: 0.0001 cd/m2, max: 1000 cd/m2
  32. Maximum Content Light Level              : 439 cd/m2
  33. Maximum Frame-Average Light Level        : 106 cd/m2
  34. Original source medium                   : Blu-ray
  35. Audio #1
  36. ID                                       : 2
  37. ID in the original source medium         : 4352 (0x1100)
  38. Format                                   : MLP FBA 16-ch
  39. Format/Info                              : Meridian Lossless Packing FBA with 16-channel presentation
  40. Commercial name                          : Dolby TrueHD with Dolby Atmos
  41. Codec ID                                 : A_TRUEHD
  42. Duration                                 : 1 h 56 min
  43. Bit rate mode                            : Variable
  44. Bit rate                                 : 3 343 kb/s
  45. Maximum bit rate                         : 5 451 kb/s
  46. Channel(s)                               : 8 channels
  47. Channel layout                           : L R C LFE Ls Rs Lb Rb
  48. Sampling rate                            : 48.0 kHz
  49. Frame rate                               : 1 200.000 FPS (40 SPF)
  50. Compression mode                         : Lossless
  51. Stream size                              : 2.72 GiB (5%)
  52. Title                                    : 300.2006.2160p.BluRay.REMUX.HEVC.DTS-HD.MA.TrueHD.7.1.Atmos-FGT
  53. Language                                 : English
  54. Default                                  : Yes
  55. Forced                                   : No
  56. Original source medium                   : Blu-ray
  57. Number of dynamic objects                : 11
  58. Bed channel count                        : 1 channel
  59. Bed channel configuration                : LFE
  60. Audio #2
  61. ID                                       : 3
  62. Format                                   : DTS XLL
  63. Format/Info                              : Digital Theater Systems
  64. Commercial name                          : DTS-HD Master Audio
  65. Codec ID                                 : A_DTS
  66. Duration                                 : 1 h 56 min
  67. Bit rate mode                            : Variable
  68. Bit rate                                 : 3 932 kb/s
  69. Channel(s)                               : 8 channels
  70. Channel layout                           : C L R LFE Lb Rb Lss Rss
  71. Sampling rate                            : 48.0 kHz
  72. Frame rate                               : 93.750 FPS (512 SPF)
  73. Bit depth                                : 24 bits
  74. Compression mode                         : Lossless
  75. Stream size                              : 3.20 GiB (6%)
  76. Title                                    : 300.2006.2160p.BluRay.REMUX.HEVC.DTS-HD.MA.TrueHD.7.1.Atmos-FGT
  77. Language                                 : English
  78. Default                                  : No
  79. Forced                                   : No
  80. Audio #3
  81. ID                                       : 4
  82. ID in the original source medium         : 4352 (0x1100)
  83. Format                                   : AC-3
  84. Format/Info                              : Audio Coding 3
  85. Commercial name                          : Dolby Digital
  86. Codec ID                                 : A_AC3
  87. Duration                                 : 1 h 56 min
  88. Bit rate mode                            : Constant
  89. Bit rate                                 : 448 kb/s
  90. Channel(s)                               : 6 channels
  91. Channel layout                           : L R C LFE Ls Rs
  92. Sampling rate                            : 48.0 kHz
  93. Frame rate                               : 31.250 FPS (1536 SPF)
  94. Compression mode                         : Lossy
  95. Stream size                              : 374 MiB (1%)
  96. Title                                    : 300.2006.2160p.BluRay.REMUX.HEVC.DTS-HD.MA.TrueHD.7.1.Atmos-FGT
  97. Language                                 : English
  98. Service kind                             : Complete Main
  99. Default                                  : No
  100. Forced                                   : No
  101. Original source medium                   : Blu-ray
  102. Audio #4
  103. ID                                       : 5
  104. ID in the original source medium         : 4353 (0x1101)
  105. Format                                   : AC-3
  106. Format/Info                              : Audio Coding 3
  107. Commercial name                          : Dolby Digital
  108. Codec ID                                 : A_AC3
  109. Duration                                 : 1 h 56 min
  110. Bit rate mode                            : Constant
  111. Bit rate                                 : 192 kb/s
  112. Channel(s)                               : 2 channels
  113. Channel layout                           : L R
  114. Sampling rate                            : 48.0 kHz
  115. Frame rate                               : 31.250 FPS (1536 SPF)
  116. Compression mode                         : Lossy
  117. Stream size                              : 160 MiB (0%)
  118. Title                                    : 300.2006.2160p.BluRay.REMUX.HEVC.DTS-HD.MA.TrueHD.7.1.Atmos-FGT
  119. Language                                 : English
  120. Service kind                             : Complete Main
  121. Default                                  : No
  122. Forced                                   : No
  123. Original source medium                   : Blu-ray
  124. Audio #5
  125. ID                                       : 6
  126. ID in the original source medium         : 4354 (0x1102)
  127. Format                                   : AC-3
  128. Format/Info                              : Audio Coding 3
  129. Commercial name                          : Dolby Digital
  130. Codec ID                                 : A_AC3
  131. Duration                                 : 1 h 56 min
  132. Bit rate mode                            : Constant
  133. Bit rate                                 : 448 kb/s
  134. Channel(s)                               : 6 channels
  135. Channel layout                           : L R C LFE Ls Rs
  136. Sampling rate                            : 48.0 kHz
  137. Frame rate                               : 31.250 FPS (1536 SPF)
  138. Compression mode                         : Lossy
  139. Stream size                              : 374 MiB (1%)
  140. Title                                    : 300.2006.2160p.BluRay.REMUX.HEVC.DTS-HD.MA.TrueHD.7.1.Atmos-FGT
  141. Language                                 : French
  142. Service kind                             : Complete Main
  143. Default                                  : No
  144. Forced                                   : No
  145. Original source medium                   : Blu-ray
  146. Audio #6
  147. ID                                       : 7
  148. ID in the original source medium         : 4355 (0x1103)
  149. Format                                   : AC-3
  150. Format/Info                              : Audio Coding 3
  151. Commercial name                          : Dolby Digital
  152. Codec ID                                 : A_AC3
  153. Duration                                 : 1 h 56 min
  154. Bit rate mode                            : Constant
  155. Bit rate                                 : 448 kb/s
  156. Channel(s)                               : 6 channels
  157. Channel layout                           : L R C LFE Ls Rs
  158. Sampling rate                            : 48.0 kHz
  159. Frame rate                               : 31.250 FPS (1536 SPF)
  160. Compression mode                         : Lossy
  161. Stream size                              : 374 MiB (1%)
  162. Title                                    : 300.2006.2160p.BluRay.REMUX.HEVC.DTS-HD.MA.TrueHD.7.1.Atmos-FGT
  163. Language                                 : French
  164. Service kind                             : Complete Main
  165. Default                                  : No
  166. Forced                                   : No
  167. Original source medium                   : Blu-ray
  168. Audio #7
  169. ID                                       : 8
  170. ID in the original source medium         : 4356 (0x1104)
  171. Format                                   : AC-3
  172. Format/Info                              : Audio Coding 3
  173. Commercial name                          : Dolby Digital
  174. Codec ID                                 : A_AC3
  175. Duration                                 : 1 h 56 min
  176. Bit rate mode                            : Constant
  177. Bit rate                                 : 448 kb/s
  178. Channel(s)                               : 6 channels
  179. Channel layout                           : L R C LFE Ls Rs
  180. Sampling rate                            : 48.0 kHz
  181. Frame rate                               : 31.250 FPS (1536 SPF)
  182. Compression mode                         : Lossy
  183. Stream size                              : 374 MiB (1%)
  184. Title                                    : 300.2006.2160p.BluRay.REMUX.HEVC.DTS-HD.MA.TrueHD.7.1.Atmos-FGT
  185. Language                                 : German
  186. Service kind                             : Complete Main
  187. Default                                  : No
  188. Forced                                   : No
  189. Original source medium                   : Blu-ray
  190. Audio #8
  191. ID                                       : 9
  192. ID in the original source medium         : 4357 (0x1105)
  193. Format                                   : AC-3
  194. Format/Info                              : Audio Coding 3
  195. Commercial name                          : Dolby Digital
  196. Codec ID                                 : A_AC3
  197. Duration                                 : 1 h 56 min
  198. Bit rate mode                            : Constant
  199. Bit rate                                 : 448 kb/s
  200. Channel(s)                               : 6 channels
  201. Channel layout                           : L R C LFE Ls Rs
  202. Sampling rate                            : 48.0 kHz
  203. Frame rate                               : 31.250 FPS (1536 SPF)
  204. Compression mode                         : Lossy
  205. Stream size                              : 374 MiB (1%)
  206. Title                                    : 300.2006.2160p.BluRay.REMUX.HEVC.DTS-HD.MA.TrueHD.7.1.Atmos-FGT
  207. Language                                 : Italian
  208. Service kind                             : Complete Main
  209. Default                                  : No
  210. Forced                                   : No
  211. Original source medium                   : Blu-ray
  212. Audio #9
  213. ID                                       : 10
  214. ID in the original source medium         : 4358 (0x1106)
  215. Format                                   : AC-3
  216. Format/Info                              : Audio Coding 3
  217. Commercial name                          : Dolby Digital
  218. Codec ID                                 : A_AC3
  219. Duration                                 : 1 h 56 min
  220. Bit rate mode                            : Constant
  221. Bit rate                                 : 448 kb/s
  222. Channel(s)                               : 6 channels
  223. Channel layout                           : L R C LFE Ls Rs
  224. Sampling rate                            : 48.0 kHz
  225. Frame rate                               : 31.250 FPS (1536 SPF)
  226. Compression mode                         : Lossy
  227. Stream size                              : 374 MiB (1%)
  228. Title                                    : 300.2006.2160p.BluRay.REMUX.HEVC.DTS-HD.MA.TrueHD.7.1.Atmos-FGT
  229. Language                                 : Spanish
  230. Service kind                             : Complete Main
  231. Default                                  : No
  232. Forced                                   : No
  233. Original source medium                   : Blu-ray
  234. Audio #10
  235. ID                                       : 11
  236. ID in the original source medium         : 4359 (0x1107)
  237. Format                                   : AC-3
  238. Format/Info                              : Audio Coding 3
  239. Commercial name                          : Dolby Digital
  240. Codec ID                                 : A_AC3
  241. Duration                                 : 1 h 56 min
  242. Bit rate mode                            : Constant
  243. Bit rate                                 : 448 kb/s
  244. Channel(s)                               : 6 channels
  245. Channel layout                           : L R C LFE Ls Rs
  246. Sampling rate                            : 48.0 kHz
  247. Frame rate                               : 31.250 FPS (1536 SPF)
  248. Compression mode                         : Lossy
  249. Stream size                              : 374 MiB (1%)
  250. Title                                    : 300.2006.2160p.BluRay.REMUX.HEVC.DTS-HD.MA.TrueHD.7.1.Atmos-FGT
  251. Language                                 : Thai
  252. Service kind                             : Complete Main
  253. Default                                  : No
  254. Forced                                   : No
  255. Original source medium                   : Blu-ray
  256. Audio #11
  257. ID                                       : 12
  258. ID in the original source medium         : 4361 (0x1109)
  259. Format                                   : AC-3
  260. Format/Info                              : Audio Coding 3
  261. Commercial name                          : Dolby Digital
  262. Codec ID                                 : A_AC3
  263. Duration                                 : 1 h 56 min
  264. Bit rate mode                            : Constant
  265. Bit rate                                 : 192 kb/s
  266. Channel(s)                               : 2 channels
  267. Channel layout                           : L R
  268. Sampling rate                            : 48.0 kHz
  269. Frame rate                               : 31.250 FPS (1536 SPF)
  270. Compression mode                         : Lossy
  271. Stream size                              : 160 MiB (0%)
  272. Title                                    : 300.2006.2160p.BluRay.REMUX.HEVC.DTS-HD.MA.TrueHD.7.1.Atmos-FGT
  273. Language                                 : English
  274. Service kind                             : Complete Main
  275. Default                                  : No
  276. Forced                                   : No
  277. Original source medium                   : Blu-ray
  278. Text #1
  279. ID                                       : 13
  280. Format                                   : UTF-8
  281. Codec ID                                 : S_TEXT/UTF8
  282. Codec ID/Info                            : UTF-8 Plain Text
  283. Duration                                 : 1 h 47 min
  284. Bit rate                                 : 39 b/s
  285. Count of elements                        : 952
  286. Stream size                              : 31.1 KiB (0%)
  287. Title                                    : English-SRT
  288. Language                                 : English
  289. Default                                  : Yes
  290. Forced                                   : No
  291. Text #2
  292. ID                                       : 14
  293. ID in the original source medium         : 4769 (0x12A1)
  294. Format                                   : PGS
  295. Muxing mode                              : zlib
  296. Codec ID                                 : S_HDMV/PGS
  297. Codec ID/Info                            : Picture based subtitle format used on BDs/HD-DVDs
  298. Duration                                 : 1 h 48 min
  299. Bit rate                                 : 24.5 kb/s
  300. Count of elements                        : 2106
  301. Stream size                              : 19.0 MiB (0%)
  302. Title                                    : English-PGS
  303. Language                                 : English
  304. Default                                  : No
  305. Forced                                   : No
  306. Original source medium                   : Blu-ray
  307. Text #3
  308. ID                                       : 15
  309. ID in the original source medium         : 4770 (0x12A2)
  310. Format                                   : PGS
  311. Muxing mode                              : zlib
  312. Codec ID                                 : S_HDMV/PGS
  313. Codec ID/Info                            : Picture based subtitle format used on BDs/HD-DVDs
  314. Duration                                 : 1 h 55 min
  315. Bit rate                                 : 20.3 kb/s
  316. Count of elements                        : 2108
  317. Stream size                              : 16.8 MiB (0%)
  318. Title                                    : French-PGS
  319. Language                                 : French
  320. Default                                  : No
  321. Forced                                   : No
  322. Original source medium                   : Blu-ray
  323. Text #4
  324. ID                                       : 16
  325. ID in the original source medium         : 4771 (0x12A3)
  326. Format                                   : PGS
  327. Muxing mode                              : zlib
  328. Codec ID                                 : S_HDMV/PGS
  329. Codec ID/Info                            : Picture based subtitle format used on BDs/HD-DVDs
  330. Duration                                 : 1 h 47 min
  331. Bit rate                                 : 28.7 kb/s
  332. Count of elements                        : 2142
  333. Stream size                              : 22.2 MiB (0%)
  334. Title                                    : German-PGS
  335. Language                                 : German
  336. Default                                  : No
  337. Forced                                   : No
  338. Original source medium                   : Blu-ray
  339. Text #5
  340. ID                                       : 17
  341. ID in the original source medium         : 4772 (0x12A4)
  342. Format                                   : PGS
  343. Muxing mode                              : zlib
  344. Codec ID                                 : S_HDMV/PGS
  345. Codec ID/Info                            : Picture based subtitle format used on BDs/HD-DVDs
  346. Duration                                 : 1 h 48 min
  347. Bit rate                                 : 25.8 kb/s
  348. Count of elements                        : 2116
  349. Stream size                              : 20.0 MiB (0%)
  350. Title                                    : Italian-PGS
  351. Language                                 : Italian
  352. Default                                  : No
  353. Forced                                   : No
  354. Original source medium                   : Blu-ray
  355. Text #6
  356. ID                                       : 18
  357. ID in the original source medium         : 4773 (0x12A5)
  358. Format                                   : PGS
  359. Muxing mode                              : zlib
  360. Codec ID                                 : S_HDMV/PGS
  361. Codec ID/Info                            : Picture based subtitle format used on BDs/HD-DVDs
  362. Duration                                 : 1 h 55 min
  363. Bit rate                                 : 20.3 kb/s
  364. Count of elements                        : 1802
  365. Stream size                              : 16.8 MiB (0%)
  366. Title                                    : Dutch-PGS
  367. Language                                 : Dutch
  368. Default                                  : No
  369. Forced                                   : No
  370. Original source medium                   : Blu-ray
  371. Text #7
  372. ID                                       : 19
  373. ID in the original source medium         : 4774 (0x12A6)
  374. Format                                   : PGS
  375. Muxing mode                              : zlib
  376. Codec ID                                 : S_HDMV/PGS
  377. Codec ID/Info                            : Picture based subtitle format used on BDs/HD-DVDs
  378. Duration                                 : 1 h 49 min
  379. Bit rate                                 : 20.8 kb/s
  380. Count of elements                        : 1932
  381. Stream size                              : 16.3 MiB (0%)
  382. Title                                    : Chinese-PGS
  383. Language                                 : Chinese
  384. Default                                  : No
  385. Forced                                   : No
  386. Original source medium                   : Blu-ray
  387. Text #8
  388. ID                                       : 20
  389. ID in the original source medium         : 4775 (0x12A7)
  390. Format                                   : PGS
  391. Muxing mode                              : zlib
  392. Codec ID                                 : S_HDMV/PGS
  393. Codec ID/Info                            : Picture based subtitle format used on BDs/HD-DVDs
  394. Duration                                 : 1 h 49 min
  395. Bit rate                                 : 16.5 kb/s
  396. Count of elements                        : 1894
  397. Stream size                              : 12.9 MiB (0%)
  398. Title                                    : Korean-PGS
  399. Language                                 : Korean
  400. Default                                  : No
  401. Forced                                   : No
  402. Original source medium                   : Blu-ray
  403. Text #9
  404. ID                                       : 21
  405. ID in the original source medium         : 4776 (0x12A8)
  406. Format                                   : PGS
  407. Muxing mode                              : zlib
  408. Codec ID                                 : S_HDMV/PGS
  409. Codec ID/Info                            : Picture based subtitle format used on BDs/HD-DVDs
  410. Duration                                 : 1 h 47 min
  411. Bit rate                                 : 24.3 kb/s
  412. Count of elements                        : 1938
  413. Stream size                              : 18.7 MiB (0%)
  414. Title                                    : Spanish-PGS
  415. Language                                 : Spanish
  416. Default                                  : No
  417. Forced                                   : No
  418. Original source medium                   : Blu-ray
  419. Text #10
  420. ID                                       : 22
  421. ID in the original source medium         : 4777 (0x12A9)
  422. Format                                   : PGS
  423. Muxing mode                              : zlib
  424. Codec ID                                 : S_HDMV/PGS
  425. Codec ID/Info                            : Picture based subtitle format used on BDs/HD-DVDs
  426. Duration                                 : 1 h 55 min
  427. Bit rate                                 : 20.0 kb/s
  428. Count of elements                        : 1498
  429. Stream size                              : 16.5 MiB (0%)
  430. Title                                    : Danish-PGS
  431. Language                                 : Danish
  432. Default                                  : No
  433. Forced                                   : No
  434. Original source medium                   : Blu-ray
  435. Text #11
  436. ID                                       : 23
  437. ID in the original source medium         : 4778 (0x12AA)
  438. Format                                   : PGS
  439. Muxing mode                              : zlib
  440. Codec ID                                 : S_HDMV/PGS
  441. Codec ID/Info                            : Picture based subtitle format used on BDs/HD-DVDs
  442. Duration                                 : 1 h 55 min
  443. Bit rate                                 : 20.6 kb/s
  444. Count of elements                        : 1496
  445. Stream size                              : 17.0 MiB (0%)
  446. Title                                    : Finnish-PGS
  447. Language                                 : Finnish
  448. Default                                  : No
  449. Forced                                   : No
  450. Original source medium                   : Blu-ray
  451. Text #12
  452. ID                                       : 24
  453. ID in the original source medium         : 4779 (0x12AB)
  454. Format                                   : PGS
  455. Muxing mode                              : zlib
  456. Codec ID                                 : S_HDMV/PGS
  457. Codec ID/Info                            : Picture based subtitle format used on BDs/HD-DVDs
  458. Duration                                 : 1 h 55 min
  459. Bit rate                                 : 19.7 kb/s
  460. Count of elements                        : 1504
  461. Stream size                              : 16.2 MiB (0%)
  462. Title                                    : Norwegian-PGS
  463. Language                                 : Norwegian
  464. Default                                  : No
  465. Forced                                   : No
  466. Original source medium                   : Blu-ray
  467. Text #13
  468. ID                                       : 25
  469. ID in the original source medium         : 4780 (0x12AC)
  470. Format                                   : PGS
  471. Muxing mode                              : zlib
  472. Codec ID                                 : S_HDMV/PGS
  473. Codec ID/Info                            : Picture based subtitle format used on BDs/HD-DVDs
  474. Duration                                 : 1 h 55 min
  475. Bit rate                                 : 20.2 kb/s
  476. Count of elements                        : 1610
  477. Stream size                              : 16.7 MiB (0%)
  478. Title                                    : Swedish-PGS
  479. Language                                 : Swedish
  480. Default                                  : No
  481. Forced                                   : No
  482. Original source medium                   : Blu-ray
  483. Text #14
  484. ID                                       : 26
  485. ID in the original source medium         : 4781 (0x12AD)
  486. Format                                   : PGS
  487. Muxing mode                              : zlib
  488. Codec ID                                 : S_HDMV/PGS
  489. Codec ID/Info                            : Picture based subtitle format used on BDs/HD-DVDs
  490. Duration                                 : 1 h 47 min
  491. Bit rate                                 : 22.6 kb/s
  492. Count of elements                        : 1908
  493. Stream size                              : 17.4 MiB (0%)
  494. Title                                    : Thai-PGS
  495. Language                                 : Thai
  496. Default                                  : No
  497. Forced                                   : No
  498. Original source medium                   : Blu-ray
  499. Menu
  500. 00:00:00.000                             : en:Chapter 01
  501. 00:05:16.524                             : en:Chapter 02
  502. 00:10:22.747                             : en:Chapter 03
  503. 00:13:16.378                             : en:Chapter 04
  504. 00:16:51.635                             : en:Chapter 05
  505. 00:19:43.932                             : en:Chapter 06
  506. 00:22:27.929                             : en:Chapter 07
  507. 00:27:03.204                             : en:Chapter 08
  508. 00:29:15.837                             : en:Chapter 09
  509. 00:33:17.328                             : en:Chapter 10
  510. 00:35:06.187                             : en:Chapter 11
  511. 00:37:48.933                             : en:Chapter 12
  512. 00:40:45.818                             : en:Chapter 13
  513. 00:44:09.897                             : en:Chapter 14
  514. 00:49:16.828                             : en:Chapter 15
  515. 00:52:45.745                             : en:Chapter 16
  516. 00:55:32.954                             : en:Chapter 17
  517. 01:01:40.363                             : en:Chapter 18
  518. 01:05:20.291                             : en:Chapter 19
  519. 01:08:42.284                             : en:Chapter 20
  520. 01:12:42.816                             : en:Chapter 21
  521. 01:15:49.670                             : en:Chapter 22
  522. 01:18:37.963                             : en:Chapter 23
  523. 01:22:20.560                             : en:Chapter 24
  524. 01:26:43.031                             : en:Chapter 25
  525. 01:29:11.095                             : en:Chapter 26
  526. 01:33:58.549                             : en:Chapter 27
  527. 01:38:54.219                             : en:Chapter 28
  528. 01:43:25.532                             : en:Chapter 29
  529. 01:49:03.119                             : en:Chapter 30
复制代码



                                       
                                       

                                       
                                       
                                       




回复

使用道具 举报

发表于 2020-10-5 20:05:59 | 显示全部楼层

楼主,大恩不言谢了!蓝光电影网是最棒的!
回复 支持 1 反对 0

使用道具 举报

发表于 2020-10-5 20:34:44 | 显示全部楼层

楼主太厉害了!楼主,电影应该很好看我觉得蓝光电影网真是个好地方!
回复 支持 反对

使用道具 举报

发表于 2020-10-5 20:55:50 | 显示全部楼层

楼主太厉害了!楼主,电影应该很好看我觉得蓝光电影网真是个好地方!
回复 支持 反对

使用道具 举报

发表于 2020-10-5 20:58:03 | 显示全部楼层
楼主发贴辛苦了,谢谢楼主分享!我觉得蓝光电影网是注册对了!
回复 支持 反对

使用道具 举报

 成长值: 1210

发表于 2020-10-5 21:32:47 | 显示全部楼层
每一个男人都该看看这部美剧,太震撼了。
回复 支持 反对

使用道具 举报

 成长值: 5560

发表于 2020-10-5 22:09:27 | 显示全部楼层
谢谢楼主无私分享。
回复 支持 反对

使用道具 举报

发表于 2020-10-5 22:26:00 | 显示全部楼层
感谢分享,乐于下载!
回复 支持 反对

使用道具 举报

发表于 2020-10-6 00:20:46 | 显示全部楼层
楼主发贴辛苦了,谢谢楼主分享!我觉得蓝光电影网是注册对了!
回复 支持 反对

使用道具 举报

发表于 2020-10-6 00:28:56 | 显示全部楼层
这部电影描述了人类史上最残酷的战争之一:温泉关之战。公元前480年,波斯国王薛西斯一世(罗德里格?桑托罗 Rodrigo Santoro 饰)亲率30万大军征战希腊。希腊各个城邦迅速派出军队结成了联军,准备抵御波斯军队的入侵。
回复 支持 反对

使用道具 举报

懒得打字嘛,点击右侧快捷回复 【右侧内容,后台自定义】
您需要登录后才可以回帖 登录 | 立即加入

本版积分规则

现在加入蓝光电影网,注册一个账号
上个主题 下个主题 快速回复 收藏帖子 返回列表 客服中心 搜索

手机版|小黑屋| 蓝光电影网 |网站地图 

Copyright © 2015-2019 Comsenz Inc.  Template by 蓝光电影论坛 All Rights Reserved.

Powered by 蓝光电影网 X3.4

特别声明:本站所有资源均由网上收集而来,版权归原影音公司所有,如果侵犯了你的权益,请通知我们,我们会及时删除侵权内容.

快速回复 返回顶部 返回列表