找回密码

蓝光电影网

查看: 134|回复: 0

[剧情片] 托马索 Tommaso.2019.1080p.BluRay.REMUX.AVC.DTS-HD.MA.5.1-FGT 33.05GB

[复制链接]

 成长值: 16440

发表于 2020-9-30 21:11:56 | 显示全部楼层 |阅读模式


◎译  名 托马索
◎片  名 Tommaso
◎年  代 2019
◎产  地 意大利,英国,美国,希腊
◎类  别 剧情
◎语  言 英语,意大利语,俄语
◎上映日期 2019-05-20(戛纳电影节) / 2020-06-05(美国)
◎IMDb评分  6/10 from 601 users
◎IMDb链接  https://www.imdb.com/title/tt9482230/
◎豆瓣评分 6.9/10 from 291 users
◎豆瓣链接 https://movie.douban.com/subject/33402218/
◎片  长 115分钟
◎导  演 阿贝尔·费拉拉 Abel Ferrara
◎编  剧 阿贝尔·费拉拉 Abel Ferrara
◎主  演 威廉·达福 Willem Dafoe
◎标  签 意大利 | 2019 | 阿贝尔·费拉拉 | 威廉·达福 | 剧情 | 戛纳电影节 | 美国 | 意大利电影
◎简  介


  影片由阿贝尔·费拉拉自编自导,该片曾入围2019年戛纳电影节参展作品。故事讲述了一位美国艺术家和他年轻的欧洲妻子尼基以及他们3岁的女儿迪迪生活在罗马的故事。
  1. Video
  2. ID                                       : 1
  3. ID in the original source medium         : 4113 (0x1011)
  4. Format                                   : AVC
  5. Format/Info                              : Advanced Video Codec
  6. Format profile                           : [email protected]
  7. Format settings                          : CABAC / 4 Ref Frames
  8. Format settings, CABAC                   : Yes
  9. Format settings, Reference frames        : 4 frames
  10. Codec ID                                 : V_MPEG4/ISO/AVC
  11. Duration                                 : 1 h 57 min
  12. Bit rate mode                            : Variable
  13. Bit rate                                 : 34.8 Mb/s
  14. Maximum bit rate                         : 38.0 Mb/s
  15. Width                                    : 1 920 pixels
  16. Height                                   : 1 080 pixels
  17. Display aspect ratio                     : 16:9
  18. Frame rate mode                          : Constant
  19. Frame rate                               : 23.976 (24000/1001/189150) FPS
  20. Color space                              : YUV
  21. Chroma subsampling                       : 4:2:0
  22. Bit depth                                : 8 bits
  23. Scan type                                : Progressive
  24. Bits/(Pixel*Frame)                       : 0.700
  25. Stream size                              : 28.6 GiB (87%)
  26. Title                                    : Tommaso.2019.1080p.BluRay.REMUX.AVC.DTS-HD.MA.5.1-FGT
  27. Language                                 : English
  28. Default                                  : No
  29. Forced                                   : No
  30. Original source medium                   : Blu-ray
  31. Audio #1
  32. ID                                       : 2
  33. ID in the original source medium         : 4352 (0x1100)
  34. Format                                   : DTS XLL
  35. Format/Info                              : Digital Theater Systems
  36. Commercial name                          : DTS-HD Master Audio
  37. Codec ID                                 : A_DTS
  38. Duration                                 : 1 h 57 min
  39. Bit rate mode                            : Variable
  40. Bit rate                                 : 3 333 kb/s
  41. Channel(s)                               : 6 channels
  42. Channel layout                           : C L R Ls Rs LFE
  43. Sampling rate                            : 48.0 kHz
  44. Frame rate                               : 93.750 FPS (512 SPF)
  45. Bit depth                                : 24 bits
  46. Compression mode                         : Lossless
  47. Stream size                              : 2.74 GiB (8%)
  48. Title                                    : Tommaso.2019.1080p.BluRay.REMUX.AVC.DTS-HD.MA.5.1-FGT
  49. Language                                 : English
  50. Default                                  : Yes
  51. Forced                                   : No
  52. Original source medium                   : Blu-ray
  53. Audio #2
  54. ID                                       : 3
  55. ID in the original source medium         : 4353 (0x1101)
  56. Format                                   : DTS XLL
  57. Format/Info                              : Digital Theater Systems
  58. Commercial name                          : DTS-HD Master Audio
  59. Codec ID                                 : A_DTS
  60. Duration                                 : 1 h 57 min
  61. Bit rate mode                            : Variable
  62. Bit rate                                 : 2 023 kb/s
  63. Channel(s)                               : 2 channels
  64. Channel layout                           : L R
  65. Sampling rate                            : 48.0 kHz
  66. Frame rate                               : 93.750 FPS (512 SPF)
  67. Bit depth                                : 24 bits
  68. Compression mode                         : Lossless
  69. Stream size                              : 1.66 GiB (5%)
  70. Title                                    : Tommaso.2019.1080p.BluRay.REMUX.AVC.DTS-HD.MA.5.1-FGT
  71. Language                                 : English
  72. Default                                  : No
  73. Forced                                   : No
  74. Original source medium                   : Blu-ray
  75. Text #1
  76. ID                                       : 4
  77. Format                                   : UTF-8
  78. Codec ID                                 : S_TEXT/UTF8
  79. Codec ID/Info                            : UTF-8 Plain Text
  80. Duration                                 : 1 h 43 min
  81. Bit rate                                 : 3 b/s
  82. Count of elements                        : 112
  83. Stream size                              : 2.96 KiB (0%)
  84. Title                                    : English-FORCED-SRT
  85. Language                                 : English
  86. Default                                  : Yes
  87. Forced                                   : Yes
  88. Text #2
  89. ID                                       : 5
  90. Format                                   : UTF-8
  91. Codec ID                                 : S_TEXT/UTF8
  92. Codec ID/Info                            : UTF-8 Plain Text
  93. Duration                                 : 1 h 51 min
  94. Bit rate                                 : 42 b/s
  95. Count of elements                        : 1159
  96. Stream size                              : 35.0 KiB (0%)
  97. Title                                    : English-SRT
  98. Language                                 : English
  99. Default                                  : No
  100. Forced                                   : No
  101. Text #3
  102. ID                                       : 6
  103. ID in the original source medium         : 4608 (0x1200)
  104. Format                                   : PGS
  105. Muxing mode                              : zlib
  106. Codec ID                                 : S_HDMV/PGS
  107. Codec ID/Info                            : Picture based subtitle format used on BDs/HD-DVDs
  108. Duration                                 : 1 h 43 min
  109. Bit rate                                 : 4 732 b/s
  110. Count of elements                        : 228
  111. Stream size                              : 3.51 MiB (0%)
  112. Title                                    : English-PGS
  113. Language                                 : English
  114. Default                                  : No
  115. Forced                                   : No
  116. Original source medium                   : Blu-ray
  117. Text #4
  118. ID                                       : 7
  119. ID in the original source medium         : 4609 (0x1201)
  120. Format                                   : PGS
  121. Muxing mode                              : zlib
  122. Codec ID                                 : S_HDMV/PGS
  123. Codec ID/Info                            : Picture based subtitle format used on BDs/HD-DVDs
  124. Duration                                 : 1 h 53 min
  125. Bit rate                                 : 57.8 kb/s
  126. Count of elements                        : 3000
  127. Stream size                              : 46.9 MiB (0%)
  128. Title                                    : English-FORCED-PGS
  129. Language                                 : English
  130. Default                                  : No
  131. Forced                                   : No
  132. Original source medium                   : Blu-ray
  133. Menu
  134. 00:00:00.000                             : en:Chapter 01
  135. 00:10:49.440                             : en:Chapter 02
  136. 00:23:05.717                             : en:Chapter 03
  137. 00:35:47.728                             : en:Chapter 04
  138. 00:47:22.798                             : en:Chapter 05
  139. 01:00:25.121                             : en:Chapter 06
  140. 01:10:23.302                             : en:Chapter 07
  141. 01:24:28.229                             : en:Chapter 08
  142. 01:35:14.166                             : en:Chapter 09
  143. 01:46:51.071                             : en:Chapter 10
  144. 01:57:41.387                             : en:Chapter 11
复制代码






                                       
                                       

                                       
                                       
                                       




回复

使用道具 举报

懒得打字嘛,点击右侧快捷回复 【右侧内容,后台自定义】
您需要登录后才可以回帖 登录 | 立即加入

本版积分规则

现在加入蓝光电影网,注册一个账号
上个主题 下个主题 快速回复 收藏帖子 返回列表 客服中心 搜索

手机版|小黑屋| 蓝光电影网 |网站地图 

Copyright © 2015-2019 Comsenz Inc.  Template by 蓝光电影论坛 All Rights Reserved.

Powered by 蓝光电影网 X3.4

特别声明:本站所有资源均由网上收集而来,版权归原影音公司所有,如果侵犯了你的权益,请通知我们,我们会及时删除侵权内容.

快速回复 返回顶部 返回列表