找回密码

蓝光电影网

查看: 3541|回复: 81

黑猩猩/黑猩猩的世界 Chimpanzee.2012.1080p.BluRay.x264-IGUANA 6.55GB

  [复制链接]

 成长值: 21925

发表于 2018-9-20 11:38:56 | 显示全部楼层 |阅读模式

黑猩猩/黑猩猩的世界 Chimpanzee.2012.1080p.BluRay.x264-IGUANA 6.55GB-1.jpg
◎译  名 黑猩猩/黑猩猩的世界(港)
◎片  名 Chimpanzee
◎年  代 2012
◎产  地 美国/坦桑尼亚
◎类  别 纪录片
◎语  言 英语
◎上映日期 2012-04-20(美国)
◎IMDb评分  7.2/10 from 5,377 users
◎IMDb链接  http://www.imdb.com/title/tt1222815/
◎豆瓣评分 8.8/10 from 2,280 users
◎豆瓣链接 https://movie.douban.com/subject/3054147/
◎片  长 78分钟
◎导  演 艾雷斯泰·法瑟吉尔 Alastair Fothergill / Mark Linfield
◎主  演 蒂姆·艾伦 Tim Allen

◎简  介

  在非洲腹地一面广袤的森林里,小黑猩猩奥斯卡诞生于此。它终日围在妈妈伊莎身旁,不离寸步,学习各种各样的生存技能,生活充满了无限乐趣。然而对于他们这一群体的领袖弗雷迪来说,时时刻刻都不容有半分松懈。他每天都要为族群的食物而绞尽脑汁,更要时刻提防对手的入侵。弗雷迪所在的领地有一片坚果园,在食物匮乏的季节里,坚果园成为所有小动物的天堂,当然也不可避免变成一个战争多发地。比邻弗雷迪领地的,是阴郁狡猾的伤疤所率领的黑猩猩族群。伤疤一族孔武有力,野心勃勃,时刻蓄谋抢占坚果园,只可惜时机未到。
  在一个狂风暴雨的夜里,伤疤向弗雷迪发起奇袭,可怜的小奥斯卡将面对出生以来和母亲的首次分别……

◎获奖情况

  第12届凤凰城影评人协会奖  (2012)
  最佳真人家庭电影(提名)

  1. Video
  2. ID                                       : 1
  3. Format                                   : AVC
  4. Format/Info                              : Advanced Video Codec
  5. Format profile                           : [url=/cdn-cgi/l/email-protection][email protected][/url]
  6. Format settings                          : CABAC / 4 Ref Frames
  7. Format settings, CABAC                   : Yes
  8. Format settings, ReFrames                : 4 frames
  9. Codec ID                                 : V_MPEG4/ISO/AVC
  10. Duration                                 : 1 h 18 min
  11. Bit rate                                 : 10.5 Mb/s
  12. Width                                    : 1 920 pixels
  13. Height                                   : 1 080 pixels
  14. Display aspect ratio                     : 16:9
  15. Frame rate mode                          : Constant
  16. Frame rate                               : 23.976 (24000/1001) FPS
  17. Color space                              : YUV
  18. Chroma subsampling                       : 4:2:0
  19. Bit depth                                : 8 bits
  20. Scan type                                : Progressive
  21. Bits/(Pixel*Frame)                       : 0.211
  22. Stream size                              : 5.60 GiB (85%)
  23. Writing library                          : x264 core 125 r2208 d9d2288
  24. Encoding settings                        : cabac=1 / ref=4 / deblock=1:0:0 / analyse=0x3:0x133 / me=umh / subme=7 / psy=1 / psy_rd=1.00:0.00 / mixed_ref=1 / me_range=16 / chroma_me=1 / trellis=1 / 8x8dct=1 / cqm=0 / deadzone=21,11 / fast_pskip=0 / chroma_qp_offset=-2 / threads=12 / lookahead_threads=2 / sliced_threads=0 / nr=0 / decimate=1 / interlaced=0 / bluray_compat=0 / constrained_intra=0 / bframes=3 / b_pyramid=2 / b_adapt=2 / b_bias=0 / direct=3 / weightb=1 / open_gop=0 / weightp=2 / keyint=250 / keyint_min=23 / scenecut=40 / intra_refresh=0 / rc_lookahead=50 / rc=2pass / mbtree=1 / bitrate=10483 / ratetol=1.0 / qcomp=0.60 / qpmin=0 / qpmax=69 / qpstep=4 / cplxblur=20.0 / qblur=0.5 / ip_ratio=1.40 / aq=1:1.00
  25. Language                                 : English
  26. Default                                  : Yes
  27. Forced                                   : No

  28. Audio
  29. ID                                       : 2
  30. Format                                   : DTS
  31. Format/Info                              : Digital Theater Systems
  32. Codec ID                                 : A_DTS
  33. Duration                                 : 1 h 18 min
  34. Bit rate mode                            : Constant
  35. Bit rate                                 : 1 509 kb/s
  36. Channel(s)                               : 6 channels
  37. Channel positions                        : Front: L C R, Side: L R, LFE
  38. Sampling rate                            : 48.0 kHz
  39. Frame rate                               : 93.750 FPS (512 SPF)
  40. Bit depth                                : 24 bits
  41. Compression mode                         : Lossy
  42. Stream size                              : 845 MiB (13%)
  43. Language                                 : English
  44. Default                                  : Yes
  45. Forced                                   : No

  46. Text
  47. ID                                       : 3
  48. Format                                   : UTF-8
  49. Codec ID                                 : S_TEXT/UTF8
  50. Codec ID/Info                            : UTF-8 Plain Text
  51. Language                                 : English
  52. Default                                  : Yes
  53. Forced                                   : No

  54. Menu
  55. 00:00:00.000                             : en:00:00:00.000
  56. 00:03:41.388                             : en:00:03:41.388
  57. 00:08:46.109                             : en:00:08:46.109
  58. 00:13:32.645                             : en:00:13:32.645
  59. 00:19:07.229                             : en:00:19:07.229
  60. 00:25:03.585                             : en:00:25:03.585
  61. 00:30:22.612                             : en:00:30:22.612
  62. 00:33:15.285                             : en:00:33:15.285
  63. 00:36:21.471                             : en:00:36:21.471
  64. 00:39:11.641                             : en:00:39:11.641
  65. 00:44:43.014                             : en:00:44:43.014
  66. 00:47:24.425                             : en:00:47:24.425
  67. 00:50:35.824                             : en:00:50:35.824
  68. 00:53:40.884                             : en:00:53:40.884
  69. 00:59:57.260                             : en:00:59:57.260
  70. 01:05:05.902                             : en:01:05:05.902
  71. 01:07:56.281                             : en:01:07:56.281
  72. 01:11:43.132                             : en:01:11:43.132
复制代码

复制代码

黑猩猩/黑猩猩的世界 Chimpanzee.2012.1080p.BluRay.x264-IGUANA 6.55GB-2.png 黑猩猩/黑猩猩的世界 Chimpanzee.2012.1080p.BluRay.x264-IGUANA 6.55GB-3.png 黑猩猩/黑猩猩的世界 Chimpanzee.2012.1080p.BluRay.x264-IGUANA 6.55GB-4.png





开通VIP免费下载本站所有资源---点这里
新手必看:资源下载、资源播放、字幕使用、等常见问题---点这里
回复

使用道具 举报

发表于 2018-9-24 13:24:22 | 显示全部楼层
貌似大猩猩更聪明?
开通VIP免费下载本站所有资源---点这里
新手必看:资源下载、资源播放、字幕使用、等常见问题---点这里
回复 支持 反对

使用道具 举报

发表于 2018-9-25 10:00:59 | 显示全部楼层
有没有中文字幕?
开通VIP免费下载本站所有资源---点这里
新手必看:资源下载、资源播放、字幕使用、等常见问题---点这里
回复 支持 反对

使用道具 举报

发表于 2018-9-25 13:27:11 | 显示全部楼层
强烈支持楼主ing……
开通VIP免费下载本站所有资源---点这里
新手必看:资源下载、资源播放、字幕使用、等常见问题---点这里
回复 支持 反对

使用道具 举报

发表于 2018-9-25 22:40:27 | 显示全部楼层
谢谢分享~~~
开通VIP免费下载本站所有资源---点这里
新手必看:资源下载、资源播放、字幕使用、等常见问题---点这里
回复

使用道具 举报

发表于 2018-9-26 22:04:27 | 显示全部楼层
无回帖,不高清,这才是人道。
终于有新的纪录片发布了~哪位发布下狂野系列的狂野新西兰么
开通VIP免费下载本站所有资源---点这里
新手必看:资源下载、资源播放、字幕使用、等常见问题---点这里
回复 支持 反对

使用道具 举报

发表于 2018-9-27 11:21:53 | 显示全部楼层
真是难得给力的帖子啊。
开通VIP免费下载本站所有资源---点这里
新手必看:资源下载、资源播放、字幕使用、等常见问题---点这里
回复 支持 反对

使用道具 举报

发表于 2018-10-4 00:33:58 | 显示全部楼层
谢谢楼主分享!!!!!!
开通VIP免费下载本站所有资源---点这里
新手必看:资源下载、资源播放、字幕使用、等常见问题---点这里
回复 支持 反对

使用道具 举报

发表于 2018-10-4 10:44:06 | 显示全部楼层
资源太少了,下载好慢
开通VIP免费下载本站所有资源---点这里
新手必看:资源下载、资源播放、字幕使用、等常见问题---点这里
回复 支持 反对

使用道具 举报

发表于 2018-10-7 17:34:21 | 显示全部楼层
强烈支持楼主ing……
开通VIP免费下载本站所有资源---点这里
新手必看:资源下载、资源播放、字幕使用、等常见问题---点这里
回复 支持 反对

使用道具 举报

懒得打字嘛,点击右侧快捷回复 【右侧内容,后台自定义】
您需要登录后才可以回帖 登录 | 立即加入

本版积分规则

现在加入蓝光电影网,注册一个账号

QQ| 手机版|小黑屋| 蓝光电影网 |网站地图

Copyright © 2015-2019 Comsenz Inc.  Template by 蓝光电影网 All Rights Reserved.

Powered by 蓝光电影网 X3.4

特别声明:本站所有资源均由网上收集而来,版权归原影音公司所有,如果侵犯了你的权益,请通知我们,我们会及时删除侵权内容.

快速回复 返回顶部 返回列表