找回密码

蓝光电影网

查看: 289|回复: 6

[REMUX.HEVC] 守墓屋 The.House.by.the.Cemetery.1981.2160p.BluRay.REMUX.HEVC.DTS-HD.MA.TrueHD.7.1.Atmos-FGT 51.89GB

[复制链接]

 成长值: 16050

发表于 2020-9-13 00:43:03 | 显示全部楼层 |阅读模式


◎译  名 守墓屋/Quella villa accanto al cimitero/Zombie Hell House/地狱三部曲之守墓屋/墓地裏の家/墓边凶宅/夜半鬼追人
◎片  名 The House By The Cemetery
◎年  代 1981
◎产  地 意大利
◎类  别 恐怖
◎语  言 意大利语
◎上映日期 1981-08-14
◎IMDb评分  6.2/10 from 12241 users
◎IMDb链接  https://www.imdb.com/title/tt0082966/
◎豆瓣评分 6.3/10 from 383 users
◎豆瓣链接 https://movie.douban.com/subject/2067487/
◎片  长 87 分钟
◎导  演 卢西奥·弗尔兹 Lucio Fulci
◎编  剧 卢西奥·弗尔兹 Lucio Fulci / 达尔达诺·萨凯蒂 Dardano Sacchetti / H·P·洛夫克拉夫特 H.P. Lovecraft
◎主  演 卡特里娜 马科尔 Catriona MacColl
       保罗马 尔科夫 Paolo Malco
       阿尼娅·皮艾洛丽 Ania Pieroni
       达妮埃拉·多里亚 Daniela Doria
       妲歌玛·拉桑德 Dagmar Lassander
       Giovanni Frezza
       卡洛·德梅约 Carlo De Mejo
       西尔维娅·科拉蒂娜 Silvia Collatina
       卢西奥·弗尔兹 Lucio Fulci
◎标  签 恐怖 | 意大利 | 惊悚 | 恐怖片 | 暴力 | 血腥 | LucioFulci | 1980s
◎简  介


  波士顿郊外的新英格兰,一幢古老的房子废弃破败。传说很久之前,一位名叫弗莱德斯坦的科学家住在这里,他曾抓狂杀害自己的妻女,从此变成了一个吃人肉为生的恐怖僵尸,存活已有上百年。虽然这些传说有些荒诞无稽,但这幢房子却是散发着不祥的气息,诸多居住于此的人最终都遭遇了不幸。
  
  因工作的缘故,小男孩鲍伯(Giovanni Frezzi 饰)随父母搬到弗莱德斯坦博士的房子里。此搬入那天开始,怪事及恐怖事件便接连发生。而鲍伯的父亲(Paolo Malco 饰)在研究疯狂科学家的生平时,也逐渐发现了其中的秘密……
  1. Video #1
  2. ID                                       : 1
  3. ID in the original source medium         : 4113 (0x1011)
  4. Format                                   : HEVC
  5. Format/Info                              : High Efficiency Video Coding
  6. Format profile                           : Main [email protected]@High
  7. HDR format                               : SMPTE ST 2086, HDR10 compatible
  8. Codec ID                                 : V_MPEGH/ISO/HEVC
  9. Duration                                 : 1 h 26 min
  10. Bit rate                                 : 72.0 Mb/s
  11. Width                                    : 3 840 pixels
  12. Height                                   : 2 160 pixels
  13. Display aspect ratio                     : 16:9
  14. Frame rate mode                          : Constant
  15. Frame rate                               : 23.976 (24000/1001/189150) FPS
  16. Color space                              : YUV
  17. Chroma subsampling                       : 4:2:0 (Type 2)
  18. Bit depth                                : 10 bits
  19. Bits/(Pixel*Frame)                       : 0.362
  20. Stream size                              : 43.4 GiB (84%)
  21. Title                                    : The.House.by.the.Cemetery.1981.2160p.BluRay.REMUX.HEVC.DTS-HD.MA.TrueHD.7.1.Atmos-FGT
  22. Language                                 : English
  23. Default                                  : Yes
  24. Forced                                   : No
  25. Color range                              : Limited
  26. Color primaries                          : BT.2020
  27. Transfer characteristics                 : PQ
  28. Matrix coefficients                      : BT.2020 non-constant
  29. Mastering display color primaries        : BT.2020
  30. Mastering display luminance              : min: 0.0001 cd/m2, max: 1000 cd/m2
  31. Original source medium                   : Blu-ray

  32. Video #2
  33. ID                                       : 2
  34. ID in the original source medium         : 4117 (0x1015)
  35. Format                                   : HEVC
  36. Format/Info                              : High Efficiency Video Coding
  37. Format profile                           : Main [email protected]@High
  38. HDR format                               : SMPTE ST 2086, HDR10 compatible
  39. Codec ID                                 : V_MPEGH/ISO/HEVC
  40. Duration                                 : 1 h 26 min
  41. Bit rate                                 : 4 730 kb/s
  42. Width                                    : 1 920 pixels
  43. Height                                   : 1 080 pixels
  44. Display aspect ratio                     : 16:9
  45. Frame rate mode                          : Constant
  46. Frame rate                               : 23.976 (24000/1001/189150) FPS
  47. Color space                              : YUV
  48. Chroma subsampling                       : 4:2:0 (Type 2)
  49. Bit depth                                : 10 bits
  50. Bits/(Pixel*Frame)                       : 0.095
  51. Stream size                              : 2.85 GiB (5%)
  52. Title                                    : The.House.by.the.Cemetery.1981.2160p.BluRay.REMUX.HEVC.DTS-HD.MA.TrueHD.7.1.Atmos-FGT
  53. Language                                 : English
  54. Default                                  : No
  55. Forced                                   : No
  56. Color range                              : Limited
  57. Color primaries                          : BT.2020
  58. Transfer characteristics                 : PQ
  59. Matrix coefficients                      : BT.2020 non-constant
  60. Mastering display color primaries        : BT.2020
  61. Mastering display luminance              : min: 0.0001 cd/m2, max: 1000 cd/m2
  62. Original source medium                   : Blu-ray
  63. Audio #1
  64. ID                                       : 3
  65. ID in the original source medium         : 4352 (0x1100)
  66. Format                                   : MLP FBA 16-ch
  67. Format/Info                              : Meridian Lossless Packing FBA with 16-channel presentation
  68. Commercial name                          : Dolby TrueHD with Dolby Atmos
  69. Codec ID                                 : A_TRUEHD
  70. Duration                                 : 1 h 26 min
  71. Bit rate mode                            : Variable
  72. Bit rate                                 : 3 187 kb/s
  73. Maximum bit rate                         : 4 701 kb/s
  74. Channel(s)                               : 8 channels
  75. Channel layout                           : L R C LFE Ls Rs Lb Rb
  76. Sampling rate                            : 48.0 kHz
  77. Frame rate                               : 1 200.000 FPS (40 SPF)
  78. Compression mode                         : Lossless
  79. Stream size                              : 1.92 GiB (4%)
  80. Title                                    : The.House.by.the.Cemetery.1981.2160p.BluRay.REMUX.HEVC.DTS-HD.MA.TrueHD.7.1.Atmos-FGT
  81. Language                                 : English
  82. Default                                  : Yes
  83. Forced                                   : No
  84. Original source medium                   : Blu-ray
  85. Number of dynamic objects                : 11
  86. Bed channel count                        : 1 channel
  87. Bed channel configuration                : LFE
  88. Audio #2
  89. ID                                       : 4
  90. Format                                   : DTS XLL
  91. Format/Info                              : Digital Theater Systems
  92. Commercial name                          : DTS-HD Master Audio
  93. Codec ID                                 : A_DTS
  94. Duration                                 : 1 h 26 min
  95. Bit rate mode                            : Variable
  96. Bit rate                                 : 3 246 kb/s
  97. Channel(s)                               : 8 channels
  98. Channel layout                           : C L R LFE Lb Rb Lss Rss
  99. Sampling rate                            : 48.0 kHz
  100. Frame rate                               : 93.750 FPS (512 SPF)
  101. Bit depth                                : 24 bits
  102. Compression mode                         : Lossless
  103. Stream size                              : 1.96 GiB (4%)
  104. Title                                    : The.House.by.the.Cemetery.1981.2160p.BluRay.REMUX.HEVC.DTS-HD.MA.TrueHD.7.1.Atmos-FGT
  105. Language                                 : English
  106. Default                                  : No
  107. Forced                                   : No
  108. Audio #3
  109. ID                                       : 5
  110. ID in the original source medium         : 4352 (0x1100)
  111. Format                                   : AC-3
  112. Format/Info                              : Audio Coding 3
  113. Commercial name                          : Dolby Digital
  114. Codec ID                                 : A_AC3
  115. Duration                                 : 1 h 26 min
  116. Bit rate mode                            : Constant
  117. Bit rate                                 : 640 kb/s
  118. Channel(s)                               : 6 channels
  119. Channel layout                           : L R C LFE Ls Rs
  120. Sampling rate                            : 48.0 kHz
  121. Frame rate                               : 31.250 FPS (1536 SPF)
  122. Compression mode                         : Lossy
  123. Stream size                              : 395 MiB (1%)
  124. Title                                    : The.House.by.the.Cemetery.1981.2160p.BluRay.REMUX.HEVC.DTS-HD.MA.TrueHD.7.1.Atmos-FGT
  125. Language                                 : English
  126. Service kind                             : Complete Main
  127. Default                                  : No
  128. Forced                                   : No
  129. Original source medium                   : Blu-ray
  130. Audio #4
  131. ID                                       : 6
  132. ID in the original source medium         : 4354 (0x1102)
  133. Format                                   : DTS XLL
  134. Format/Info                              : Digital Theater Systems
  135. Commercial name                          : DTS-HD Master Audio
  136. Codec ID                                 : A_DTS
  137. Duration                                 : 1 h 26 min
  138. Bit rate mode                            : Variable
  139. Bit rate                                 : 861 kb/s
  140. Channel(s)                               : 1 channel
  141. Channel layout                           : C
  142. Sampling rate                            : 48.0 kHz
  143. Frame rate                               : 93.750 FPS (512 SPF)
  144. Bit depth                                : 16 bits
  145. Compression mode                         : Lossless
  146. Stream size                              : 532 MiB (1%)
  147. Title                                    : The.House.by.the.Cemetery.1981.2160p.BluRay.REMUX.HEVC.DTS-HD.MA.TrueHD.7.1.Atmos-FGT
  148. Language                                 : English
  149. Default                                  : No
  150. Forced                                   : No
  151. Original source medium                   : Blu-ray
  152. Audio #5
  153. ID                                       : 7
  154. ID in the original source medium         : 4355 (0x1103)
  155. Format                                   : DTS XLL
  156. Format/Info                              : Digital Theater Systems
  157. Commercial name                          : DTS-HD Master Audio
  158. Codec ID                                 : A_DTS
  159. Duration                                 : 1 h 26 min
  160. Bit rate mode                            : Variable
  161. Bit rate                                 : 1 045 kb/s
  162. Channel(s)                               : 1 channel
  163. Channel layout                           : C
  164. Sampling rate                            : 48.0 kHz
  165. Frame rate                               : 93.750 FPS (512 SPF)
  166. Bit depth                                : 24 bits
  167. Compression mode                         : Lossless
  168. Stream size                              : 645 MiB (1%)
  169. Title                                    : The.House.by.the.Cemetery.1981.2160p.BluRay.REMUX.HEVC.DTS-HD.MA.TrueHD.7.1.Atmos-FGT
  170. Language                                 : Italian
  171. Default                                  : No
  172. Forced                                   : No
  173. Original source medium                   : Blu-ray
  174. Audio #6
  175. ID                                       : 8
  176. ID in the original source medium         : 4356 (0x1104)
  177. Format                                   : AC-3
  178. Format/Info                              : Audio Coding 3
  179. Commercial name                          : Dolby Digital
  180. Codec ID                                 : A_AC3
  181. Duration                                 : 1 h 26 min
  182. Bit rate mode                            : Constant
  183. Bit rate                                 : 192 kb/s
  184. Channel(s)                               : 2 channels
  185. Channel layout                           : L R
  186. Sampling rate                            : 48.0 kHz
  187. Frame rate                               : 31.250 FPS (1536 SPF)
  188. Compression mode                         : Lossy
  189. Stream size                              : 119 MiB (0%)
  190. Title                                    : The.House.by.the.Cemetery.1981.2160p.BluRay.REMUX.HEVC.DTS-HD.MA.TrueHD.7.1.Atmos-FGT
  191. Language                                 : English
  192. Service kind                             : Complete Main
  193. Default                                  : No
  194. Forced                                   : No
  195. Original source medium                   : Blu-ray
  196. Text #1
  197. ID                                       : 9
  198. Format                                   : UTF-8
  199. Codec ID                                 : S_TEXT/UTF8
  200. Codec ID/Info                            : UTF-8 Plain Text
  201. Duration                                 : 1 h 23 min
  202. Bit rate                                 : 27 b/s
  203. Count of elements                        : 592
  204. Stream size                              : 16.7 KiB (0%)
  205. Title                                    : English-SRT
  206. Language                                 : English
  207. Default                                  : Yes
  208. Forced                                   : No
  209. Text #2
  210. ID                                       : 10
  211. Format                                   : UTF-8
  212. Codec ID                                 : S_TEXT/UTF8
  213. Codec ID/Info                            : UTF-8 Plain Text
  214. Duration                                 : 1 h 22 min
  215. Bit rate                                 : 24 b/s
  216. Count of elements                        : 592
  217. Stream size                              : 14.8 KiB (0%)
  218. Title                                    : English-for-Italian-SRT
  219. Language                                 : English
  220. Default                                  : No
  221. Forced                                   : No
  222. Text #3
  223. ID                                       : 11
  224. ID in the original source medium         : 4768 (0x12A0)
  225. Format                                   : PGS
  226. Muxing mode                              : zlib
  227. Codec ID                                 : S_HDMV/PGS
  228. Codec ID/Info                            : Picture based subtitle format used on BDs/HD-DVDs
  229. Duration                                 : 1 h 23 min
  230. Bit rate                                 : 41.7 kb/s
  231. Count of elements                        : 1816
  232. Stream size                              : 25.0 MiB (0%)
  233. Title                                    : English-PGS
  234. Language                                 : English
  235. Default                                  : No
  236. Forced                                   : No
  237. Original source medium                   : Blu-ray
  238. Text #4
  239. ID                                       : 12
  240. ID in the original source medium         : 4769 (0x12A1)
  241. Format                                   : PGS
  242. Muxing mode                              : zlib
  243. Codec ID                                 : S_HDMV/PGS
  244. Codec ID/Info                            : Picture based subtitle format used on BDs/HD-DVDs
  245. Duration                                 : 1 h 24 min
  246. Bit rate                                 : 30.5 kb/s
  247. Count of elements                        : 1362
  248. Stream size                              : 18.4 MiB (0%)
  249. Title                                    : French-PGS
  250. Language                                 : French
  251. Default                                  : No
  252. Forced                                   : No
  253. Original source medium                   : Blu-ray
  254. Text #5
  255. ID                                       : 13
  256. ID in the original source medium         : 4770 (0x12A2)
  257. Format                                   : PGS
  258. Muxing mode                              : zlib
  259. Codec ID                                 : S_HDMV/PGS
  260. Codec ID/Info                            : Picture based subtitle format used on BDs/HD-DVDs
  261. Duration                                 : 1 h 24 min
  262. Bit rate                                 : 27.3 kb/s
  263. Count of elements                        : 1352
  264. Stream size                              : 16.5 MiB (0%)
  265. Title                                    : Spanish-PGS
  266. Language                                 : Spanish
  267. Default                                  : No
  268. Forced                                   : No
  269. Original source medium                   : Blu-ray
  270. Text #6
  271. ID                                       : 14
  272. ID in the original source medium         : 4771 (0x12A3)
  273. Format                                   : PGS
  274. Muxing mode                              : zlib
  275. Codec ID                                 : S_HDMV/PGS
  276. Codec ID/Info                            : Picture based subtitle format used on BDs/HD-DVDs
  277. Duration                                 : 1 h 22 min
  278. Bit rate                                 : 16.9 kb/s
  279. Count of elements                        : 1192
  280. Stream size                              : 10.0 MiB (0%)
  281. Title                                    : English-for-Italian-PGS
  282. Language                                 : English
  283. Default                                  : No
  284. Forced                                   : No
  285. Original source medium                   : Blu-ray
  286. Menu
  287. 00:00:00.000                             : en:Chapter 01
  288. 00:02:59.929                             : en:Chapter 02
  289. 00:04:14.254                             : en:Chapter 03
  290. 00:07:47.383                             : en:Chapter 04
  291. 00:11:25.267                             : en:Chapter 05
  292. 00:16:11.971                             : en:Chapter 06
  293. 00:21:43.760                             : en:Chapter 07
  294. 00:25:45.168                             : en:Chapter 08
  295. 00:30:24.364                             : en:Chapter 09
  296. 00:35:25.957                             : en:Chapter 10
  297. 00:42:54.572                             : en:Chapter 11
  298. 00:50:12.718                             : en:Chapter 12
  299. 00:58:35.345                             : en:Chapter 13
  300. 01:04:08.845                             : en:Chapter 14
  301. 01:10:13.209                             : en:Chapter 15
  302. 01:15:52.548                             : en:Chapter 16
  303. 01:22:06.254                             : en:Chapter 17
  304. 01:25:05.100                             : en:Chapter 18
复制代码



                                       
                                       

                                       
                                       
                                       




回复

使用道具 举报

 成长值: 3430

发表于 2020-9-13 21:39:54 | 显示全部楼层
谢谢发片
回复

使用道具 举报

发表于 2020-9-15 09:02:36 | 显示全部楼层
谢谢发片,感谢分享。
回复 支持 反对

使用道具 举报

发表于 2020-9-16 09:05:38 | 显示全部楼层
楼主发贴辛苦了,谢谢楼主分享!我觉得蓝光电影网是注册对了!
回复 支持 反对

使用道具 举报

发表于 2020-9-17 19:11:13 | 显示全部楼层
楼主发贴辛苦了,谢谢楼主分享!我觉得蓝光电影网是注册对了!
回复 支持 反对

使用道具 举报

发表于 2020-9-18 10:13:29 | 显示全部楼层

我看不错噢 谢谢楼主!蓝光电影网越来越好!
回复 支持 反对

使用道具 举报

发表于 2020-9-18 20:30:05 | 显示全部楼层
Miss.Peregrines.Home.for.Peculiar.Children
回复 支持 反对

使用道具 举报

懒得打字嘛,点击右侧快捷回复 【右侧内容,后台自定义】
您需要登录后才可以回帖 登录 | 立即加入

本版积分规则

现在加入蓝光电影网,注册一个账号
上个主题 下个主题 快速回复 收藏帖子 返回列表 客服中心 搜索

手机版|小黑屋| 蓝光电影网 |网站地图 

Copyright © 2015-2019 Comsenz Inc.  Template by 蓝光电影论坛 All Rights Reserved.

Powered by 蓝光电影网 X3.4

特别声明:本站所有资源均由网上收集而来,版权归原影音公司所有,如果侵犯了你的权益,请通知我们,我们会及时删除侵权内容.

快速回复 返回顶部 返回列表