找回密码

蓝光电影网

查看: 315|回复: 9

[REMUX.HEVC] 纽约杀人狂 The.New.York.Ripper.1982.2160p.BluRay.REMUX.HEVC.DTS-HD.MA.TrueHD.7.1.Atmos-FGT 52.43GB

[复制链接]

 成长值: 16050

发表于 2020-9-12 01:00:39 | 显示全部楼层 |阅读模式


◎译  名 纽约杀人狂/New York Ripper/纽约开膛手
◎片  名 Lo squartatore di New York
◎年  代 1982
◎产  地 意大利
◎类  别 悬疑 / 惊悚 / 恐怖 / 犯罪
◎语  言 意大利语
◎上映日期 1982-03-04
◎IMDb评分  6.4/10 from 9131 users
◎IMDb链接  https://www.imdb.com/title/tt0084719/
◎豆瓣评分 6.4/10 from 501 users
◎豆瓣链接 https://movie.douban.com/subject/1438878/
◎片  长 91 分钟
◎导  演 卢西奥·弗尔兹 Lucio Fulci
◎编  剧 达尔达诺·萨凯蒂 Dardano Sacchetti / 卢西奥·弗尔兹 Lucio Fulci
◎主  演 佐乌拉·克丝罗娃 Zora Kerova
       安东内拉·因泰伦吉 Antonella Interlenghi
       保罗马 尔科夫 Paolo Malco
       芭芭拉·库皮斯蒂 Barbara Cupisti
       Paul E. Guskin
       辛姿娅·德·蓬蒂 Cinzia de Ponti
       亚历山德拉·蕾里·科利 Alexandra Delli Colli
       科西莫·奇涅里 Cosimo Cinieri
       Sal Carollo
       安德烈亚·奥基平蒂 Andrea Occhipinti
       卢西奥·弗尔兹 Lucio Fulci
       霍华德·罗斯 Howard Ross
       米歇尔·索伊 Michele Soavi
       达妮埃拉·多里亚 Daniela Doria
◎标  签 意大利 | 恐怖 | 惊悚 | 悬疑 | 犯罪 | 意大利电影 | 邪典 | 1982
◎简  介


  不夜城纽约,光怪陆离,夜夜笙歌,人们陶醉在美酒佳人的梦幻世界中,早已忘却躲在黑暗处的隐隐杀机。
  
  某晚,一名妓女被人残忍杀害,警官弗瑞德?威廉姆(Jack Hedley 杰克?海德雷 饰)负责调查此案,在问询女房东(Babette New 贝比特?纽 饰)时,得知死者在前一晚上曾和一名有着公鸭嗓的神秘男子交谈。不久后,被害者不断增加,且都是年轻女性,死状恐怖。威廉姆认定这是一起疯狂的连环杀人案。未免引起混乱,警方严密封锁消息,威廉姆只能单枪匹马追寻真正的凶手……
  1. Video #1
  2. ID                                       : 1
  3. ID in the original source medium         : 4113 (0x1011)
  4. Format                                   : HEVC
  5. Format/Info                              : High Efficiency Video Coding
  6. Format profile                           : Main [email protected]@High
  7. HDR format                               : SMPTE ST 2086, HDR10 compatible
  8. Codec ID                                 : V_MPEGH/ISO/HEVC
  9. Duration                                 : 1 h 33 min
  10. Bit rate                                 : 63.0 Mb/s
  11. Width                                    : 3 840 pixels
  12. Height                                   : 2 160 pixels
  13. Display aspect ratio                     : 16:9
  14. Frame rate mode                          : Constant
  15. Frame rate                               : 23.976 (24000/1001/189150) FPS
  16. Color space                              : YUV
  17. Chroma subsampling                       : 4:2:0 (Type 2)
  18. Bit depth                                : 10 bits
  19. Bits/(Pixel*Frame)                       : 0.317
  20. Stream size                              : 41.0 GiB (78%)
  21. Title                                    : The.New.York.Ripper.1982.2160p.BluRay.REMUX.HEVC.DTS-HD.MA.TrueHD.7.1.Atmos-FGT
  22. Language                                 : English
  23. Default                                  : Yes
  24. Forced                                   : No
  25. Color range                              : Limited
  26. Color primaries                          : BT.2020
  27. Transfer characteristics                 : PQ
  28. Matrix coefficients                      : BT.2020 non-constant
  29. Mastering display color primaries        : BT.2020
  30. Mastering display luminance              : min: 0.0001 cd/m2, max: 1000 cd/m2
  31. Original source medium                   : Blu-ray
  32. Video #2
  33. ID                                       : 2
  34. ID in the original source medium         : 4117 (0x1015)
  35. Format                                   : HEVC
  36. Format/Info                              : High Efficiency Video Coding
  37. Format profile                           : Main [email protected]@High
  38. HDR format                               : SMPTE ST 2086, HDR10 compatible
  39. Codec ID                                 : V_MPEGH/ISO/HEVC
  40. Duration                                 : 1 h 33 min
  41. Bit rate                                 : 6 850 kb/s
  42. Width                                    : 1 920 pixels
  43. Height                                   : 1 080 pixels
  44. Display aspect ratio                     : 16:9
  45. Frame rate mode                          : Constant
  46. Frame rate                               : 23.976 (24000/1001/189150) FPS
  47. Color space                              : YUV
  48. Chroma subsampling                       : 4:2:0 (Type 2)
  49. Bit depth                                : 10 bits
  50. Bits/(Pixel*Frame)                       : 0.138
  51. Stream size                              : 4.46 GiB (8%)
  52. Title                                    : The.New.York.Ripper.1982.2160p.BluRay.REMUX.HEVC.DTS-HD.MA.TrueHD.7.1.Atmos-FGT
  53. Language                                 : English
  54. Default                                  : No
  55. Forced                                   : No
  56. Color range                              : Limited
  57. Color primaries                          : BT.2020
  58. Transfer characteristics                 : PQ
  59. Matrix coefficients                      : BT.2020 non-constant
  60. Mastering display color primaries        : BT.2020
  61. Mastering display luminance              : min: 0.0001 cd/m2, max: 1000 cd/m2
  62. Original source medium                   : Blu-ray
  63. Audio #1
  64. ID                                       : 3
  65. ID in the original source medium         : 4352 (0x1100)
  66. Format                                   : MLP FBA 16-ch
  67. Format/Info                              : Meridian Lossless Packing FBA with 16-channel presentation
  68. Commercial name                          : Dolby TrueHD with Dolby Atmos
  69. Codec ID                                 : A_TRUEHD
  70. Duration                                 : 1 h 33 min
  71. Bit rate mode                            : Variable
  72. Bit rate                                 : 3 570 kb/s
  73. Maximum bit rate                         : 6 348 kb/s
  74. Channel(s)                               : 8 channels
  75. Channel layout                           : L R C LFE Ls Rs Lb Rb
  76. Sampling rate                            : 48.0 kHz
  77. Frame rate                               : 1 200.000 FPS (40 SPF)
  78. Compression mode                         : Lossless
  79. Stream size                              : 2.32 GiB (4%)
  80. Title                                    : The.New.York.Ripper.1982.2160p.BluRay.REMUX.HEVC.DTS-HD.MA.TrueHD.7.1.Atmos-FGT
  81. Language                                 : English
  82. Default                                  : Yes
  83. Forced                                   : No
  84. Original source medium                   : Blu-ray
  85. Number of dynamic objects                : 11
  86. Bed channel count                        : 1 channel
  87. Bed channel configuration                : LFE
  88. Audio #2
  89. ID                                       : 4
  90. Format                                   : DTS XLL
  91. Format/Info                              : Digital Theater Systems
  92. Commercial name                          : DTS-HD Master Audio
  93. Codec ID                                 : A_DTS
  94. Duration                                 : 1 h 33 min
  95. Bit rate mode                            : Variable
  96. Bit rate                                 : 3 748 kb/s
  97. Channel(s)                               : 8 channels
  98. Channel layout                           : C L R LFE Lb Rb Lss Rss
  99. Sampling rate                            : 48.0 kHz
  100. Frame rate                               : 93.750 FPS (512 SPF)
  101. Bit depth                                : 24 bits
  102. Compression mode                         : Lossless
  103. Stream size                              : 2.44 GiB (5%)
  104. Title                                    : The.New.York.Ripper.1982.2160p.BluRay.REMUX.HEVC.DTS-HD.MA.TrueHD.7.1.Atmos-FGT
  105. Language                                 : English
  106. Default                                  : No
  107. Forced                                   : No
  108. Audio #3
  109. ID                                       : 5
  110. ID in the original source medium         : 4352 (0x1100)
  111. Format                                   : AC-3
  112. Format/Info                              : Audio Coding 3
  113. Commercial name                          : Dolby Digital
  114. Codec ID                                 : A_AC3
  115. Duration                                 : 1 h 33 min
  116. Bit rate mode                            : Constant
  117. Bit rate                                 : 640 kb/s
  118. Channel(s)                               : 6 channels
  119. Channel layout                           : L R C LFE Ls Rs
  120. Sampling rate                            : 48.0 kHz
  121. Frame rate                               : 31.250 FPS (1536 SPF)
  122. Compression mode                         : Lossy
  123. Stream size                              : 426 MiB (1%)
  124. Title                                    : The.New.York.Ripper.1982.2160p.BluRay.REMUX.HEVC.DTS-HD.MA.TrueHD.7.1.Atmos-FGT
  125. Language                                 : English
  126. Service kind                             : Complete Main
  127. Default                                  : No
  128. Forced                                   : No
  129. Original source medium                   : Blu-ray
  130. Audio #4
  131. ID                                       : 6
  132. ID in the original source medium         : 4354 (0x1102)
  133. Format                                   : DTS XLL
  134. Format/Info                              : Digital Theater Systems
  135. Commercial name                          : DTS-HD Master Audio
  136. Codec ID                                 : A_DTS
  137. Duration                                 : 1 h 33 min
  138. Bit rate mode                            : Variable
  139. Bit rate                                 : 1 047 kb/s
  140. Channel(s)                               : 1 channel
  141. Channel layout                           : C
  142. Sampling rate                            : 48.0 kHz
  143. Frame rate                               : 93.750 FPS (512 SPF)
  144. Bit depth                                : 24 bits
  145. Compression mode                         : Lossless
  146. Stream size                              : 698 MiB (1%)
  147. Title                                    : The.New.York.Ripper.1982.2160p.BluRay.REMUX.HEVC.DTS-HD.MA.TrueHD.7.1.Atmos-FGT
  148. Language                                 : English
  149. Default                                  : No
  150. Forced                                   : No
  151. Original source medium                   : Blu-ray
  152. Audio #5
  153. ID                                       : 7
  154. ID in the original source medium         : 4355 (0x1103)
  155. Format                                   : DTS XLL
  156. Format/Info                              : Digital Theater Systems
  157. Commercial name                          : DTS-HD Master Audio
  158. Codec ID                                 : A_DTS
  159. Duration                                 : 1 h 33 min
  160. Bit rate mode                            : Variable
  161. Bit rate                                 : 1 045 kb/s
  162. Channel(s)                               : 1 channel
  163. Channel layout                           : C
  164. Sampling rate                            : 48.0 kHz
  165. Frame rate                               : 93.750 FPS (512 SPF)
  166. Bit depth                                : 24 bits
  167. Compression mode                         : Lossless
  168. Stream size                              : 696 MiB (1%)
  169. Title                                    : The.New.York.Ripper.1982.2160p.BluRay.REMUX.HEVC.DTS-HD.MA.TrueHD.7.1.Atmos-FGT
  170. Language                                 : Italian
  171. Default                                  : No
  172. Forced                                   : No
  173. Original source medium                   : Blu-ray
  174. Audio #6
  175. ID                                       : 8
  176. ID in the original source medium         : 4356 (0x1104)
  177. Format                                   : AC-3
  178. Format/Info                              : Audio Coding 3
  179. Commercial name                          : Dolby Digital
  180. Codec ID                                 : A_AC3
  181. Duration                                 : 1 h 33 min
  182. Bit rate mode                            : Constant
  183. Bit rate                                 : 192 kb/s
  184. Channel(s)                               : 1 channel
  185. Channel layout                           : C
  186. Sampling rate                            : 48.0 kHz
  187. Frame rate                               : 31.250 FPS (1536 SPF)
  188. Compression mode                         : Lossy
  189. Stream size                              : 128 MiB (0%)
  190. Title                                    : The.New.York.Ripper.1982.2160p.BluRay.REMUX.HEVC.DTS-HD.MA.TrueHD.7.1.Atmos-FGT
  191. Language                                 : French
  192. Service kind                             : Complete Main
  193. Default                                  : No
  194. Forced                                   : No
  195. Original source medium                   : Blu-ray
  196. Audio #7
  197. ID                                       : 9
  198. ID in the original source medium         : 4357 (0x1105)
  199. Format                                   : AC-3
  200. Format/Info                              : Audio Coding 3
  201. Commercial name                          : Dolby Digital
  202. Codec ID                                 : A_AC3
  203. Duration                                 : 1 h 33 min
  204. Bit rate mode                            : Constant
  205. Bit rate                                 : 192 kb/s
  206. Channel(s)                               : 1 channel
  207. Channel layout                           : C
  208. Sampling rate                            : 48.0 kHz
  209. Frame rate                               : 31.250 FPS (1536 SPF)
  210. Compression mode                         : Lossy
  211. Stream size                              : 128 MiB (0%)
  212. Title                                    : The.New.York.Ripper.1982.2160p.BluRay.REMUX.HEVC.DTS-HD.MA.TrueHD.7.1.Atmos-FGT
  213. Language                                 : Spanish
  214. Service kind                             : Complete Main
  215. Default                                  : No
  216. Forced                                   : No
  217. Original source medium                   : Blu-ray
  218. Audio #8
  219. ID                                       : 10
  220. ID in the original source medium         : 4358 (0x1106)
  221. Format                                   : AC-3
  222. Format/Info                              : Audio Coding 3
  223. Commercial name                          : Dolby Digital
  224. Codec ID                                 : A_AC3
  225. Duration                                 : 1 h 33 min
  226. Bit rate mode                            : Constant
  227. Bit rate                                 : 192 kb/s
  228. Channel(s)                               : 2 channels
  229. Channel layout                           : L R
  230. Sampling rate                            : 48.0 kHz
  231. Frame rate                               : 31.250 FPS (1536 SPF)
  232. Compression mode                         : Lossy
  233. Stream size                              : 128 MiB (0%)
  234. Title                                    : The.New.York.Ripper.1982.2160p.BluRay.REMUX.HEVC.DTS-HD.MA.TrueHD.7.1.Atmos-FGT
  235. Language                                 : English
  236. Service kind                             : Complete Main
  237. Default                                  : No
  238. Forced                                   : No
  239. Original source medium                   : Blu-ray
  240. Text #1
  241. ID                                       : 11
  242. Format                                   : UTF-8
  243. Codec ID                                 : S_TEXT/UTF8
  244. Codec ID/Info                            : UTF-8 Plain Text
  245. Duration                                 : 1 h 30 min
  246. Bit rate                                 : 40 b/s
  247. Count of elements                        : 730
  248. Stream size                              : 26.9 KiB (0%)
  249. Title                                    : English-SRT
  250. Language                                 : English
  251. Default                                  : Yes
  252. Forced                                   : No
  253. Text #2
  254. ID                                       : 12
  255. Format                                   : UTF-8
  256. Codec ID                                 : S_TEXT/UTF8
  257. Codec ID/Info                            : UTF-8 Plain Text
  258. Duration                                 : 1 h 30 min
  259. Bit rate                                 : 26 b/s
  260. Count of elements                        : 518
  261. Stream size                              : 17.2 KiB (0%)
  262. Title                                    : English-For-Italian-SRT
  263. Language                                 : English
  264. Default                                  : No
  265. Forced                                   : No
  266. Text #3
  267. ID                                       : 13
  268. ID in the original source medium         : 4768 (0x12A0)
  269. Format                                   : PGS
  270. Muxing mode                              : zlib
  271. Codec ID                                 : S_HDMV/PGS
  272. Codec ID/Info                            : Picture based subtitle format used on BDs/HD-DVDs
  273. Duration                                 : 1 h 31 min
  274. Bit rate                                 : 56.9 kb/s
  275. Count of elements                        : 2138
  276. Stream size                              : 37.1 MiB (0%)
  277. Title                                    : English-PGS
  278. Language                                 : English
  279. Default                                  : No
  280. Forced                                   : No
  281. Original source medium                   : Blu-ray
  282. Text #4
  283. ID                                       : 14
  284. ID in the original source medium         : 4769 (0x12A1)
  285. Format                                   : PGS
  286. Muxing mode                              : zlib
  287. Codec ID                                 : S_HDMV/PGS
  288. Codec ID/Info                            : Picture based subtitle format used on BDs/HD-DVDs
  289. Duration                                 : 1 h 30 min
  290. Bit rate                                 : 45.1 kb/s
  291. Count of elements                        : 1594
  292. Stream size                              : 29.2 MiB (0%)
  293. Title                                    : French-PGS
  294. Language                                 : French
  295. Default                                  : No
  296. Forced                                   : No
  297. Original source medium                   : Blu-ray
  298. Text #5
  299. ID                                       : 15
  300. ID in the original source medium         : 4770 (0x12A2)
  301. Format                                   : PGS
  302. Muxing mode                              : zlib
  303. Codec ID                                 : S_HDMV/PGS
  304. Codec ID/Info                            : Picture based subtitle format used on BDs/HD-DVDs
  305. Duration                                 : 1 h 30 min
  306. Bit rate                                 : 43.3 kb/s
  307. Count of elements                        : 1594
  308. Stream size                              : 28.0 MiB (0%)
  309. Title                                    : Spanish-PGS
  310. Language                                 : Spanish
  311. Default                                  : No
  312. Forced                                   : No
  313. Original source medium                   : Blu-ray
  314. Text #6
  315. ID                                       : 16
  316. ID in the original source medium         : 4771 (0x12A3)
  317. Format                                   : PGS
  318. Muxing mode                              : zlib
  319. Codec ID                                 : S_HDMV/PGS
  320. Codec ID/Info                            : Picture based subtitle format used on BDs/HD-DVDs
  321. Duration                                 : 1 h 30 min
  322. Bit rate                                 : 31.2 kb/s
  323. Count of elements                        : 1242
  324. Stream size                              : 20.1 MiB (0%)
  325. Language                                 : English
  326. Default                                  : No
  327. Forced                                   : No
  328. Original source medium                   : Blu-ray
  329. Menu
  330. 00:00:00.000                             : en:Chapter 01
  331. 00:05:31.205                             : en:Chapter 02
  332. 00:11:43.661                             : en:Chapter 03
  333. 00:18:19.848                             : en:Chapter 04
  334. 00:25:16.515                             : en:Chapter 05
  335. 00:30:57.856                             : en:Chapter 06
  336. 00:35:21.994                             : en:Chapter 07
  337. 00:40:38.436                             : en:Chapter 08
  338. 00:44:51.146                             : en:Chapter 09
  339. 00:49:22.626                             : en:Chapter 10
  340. 00:54:02.614                             : en:Chapter 11
  341. 01:02:29.746                             : en:Chapter 12
  342. 01:10:16.921                             : en:Chapter 13
  343. 01:19:47.783                             : en:Chapter 14
  344. 01:26:09.164                             : en:Chapter 15
  345. 01:31:41.412                             : en:Chapter 16
复制代码



                                       
                                       

                                       
                                       
                                       




回复

使用道具 举报

 成长值: 4720

发表于 2020-9-12 11:37:47 | 显示全部楼层
谢谢楼主无私分享。
回复 支持 反对

使用道具 举报

发表于 2020-9-12 15:51:23 | 显示全部楼层
不错啊啊
回复

使用道具 举报

发表于 2020-9-13 09:49:32 | 显示全部楼层
楼主发贴辛苦了,谢谢楼主分享!我觉得蓝光电影网是注册对了!
回复 支持 反对

使用道具 举报

发表于 2020-9-13 10:27:41 | 显示全部楼层
纽约电锯杀人狂,哈
回复 支持 反对

使用道具 举报

发表于 2020-9-14 17:42:14 | 显示全部楼层
楼主发贴辛苦了,谢谢楼主分享!我觉得蓝光电影网是注册对了!
回复 支持 反对

使用道具 举报

 成长值: 410

发表于 2020-9-15 08:00:57 | 显示全部楼层
谢谢谢谢谢谢谢
回复 支持 反对

使用道具 举报

发表于 2020-9-16 07:20:12 | 显示全部楼层

这东西我收了!谢谢楼主!蓝光电影网真好!
回复 支持 反对

使用道具 举报

发表于 2020-9-16 15:11:59 | 显示全部楼层
感谢分享!
回复

使用道具 举报

发表于 2020-9-18 17:36:27 | 显示全部楼层
454545434
4
4
谢谢
43
33
1
131
3
回复 支持 反对

使用道具 举报

懒得打字嘛,点击右侧快捷回复 【右侧内容,后台自定义】
您需要登录后才可以回帖 登录 | 立即加入

本版积分规则

现在加入蓝光电影网,注册一个账号
上个主题 下个主题 快速回复 收藏帖子 返回列表 客服中心 搜索

手机版|小黑屋| 蓝光电影网 |网站地图 

Copyright © 2015-2019 Comsenz Inc.  Template by 蓝光电影论坛 All Rights Reserved.

Powered by 蓝光电影网 X3.4

特别声明:本站所有资源均由网上收集而来,版权归原影音公司所有,如果侵犯了你的权益,请通知我们,我们会及时删除侵权内容.

快速回复 返回顶部 返回列表