找回密码

蓝光电影网

查看: 204|回复: 8

[10bit.SDR] 纽约杀人狂 The.New.York.Ripper.1982.2160p.BluRay.x265.10bit.SDR.DTS-HD.MA.TrueHD.7.1.Atmos-SWTYBLZ 43.11GB

[复制链接]

 成长值: 16050

发表于 2020-9-12 00:52:33 | 显示全部楼层 |阅读模式


◎译  名 纽约杀人狂/New York Ripper/纽约开膛手
◎片  名 Lo squartatore di New York
◎年  代 1982
◎产  地 意大利
◎类  别 悬疑 / 惊悚 / 恐怖 / 犯罪
◎语  言 意大利语
◎上映日期 1982-03-04
◎IMDb评分  6.4/10 from 9131 users
◎IMDb链接  https://www.imdb.com/title/tt0084719/
◎豆瓣评分 6.4/10 from 501 users
◎豆瓣链接 https://movie.douban.com/subject/1438878/
◎片  长 91 分钟
◎导  演 卢西奥·弗尔兹 Lucio Fulci
◎编  剧 达尔达诺·萨凯蒂 Dardano Sacchetti / 卢西奥·弗尔兹 Lucio Fulci
◎主  演 佐乌拉·克丝罗娃 Zora Kerova
       安东内拉·因泰伦吉 Antonella Interlenghi
       保罗马 尔科夫 Paolo Malco
       芭芭拉·库皮斯蒂 Barbara Cupisti
       Paul E. Guskin
       辛姿娅·德·蓬蒂 Cinzia de Ponti
       亚历山德拉·蕾里·科利 Alexandra Delli Colli
       科西莫·奇涅里 Cosimo Cinieri
       Sal Carollo
       安德烈亚·奥基平蒂 Andrea Occhipinti
       卢西奥·弗尔兹 Lucio Fulci
       霍华德·罗斯 Howard Ross
       米歇尔·索伊 Michele Soavi
       达妮埃拉·多里亚 Daniela Doria
◎标  签 意大利 | 恐怖 | 惊悚 | 悬疑 | 犯罪 | 意大利电影 | 邪典 | 1982
◎简  介


  不夜城纽约,光怪陆离,夜夜笙歌,人们陶醉在美酒佳人的梦幻世界中,早已忘却躲在黑暗处的隐隐杀机。
  
  某晚,一名妓女被人残忍杀害,警官弗瑞德?威廉姆(Jack Hedley 杰克?海德雷 饰)负责调查此案,在问询女房东(Babette New 贝比特?纽 饰)时,得知死者在前一晚上曾和一名有着公鸭嗓的神秘男子交谈。不久后,被害者不断增加,且都是年轻女性,死状恐怖。威廉姆认定这是一起疯狂的连环杀人案。未免引起混乱,警方严密封锁消息,威廉姆只能单枪匹马追寻真正的凶手……
  1. Video
  2. ID                                       : 1
  3. Format                                   : HEVC
  4. Format/Info                              : High Efficiency Video Coding
  5. Format profile                           : Main [email protected]@High
  6. Codec ID                                 : V_MPEGH/ISO/HEVC
  7. Duration                                 : 1 h 33 min
  8. Bit rate                                 : 56.4 Mb/s
  9. Width                                    : 3 840 pixels
  10. Height                                   : 1 600 pixels
  11. Display aspect ratio                     : 2.40:1
  12. Frame rate mode                          : Constant
  13. Frame rate                               : 23.976 (24000/1001/189150) FPS
  14. Color space                              : YUV
  15. Chroma subsampling                       : 4:2:0
  16. Bit depth                                : 10 bits
  17. Bits/(Pixel*Frame)                       : 0.383
  18. Stream size                              : 36.7 GiB (85%)
  19. Title                                    : The.New.York.Ripper.1982.2160p.BluRay.x265.10bit.SDR.DTS-HD.MA.TrueHD.7.1.Atmos-SWTYBLZ
  20. Writing library                          : x265 3.0ed72af837053:[Windows][GCC 8.2.0][64 bit] 10bit
  21. Encoding settings                        : cpuid=1111039 / frame-threads=6 / numa-pools=40 / wpp / no-pmode / no-pme / no-psnr / no-ssim / log-level=2 / input-csp=1 / input-res=3840x1600 / interlace=0 / total-frames=133956 / level-idc=51 / high-tier=1 / uhd-bd=0 / ref=3 / no-allow-non-conformance / repeat-headers / annexb / aud / hrd / info / hash=0 / no-temporal-layers / no-open-gop / min-keyint=1 / keyint=24 / gop-lookahead=0 / bframes=4 / b-adapt=2 / b-pyramid / bframe-bias=0 / rc-lookahead=25 / lookahead-slices=4 / scenecut=40 / radl=0 / no-splice / no-intra-refresh / ctu=64 / min-cu-size=8 / no-rect / no-amp / max-tu-size=32 / tu-inter-depth=1 / tu-intra-depth=1 / limit-tu=0 / rdoq-level=0 / dynamic-rd=0.00 / no-ssim-rd / signhide / no-tskip / nr-intra=0 / nr-inter=0 / no-constrained-intra / strong-intra-smoothing / max-merge=2 / limit-refs=3 / no-limit-modes / me=1 / subme=2 / merange=57 / temporal-mvp / weightp / no-weightb / no-analyze-src-pics / deblock=0:0 / no-sao / no-sao-non-deblock / rd=3 / no-early-skip / rskip / no-fast-intra / no-tskip-fast / no-cu-lossless / no-b-intra / no-splitrd-skip / rdpenalty=0 / psy-rd=2.00 / psy-rdoq=0.00 / no-rd-refine / no-lossless / cbqpoffs=0 / crqpoffs=0 / rc=crf / crf=20.0 / qcomp=0.60 / qpstep=4 / stats-write=0 / stats-read=0 / vbv-maxrate=160000 / vbv-bufsize=160000 / vbv-init=0.9 / crf-max=0.0 / crf-min=0.0 / ipratio=1.40 / pbratio=1.30 / aq-mode=1 / aq-strength=1.00 / cutree / zone-count=0 / no-strict-cbr / qg-size=32 / no-rc-grain / qpmax=69 / qpmin=0 / no-const-vbv / sar=1 / overscan=0 / videoformat=5 / range=0 / colorprim=2 / transfer=2 / colormatrix=2 / chromaloc=0 / display-window=0 / max-cll=0,0 / min-luma=0 / max-luma=1023 / log2-max-poc-lsb=8 / vui-timing-info / vui-hrd-info / slices=1 / opt-qp-pps / opt-ref-list-length-pps / no-multi-pass-opt-rps / scenecut-bias=0.05 / no-opt-cu-delta-qp / no-aq-motion / no-hdr / no-hdr-opt / no-dhdr10-opt / no-idr-recovery-sei / analysis-reuse-level=5 / scale-factor=0 / refine-intra=0 / refine-inter=0 / refine-mv=0 / refine-ctu-distortion=0 / no-limit-sao / ctu-info=0 / no-lowpass-dct / refine-analysis-type=0 / copy-pic=1 / max-ausize-factor=1.0 / no-dynamic-refine / no-single-sei / no-hevc-aq / qp-adaptation-range=1.00
  22. Default                                  : Yes
  23. Forced                                   : No
  24. Audio #1
  25. ID                                       : 2
  26. ID in the original source medium         : 4352 (0x1100)
  27. Format                                   : MLP FBA 16-ch
  28. Format/Info                              : Meridian Lossless Packing FBA with 16-channel presentation
  29. Commercial name                          : Dolby TrueHD with Dolby Atmos
  30. Codec ID                                 : A_TRUEHD
  31. Duration                                 : 1 h 33 min
  32. Bit rate mode                            : Variable
  33. Bit rate                                 : 3 570 kb/s
  34. Maximum bit rate                         : 6 348 kb/s
  35. Channel(s)                               : 8 channels
  36. Channel layout                           : L R C LFE Ls Rs Lb Rb
  37. Sampling rate                            : 48.0 kHz
  38. Frame rate                               : 1 200.000 FPS (40 SPF)
  39. Compression mode                         : Lossless
  40. Stream size                              : 2.32 GiB (5%)
  41. Title                                    : The.New.York.Ripper.1982.2160p.BluRay.x265.10bit.SDR.DTS-HD.MA.TrueHD.7.1.Atmos-SWTYBLZ
  42. Language                                 : English
  43. Default                                  : Yes
  44. Forced                                   : No
  45. Original source medium                   : Blu-ray
  46. Number of dynamic objects                : 11
  47. Bed channel count                        : 1 channel
  48. Bed channel configuration                : LFE
  49. Audio #2
  50. ID                                       : 3
  51. Format                                   : DTS XLL
  52. Format/Info                              : Digital Theater Systems
  53. Commercial name                          : DTS-HD Master Audio
  54. Codec ID                                 : A_DTS
  55. Duration                                 : 1 h 33 min
  56. Bit rate mode                            : Variable
  57. Bit rate                                 : 3 748 kb/s
  58. Channel(s)                               : 8 channels
  59. Channel layout                           : C L R LFE Lb Rb Lss Rss
  60. Sampling rate                            : 48.0 kHz
  61. Frame rate                               : 93.750 FPS (512 SPF)
  62. Bit depth                                : 24 bits
  63. Compression mode                         : Lossless
  64. Stream size                              : 2.44 GiB (6%)
  65. Title                                    : The.New.York.Ripper.1982.2160p.BluRay.x265.10bit.SDR.DTS-HD.MA.TrueHD.7.1.Atmos-SWTYBLZ
  66. Language                                 : English
  67. Default                                  : No
  68. Forced                                   : No
  69. Audio #3
  70. ID                                       : 4
  71. ID in the original source medium         : 4352 (0x1100)
  72. Format                                   : AC-3
  73. Format/Info                              : Audio Coding 3
  74. Commercial name                          : Dolby Digital
  75. Codec ID                                 : A_AC3
  76. Duration                                 : 1 h 33 min
  77. Bit rate mode                            : Constant
  78. Bit rate                                 : 640 kb/s
  79. Channel(s)                               : 6 channels
  80. Channel layout                           : L R C LFE Ls Rs
  81. Sampling rate                            : 48.0 kHz
  82. Frame rate                               : 31.250 FPS (1536 SPF)
  83. Compression mode                         : Lossy
  84. Stream size                              : 426 MiB (1%)
  85. Title                                    : The.New.York.Ripper.1982.2160p.BluRay.x265.10bit.SDR.DTS-HD.MA.TrueHD.7.1.Atmos-SWTYBLZ
  86. Language                                 : English
  87. Service kind                             : Complete Main
  88. Default                                  : No
  89. Forced                                   : No
  90. Original source medium                   : Blu-ray
  91. Audio #4
  92. ID                                       : 5
  93. ID in the original source medium         : 4355 (0x1103)
  94. Format                                   : DTS XLL
  95. Format/Info                              : Digital Theater Systems
  96. Commercial name                          : DTS-HD Master Audio
  97. Codec ID                                 : A_DTS
  98. Duration                                 : 1 h 33 min
  99. Bit rate mode                            : Variable
  100. Bit rate                                 : 1 045 kb/s
  101. Channel(s)                               : 1 channel
  102. Channel layout                           : C
  103. Sampling rate                            : 48.0 kHz
  104. Frame rate                               : 93.750 FPS (512 SPF)
  105. Bit depth                                : 24 bits
  106. Compression mode                         : Lossless
  107. Stream size                              : 696 MiB (2%)
  108. Title                                    : The.New.York.Ripper.1982.2160p.BluRay.x265.10bit.SDR.DTS-HD.MA.TrueHD.7.1.Atmos-SWTYBLZ
  109. Language                                 : Italian
  110. Default                                  : No
  111. Forced                                   : No
  112. Original source medium                   : Blu-ray
  113. Audio #5
  114. ID                                       : 6
  115. Format                                   : AC-3
  116. Format/Info                              : Audio Coding 3
  117. Commercial name                          : Dolby Digital
  118. Codec ID                                 : A_AC3
  119. Duration                                 : 1 h 33 min
  120. Bit rate mode                            : Constant
  121. Bit rate                                 : 640 kb/s
  122. Channel(s)                               : 1 channel
  123. Channel layout                           : C
  124. Sampling rate                            : 48.0 kHz
  125. Frame rate                               : 31.250 FPS (1536 SPF)
  126. Compression mode                         : Lossy
  127. Stream size                              : 426 MiB (1%)
  128. Title                                    : The.New.York.Ripper.1982.2160p.BluRay.x265.10bit.SDR.DTS-HD.MA.TrueHD.7.1.Atmos-SWTYBLZ
  129. Language                                 : Italian
  130. Service kind                             : Complete Main
  131. Default                                  : No
  132. Forced                                   : No
  133. Text #1
  134. ID                                       : 7
  135. Format                                   : UTF-8
  136. Codec ID                                 : S_TEXT/UTF8
  137. Codec ID/Info                            : UTF-8 Plain Text
  138. Duration                                 : 1 h 30 min
  139. Bit rate                                 : 40 b/s
  140. Count of elements                        : 730
  141. Stream size                              : 26.9 KiB (0%)
  142. Title                                    : English-SRT
  143. Language                                 : English
  144. Default                                  : Yes
  145. Forced                                   : No
  146. Text #2
  147. ID                                       : 8
  148. Format                                   : UTF-8
  149. Codec ID                                 : S_TEXT/UTF8
  150. Codec ID/Info                            : UTF-8 Plain Text
  151. Duration                                 : 1 h 30 min
  152. Bit rate                                 : 26 b/s
  153. Count of elements                        : 518
  154. Stream size                              : 17.2 KiB (0%)
  155. Title                                    : English-For-Italian-SRT
  156. Language                                 : English
  157. Default                                  : No
  158. Forced                                   : No
  159. Text #3
  160. ID                                       : 9
  161. ID in the original source medium         : 4768 (0x12A0)
  162. Format                                   : PGS
  163. Muxing mode                              : zlib
  164. Codec ID                                 : S_HDMV/PGS
  165. Codec ID/Info                            : Picture based subtitle format used on BDs/HD-DVDs
  166. Duration                                 : 1 h 31 min
  167. Bit rate                                 : 56.9 kb/s
  168. Count of elements                        : 2138
  169. Stream size                              : 37.1 MiB (0%)
  170. Title                                    : English-PGS
  171. Language                                 : English
  172. Default                                  : No
  173. Forced                                   : No
  174. Original source medium                   : Blu-ray
  175. Text #4
  176. ID                                       : 10
  177. ID in the original source medium         : 4769 (0x12A1)
  178. Format                                   : PGS
  179. Muxing mode                              : zlib
  180. Codec ID                                 : S_HDMV/PGS
  181. Codec ID/Info                            : Picture based subtitle format used on BDs/HD-DVDs
  182. Duration                                 : 1 h 30 min
  183. Bit rate                                 : 45.1 kb/s
  184. Count of elements                        : 1594
  185. Stream size                              : 29.2 MiB (0%)
  186. Title                                    : French-PGS
  187. Language                                 : French
  188. Default                                  : No
  189. Forced                                   : No
  190. Original source medium                   : Blu-ray
  191. Text #5
  192. ID                                       : 11
  193. ID in the original source medium         : 4770 (0x12A2)
  194. Format                                   : PGS
  195. Muxing mode                              : zlib
  196. Codec ID                                 : S_HDMV/PGS
  197. Codec ID/Info                            : Picture based subtitle format used on BDs/HD-DVDs
  198. Duration                                 : 1 h 30 min
  199. Bit rate                                 : 43.3 kb/s
  200. Count of elements                        : 1594
  201. Stream size                              : 28.0 MiB (0%)
  202. Title                                    : Spanish-PGS
  203. Language                                 : Spanish
  204. Default                                  : No
  205. Forced                                   : No
  206. Original source medium                   : Blu-ray
  207. Text #6
  208. ID                                       : 12
  209. ID in the original source medium         : 4771 (0x12A3)
  210. Format                                   : PGS
  211. Muxing mode                              : zlib
  212. Codec ID                                 : S_HDMV/PGS
  213. Codec ID/Info                            : Picture based subtitle format used on BDs/HD-DVDs
  214. Duration                                 : 1 h 30 min
  215. Bit rate                                 : 31.2 kb/s
  216. Count of elements                        : 1242
  217. Stream size                              : 20.1 MiB (0%)
  218. Title                                    : English-For-Italian-PGS
  219. Language                                 : English
  220. Default                                  : No
  221. Forced                                   : No
  222. Original source medium                   : Blu-ray
  223. Menu
  224. 00:00:00.000                             : en:Chapter 01
  225. 00:05:31.205                             : en:Chapter 02
  226. 00:11:43.661                             : en:Chapter 03
  227. 00:18:19.848                             : en:Chapter 04
  228. 00:25:16.515                             : en:Chapter 05
  229. 00:30:57.856                             : en:Chapter 06
  230. 00:35:21.994                             : en:Chapter 07
  231. 00:40:38.436                             : en:Chapter 08
  232. 00:44:51.146                             : en:Chapter 09
  233. 00:49:22.626                             : en:Chapter 10
  234. 00:54:02.614                             : en:Chapter 11
  235. 01:02:29.746                             : en:Chapter 12
  236. 01:10:16.921                             : en:Chapter 13
  237. 01:19:47.783                             : en:Chapter 14
  238. 01:26:09.164                             : en:Chapter 15
  239. 01:31:41.412                             : en:Chapter 16
复制代码



                                       
                                       

                                       
                                       
                                       


回复

使用道具 举报

发表于 2020-9-13 09:51:25 | 显示全部楼层
谢谢分享。
回复

使用道具 举报

发表于 2020-9-13 09:55:55 | 显示全部楼层
楼主发贴辛苦了,谢谢楼主分享!我觉得蓝光电影网是注册对了!
回复 支持 反对

使用道具 举报

发表于 2020-9-14 08:57:57 | 显示全部楼层
楼主发贴辛苦了,谢谢楼主分享!我觉得蓝光电影网是注册对了!
回复 支持 反对

使用道具 举报

发表于 2020-9-16 07:45:32 | 显示全部楼层

既然你诚信诚意的推荐了,那我就勉为其难的看看吧!蓝光电影网不走平凡路。
回复 支持 反对

使用道具 举报

发表于 2020-9-16 14:11:45 | 显示全部楼层

楼主太厉害了!楼主,电影应该很好看我觉得蓝光电影网真是个好地方!
回复 支持 反对

使用道具 举报

发表于 2020-9-19 08:49:43 | 显示全部楼层

楼主发贴辛苦了,谢谢楼主分享!
回复 支持 反对

使用道具 举报

发表于 2020-9-19 09:22:01 | 显示全部楼层
箩 利 资 原【 w w w . e p 5 . m e
回复 支持 反对

使用道具 举报

发表于 2020-9-19 11:01:15 | 显示全部楼层
没有币要怎么赚啊
回复 支持 反对

使用道具 举报

懒得打字嘛,点击右侧快捷回复 【右侧内容,后台自定义】
您需要登录后才可以回帖 登录 | 立即加入

本版积分规则

现在加入蓝光电影网,注册一个账号
上个主题 下个主题 快速回复 收藏帖子 返回列表 客服中心 搜索

手机版|小黑屋| 蓝光电影网 |网站地图 

Copyright © 2015-2019 Comsenz Inc.  Template by 蓝光电影论坛 All Rights Reserved.

Powered by 蓝光电影网 X3.4

特别声明:本站所有资源均由网上收集而来,版权归原影音公司所有,如果侵犯了你的权益,请通知我们,我们会及时删除侵权内容.

快速回复 返回顶部 返回列表