找回密码

蓝光电影网

查看: 119|回复: 2

[8bit.SDR] 纽约杀人狂 The.New.York.Ripper.1982.2160p.BluRay.x264.8bit.SDR.DTS-HD.MA.TrueHD.7.1.Atmos-SWTYBLZ 46.85GB

[复制链接]

 成长值: 16065

发表于 2020-9-12 00:52:27 | 显示全部楼层 |阅读模式


◎译  名 纽约杀人狂/New York Ripper/纽约开膛手
◎片  名 Lo squartatore di New York
◎年  代 1982
◎产  地 意大利
◎类  别 悬疑 / 惊悚 / 恐怖 / 犯罪
◎语  言 意大利语
◎上映日期 1982-03-04
◎IMDb评分  6.4/10 from 9131 users
◎IMDb链接  https://www.imdb.com/title/tt0084719/
◎豆瓣评分 6.4/10 from 501 users
◎豆瓣链接 https://movie.douban.com/subject/1438878/
◎片  长 91 分钟
◎导  演 卢西奥·弗尔兹 Lucio Fulci
◎编  剧 达尔达诺·萨凯蒂 Dardano Sacchetti / 卢西奥·弗尔兹 Lucio Fulci
◎主  演 佐乌拉·克丝罗娃 Zora Kerova
       安东内拉·因泰伦吉 Antonella Interlenghi
       保罗马 尔科夫 Paolo Malco
       芭芭拉·库皮斯蒂 Barbara Cupisti
       Paul E. Guskin
       辛姿娅·德·蓬蒂 Cinzia de Ponti
       亚历山德拉·蕾里·科利 Alexandra Delli Colli
       科西莫·奇涅里 Cosimo Cinieri
       Sal Carollo
       安德烈亚·奥基平蒂 Andrea Occhipinti
       卢西奥·弗尔兹 Lucio Fulci
       霍华德·罗斯 Howard Ross
       米歇尔·索伊 Michele Soavi
       达妮埃拉·多里亚 Daniela Doria
◎标  签 意大利 | 恐怖 | 惊悚 | 悬疑 | 犯罪 | 意大利电影 | 邪典 | 1982
◎简  介


  不夜城纽约,光怪陆离,夜夜笙歌,人们陶醉在美酒佳人的梦幻世界中,早已忘却躲在黑暗处的隐隐杀机。
  
  某晚,一名妓女被人残忍杀害,警官弗瑞德?威廉姆(Jack Hedley 杰克?海德雷 饰)负责调查此案,在问询女房东(Babette New 贝比特?纽 饰)时,得知死者在前一晚上曾和一名有着公鸭嗓的神秘男子交谈。不久后,被害者不断增加,且都是年轻女性,死状恐怖。威廉姆认定这是一起疯狂的连环杀人案。未免引起混乱,警方严密封锁消息,威廉姆只能单枪匹马追寻真正的凶手……
  1. Video
  2. ID                                       : 1
  3. Format                                   : AVC
  4. Format/Info                              : Advanced Video Codec
  5. Format profile                           : [email protected]
  6. Format settings                          : CABAC / 5 Ref Frames
  7. Format settings, CABAC                   : Yes
  8. Format settings, Reference frames        : 5 frames
  9. Codec ID                                 : V_MPEG4/ISO/AVC
  10. Duration                                 : 1 h 33 min
  11. Bit rate                                 : 62.1 Mb/s
  12. Width                                    : 3 840 pixels
  13. Height                                   : 1 600 pixels
  14. Display aspect ratio                     : 2.40:1
  15. Frame rate mode                          : Constant
  16. Frame rate                               : 23.976 (24000/1001/189150) FPS
  17. Color space                              : YUV
  18. Chroma subsampling                       : 4:2:0
  19. Bit depth                                : 8 bits
  20. Scan type                                : Progressive
  21. Bits/(Pixel*Frame)                       : 0.422
  22. Stream size                              : 40.4 GiB (86%)
  23. Title                                    : The.New.York.Ripper.1982.2160p.BluRay.x264.8bit.SDR.DTS-HD.MA.TrueHD.7.1.Atmos-SWTYBLZ
  24. Writing library                          : x264 core 157 r2935 545de2f
  25. Encoding settings                        : cabac=1 / ref=5 / deblock=1:-1:-1 / analyse=0x3:0x113 / me=umh / subme=10 / psy=1 / psy_rd=1.00:0.15 / mixed_ref=1 / me_range=48 / chroma_me=1 / trellis=2 / 8x8dct=1 / cqm=0 / deadzone=21,11 / fast_pskip=1 / chroma_qp_offset=-3 / threads=36 / lookahead_threads=3 / sliced_threads=0 / nr=0 / decimate=0 / interlaced=0 / bluray_compat=0 / constrained_intra=0 / bframes=3 / b_pyramid=2 / b_adapt=2 / b_bias=0 / direct=3 / weightb=1 / open_gop=0 / weightp=2 / keyint=250 / keyint_min=23 / scenecut=40 / intra_refresh=0 / rc_lookahead=50 / rc=crf / mbtree=1 / crf=22.0 / qcomp=0.60 / qpmin=0 / qpmax=69 / qpstep=4 / ip_ratio=1.40 / aq=1:1.00
  26. Default                                  : Yes
  27. Forced                                   : No
  28. Audio #1
  29. ID                                       : 2
  30. ID in the original source medium         : 4352 (0x1100)
  31. Format                                   : MLP FBA 16-ch
  32. Format/Info                              : Meridian Lossless Packing FBA with 16-channel presentation
  33. Commercial name                          : Dolby TrueHD with Dolby Atmos
  34. Codec ID                                 : A_TRUEHD
  35. Duration                                 : 1 h 33 min
  36. Bit rate mode                            : Variable
  37. Bit rate                                 : 3 570 kb/s
  38. Maximum bit rate                         : 6 348 kb/s
  39. Channel(s)                               : 8 channels
  40. Channel layout                           : L R C LFE Ls Rs Lb Rb
  41. Sampling rate                            : 48.0 kHz
  42. Frame rate                               : 1 200.000 FPS (40 SPF)
  43. Compression mode                         : Lossless
  44. Stream size                              : 2.32 GiB (5%)
  45. Title                                    : The.New.York.Ripper.1982.2160p.BluRay.x264.8bit.SDR.DTS-HD.MA.TrueHD.7.1.Atmos-SWTYBLZ
  46. Language                                 : English
  47. Default                                  : Yes
  48. Forced                                   : No
  49. Original source medium                   : Blu-ray
  50. Number of dynamic objects                : 11
  51. Bed channel count                        : 1 channel
  52. Bed channel configuration                : LFE
  53. Audio #2
  54. ID                                       : 3
  55. Format                                   : DTS XLL
  56. Format/Info                              : Digital Theater Systems
  57. Commercial name                          : DTS-HD Master Audio
  58. Codec ID                                 : A_DTS
  59. Duration                                 : 1 h 33 min
  60. Bit rate mode                            : Variable
  61. Bit rate                                 : 3 748 kb/s
  62. Channel(s)                               : 8 channels
  63. Channel layout                           : C L R LFE Lb Rb Lss Rss
  64. Sampling rate                            : 48.0 kHz
  65. Frame rate                               : 93.750 FPS (512 SPF)
  66. Bit depth                                : 24 bits
  67. Compression mode                         : Lossless
  68. Stream size                              : 2.44 GiB (5%)
  69. Title                                    : The.New.York.Ripper.1982.2160p.BluRay.x264.8bit.SDR.DTS-HD.MA.TrueHD.7.1.Atmos-SWTYBLZ
  70. Language                                 : English
  71. Default                                  : No
  72. Forced                                   : No
  73. Audio #3
  74. ID                                       : 4
  75. ID in the original source medium         : 4352 (0x1100)
  76. Format                                   : AC-3
  77. Format/Info                              : Audio Coding 3
  78. Commercial name                          : Dolby Digital
  79. Codec ID                                 : A_AC3
  80. Duration                                 : 1 h 33 min
  81. Bit rate mode                            : Constant
  82. Bit rate                                 : 640 kb/s
  83. Channel(s)                               : 6 channels
  84. Channel layout                           : L R C LFE Ls Rs
  85. Sampling rate                            : 48.0 kHz
  86. Frame rate                               : 31.250 FPS (1536 SPF)
  87. Compression mode                         : Lossy
  88. Stream size                              : 426 MiB (1%)
  89. Title                                    : The.New.York.Ripper.1982.2160p.BluRay.x264.8bit.SDR.DTS-HD.MA.TrueHD.7.1.Atmos-SWTYBLZ
  90. Language                                 : English
  91. Service kind                             : Complete Main
  92. Default                                  : No
  93. Forced                                   : No
  94. Original source medium                   : Blu-ray
  95. Audio #4
  96. ID                                       : 5
  97. ID in the original source medium         : 4355 (0x1103)
  98. Format                                   : DTS XLL
  99. Format/Info                              : Digital Theater Systems
  100. Commercial name                          : DTS-HD Master Audio
  101. Codec ID                                 : A_DTS
  102. Duration                                 : 1 h 33 min
  103. Bit rate mode                            : Variable
  104. Bit rate                                 : 1 045 kb/s
  105. Channel(s)                               : 1 channel
  106. Channel layout                           : C
  107. Sampling rate                            : 48.0 kHz
  108. Frame rate                               : 93.750 FPS (512 SPF)
  109. Bit depth                                : 24 bits
  110. Compression mode                         : Lossless
  111. Stream size                              : 696 MiB (1%)
  112. Title                                    : The.New.York.Ripper.1982.2160p.BluRay.x264.8bit.SDR.DTS-HD.MA.TrueHD.7.1.Atmos-SWTYBLZ
  113. Language                                 : Italian
  114. Default                                  : No
  115. Forced                                   : No
  116. Original source medium                   : Blu-ray
  117. Audio #5
  118. ID                                       : 6
  119. Format                                   : AC-3
  120. Format/Info                              : Audio Coding 3
  121. Commercial name                          : Dolby Digital
  122. Codec ID                                 : A_AC3
  123. Duration                                 : 1 h 33 min
  124. Bit rate mode                            : Constant
  125. Bit rate                                 : 640 kb/s
  126. Channel(s)                               : 1 channel
  127. Channel layout                           : C
  128. Sampling rate                            : 48.0 kHz
  129. Frame rate                               : 31.250 FPS (1536 SPF)
  130. Compression mode                         : Lossy
  131. Stream size                              : 426 MiB (1%)
  132. Title                                    : The.New.York.Ripper.1982.2160p.BluRay.x264.8bit.SDR.DTS-HD.MA.TrueHD.7.1.Atmos-SWTYBLZ
  133. Language                                 : Italian
  134. Service kind                             : Complete Main
  135. Default                                  : No
  136. Forced                                   : No
  137. Text #1
  138. ID                                       : 7
  139. Format                                   : UTF-8
  140. Codec ID                                 : S_TEXT/UTF8
  141. Codec ID/Info                            : UTF-8 Plain Text
  142. Duration                                 : 1 h 30 min
  143. Bit rate                                 : 40 b/s
  144. Count of elements                        : 730
  145. Stream size                              : 26.9 KiB (0%)
  146. Title                                    : English-SRT
  147. Language                                 : English
  148. Default                                  : Yes
  149. Forced                                   : No
  150. Text #2
  151. ID                                       : 8
  152. Format                                   : UTF-8
  153. Codec ID                                 : S_TEXT/UTF8
  154. Codec ID/Info                            : UTF-8 Plain Text
  155. Duration                                 : 1 h 30 min
  156. Bit rate                                 : 26 b/s
  157. Count of elements                        : 518
  158. Stream size                              : 17.2 KiB (0%)
  159. Title                                    : English-For-Italian-SRT
  160. Language                                 : English
  161. Default                                  : No
  162. Forced                                   : No
  163. Text #3
  164. ID                                       : 9
  165. ID in the original source medium         : 4768 (0x12A0)
  166. Format                                   : PGS
  167. Muxing mode                              : zlib
  168. Codec ID                                 : S_HDMV/PGS
  169. Codec ID/Info                            : Picture based subtitle format used on BDs/HD-DVDs
  170. Duration                                 : 1 h 31 min
  171. Bit rate                                 : 56.9 kb/s
  172. Count of elements                        : 2138
  173. Stream size                              : 37.1 MiB (0%)
  174. Title                                    : English-PGS
  175. Language                                 : English
  176. Default                                  : No
  177. Forced                                   : No
  178. Original source medium                   : Blu-ray
  179. Text #4
  180. ID                                       : 10
  181. ID in the original source medium         : 4769 (0x12A1)
  182. Format                                   : PGS
  183. Muxing mode                              : zlib
  184. Codec ID                                 : S_HDMV/PGS
  185. Codec ID/Info                            : Picture based subtitle format used on BDs/HD-DVDs
  186. Duration                                 : 1 h 30 min
  187. Bit rate                                 : 45.1 kb/s
  188. Count of elements                        : 1594
  189. Stream size                              : 29.2 MiB (0%)
  190. Title                                    : French-PGS
  191. Language                                 : French
  192. Default                                  : No
  193. Forced                                   : No
  194. Original source medium                   : Blu-ray
  195. Text #5
  196. ID                                       : 11
  197. ID in the original source medium         : 4770 (0x12A2)
  198. Format                                   : PGS
  199. Muxing mode                              : zlib
  200. Codec ID                                 : S_HDMV/PGS
  201. Codec ID/Info                            : Picture based subtitle format used on BDs/HD-DVDs
  202. Duration                                 : 1 h 30 min
  203. Bit rate                                 : 43.3 kb/s
  204. Count of elements                        : 1594
  205. Stream size                              : 28.0 MiB (0%)
  206. Title                                    : Spanish-PGS
  207. Language                                 : Spanish
  208. Default                                  : No
  209. Forced                                   : No
  210. Original source medium                   : Blu-ray
  211. Text #6
  212. ID                                       : 12
  213. ID in the original source medium         : 4771 (0x12A3)
  214. Format                                   : PGS
  215. Muxing mode                              : zlib
  216. Codec ID                                 : S_HDMV/PGS
  217. Codec ID/Info                            : Picture based subtitle format used on BDs/HD-DVDs
  218. Duration                                 : 1 h 30 min
  219. Bit rate                                 : 31.2 kb/s
  220. Count of elements                        : 1242
  221. Stream size                              : 20.1 MiB (0%)
  222. Title                                    : English-For-Italian-PGS
  223. Language                                 : English
  224. Default                                  : No
  225. Forced                                   : No
  226. Original source medium                   : Blu-ray
  227. Menu
  228. 00:00:00.000                             : en:Chapter 01
  229. 00:05:31.205                             : en:Chapter 02
  230. 00:11:43.661                             : en:Chapter 03
  231. 00:18:19.848                             : en:Chapter 04
  232. 00:25:16.515                             : en:Chapter 05
  233. 00:30:57.856                             : en:Chapter 06
  234. 00:35:21.994                             : en:Chapter 07
  235. 00:40:38.436                             : en:Chapter 08
  236. 00:44:51.146                             : en:Chapter 09
  237. 00:49:22.626                             : en:Chapter 10
  238. 00:54:02.614                             : en:Chapter 11
  239. 01:02:29.746                             : en:Chapter 12
  240. 01:10:16.921                             : en:Chapter 13
  241. 01:19:47.783                             : en:Chapter 14
  242. 01:26:09.164                             : en:Chapter 15
  243. 01:31:41.412                             : en:Chapter 16
复制代码



                                       
                                       

                                       
                                       
                                       




回复

使用道具 举报

发表于 2020-9-12 17:15:35 | 显示全部楼层
楼主发贴辛苦了,谢谢楼主分享!我觉得蓝光电影网是注册对了!
回复 支持 反对

使用道具 举报

发表于 2020-9-13 09:57:07 | 显示全部楼层
楼主发贴辛苦了,谢谢楼主分享!我觉得蓝光电影网是注册对了!
回复 支持 反对

使用道具 举报

懒得打字嘛,点击右侧快捷回复 【右侧内容,后台自定义】
您需要登录后才可以回帖 登录 | 立即加入

本版积分规则

现在加入蓝光电影网,注册一个账号
上个主题 下个主题 快速回复 收藏帖子 返回列表 客服中心 搜索

手机版|小黑屋| 蓝光电影网 |网站地图 

Copyright © 2015-2019 Comsenz Inc.  Template by 蓝光电影论坛 All Rights Reserved.

Powered by 蓝光电影网 X3.4

特别声明:本站所有资源均由网上收集而来,版权归原影音公司所有,如果侵犯了你的权益,请通知我们,我们会及时删除侵权内容.

快速回复 返回顶部 返回列表